💬 Мини-чат

Для тех, кому интересен процесс переделки сайта - https://rips.club/changelog.html (обновлен 20.04.2024)
  • justmkr
Отправка сообщений доступна только зарегистрированным/авторизованным пользователям.
Онлайн (за 10 мин.): 1

Взвод / Platoon (1986) BDRip 1080p [HEVC] 8 bit от HANNIBAL

HEVC
8 bit
Обложка Взвод / Platoon (1986) BDRip 1080p [HEVC] 8 bit от HANNIBAL Год: 1986
Страна: США
Жанр: Боевик, Военный, Драма
Продолжительность: 01:59:50

Режиссер: Оливер Стоун
В ролях: Кит Дэвид, Чарли Шин, Дэйл Дай, Тони Тодд, Джон С. МакГинли, Эрик Хан, Джонни Депп, Форест Уитакер, Кевин Диллон, Франческо Куинн, Реджи Джонсон, Дэвид Найдорф, Айвэн Кэйн, Пол Санчес, Питер Хикс, Ник Николсон, Уоррен МакЛин, Х. Гордон Боос, Ричард Эдсон, Марк Моузес, Оливер Стоун, Уиллем Дефо, Том Беренджер

Описание: В сентябре 1967 года куда-то в приграничный район между Вьетнамом и Камбоджей прибыл рядовой 25-го пехотного полка Крис Тэйлор. Прибыл, чтобы своими глазами увидеть, как выглядит подлинный Ад. Не потусторонний, вымышленный, сочиненный писателями или художниками, а натуральный, здешний, вполне земной Ад, на территории которого схлестнулись друг с другом сержант Боб Барнс и сержант Илайес Гродин. Они тоже думали, что будут воевать с партизанами-вьетконговцами, но оказалось, что иногда приходится драться со своими…


Видео: 1920х1040, 4723 Kbps
Аудио1: AC3, 6 ch, 448 Kbps - РусскийРусский, Профессиональный (многоголосый)
Аудио2: AC3, 6 ch, 448 Kbps - Оригинал
Субтитры: нет

Как за пару секунд удалить ненужные аудиодорожки и субтитры (Внимание! После удаления вы не сможете поддержать раздачу)

Медиаинфо
General
Unique ID : 229864049656101528474182320790706844340 (0xACEE34A4A1B5A1FD8F09F7436B67F2B4)
Complete name : D:\ВИДЕО\[HEVC]\Platoon (1986) BDRip 1080p [HEVC].mkv
Format : Matroska
Format version : Version 2
File size : 4.80 GiB
Duration : 1 h 59 min
Overall bit rate : 5 733 kb/s
Movie name : PLATOON.Title300
Encoded date : UTC 2016-06-26 11:04:41
Writing application : DVDFab 9.2.4.2
Writing library : libebml v0.7.8 + libmatroska v0.8.1

Video
ID : 1
Format : HEVC
Format/Info : High Efficiency Video Coding
Format profile : Main@L5@High
Codec ID : V_MPEGH/ISO/HEVC
Duration : 1 h 59 min
Bit rate : 4 723 kb/s
Width : 1 920 pixels
Height : 1 040 pixels
Display aspect ratio : 1.85:1
Frame rate mode : Constant
Frame rate : 23.976 (24000/1001) FPS
Color space : YUV
Chroma subsampling : 4:2:0
Bit depth : 8 bits
Bits/(Pixel*Frame) : 0.099
Stream size : 3.95 GiB (82%)
Default : Yes
Forced : No

Audio #1
ID : 2
Format : AC-3
Format/Info : Audio Coding 3
Codec ID : A_AC3
Duration : 1 h 59 min
Bit rate mode : Constant
Bit rate : 448 kb/s
Channel(s) : 6 channels
Channel positions : Front: L C R, Side: L R, LFE
Sampling rate : 48.0 kHz
Frame rate : 31.250 FPS (1536 SPF)
Bit depth : 16 bits
Compression mode : Lossy
Stream size : 384 MiB (8%)
Language : Russian
Service kind : Complete Main
Default : Yes
Forced : No

Audio #2
ID : 3
Format : AC-3
Format/Info : Audio Coding 3
Codec ID : A_AC3
Duration : 1 h 59 min
Bit rate mode : Constant
Bit rate : 448 kb/s
Channel(s) : 6 channels
Channel positions : Front: L C R, Side: L R, LFE
Sampling rate : 48.0 kHz
Frame rate : 31.250 FPS (1536 SPF)
Bit depth : 16 bits
Compression mode : Lossy
Stream size : 384 MiB (8%)
Language : English
Service kind : Complete Main
Default : No
Forced : No

Menu
00:00:00.000 : en:(01)00:00:00:000
00:02:57.135 : en:(02)00:02:57:135
00:05:26.534 : en:(03)00:05:26:534
00:08:14.535 : en:(04)00:08:14:535
00:11:28.479 : en:(05)00:11:28:479
00:13:13.667 : en:(06)00:13:13:667
00:18:43.122 : en:(07)00:18:43:122
00:22:44.863 : en:(08)00:22:44:863
00:26:26.001 : en:(09)00:26:26:001
00:29:59.422 : en:(10)00:29:59:422
00:32:18.895 : en:(11)00:32:18:895
00:36:30.730 : en:(12)00:36:30:730
00:43:07.459 : en:(13)00:43:07:459
00:45:09.415 : en:(14)00:45:09:415
00:50:32.904 : en:(15)00:50:32:904
00:55:49.554 : en:(16)00:55:49:554
00:58:56.157 : en:(17)00:58:56:157
01:01:50.581 : en:(18)01:01:50:581
01:03:04.864 : en:(19)01:03:04:864
01:04:45.381 : en:(20)01:04:45:381
01:11:02.549 : en:(21)01:11:02:549
01:15:26.772 : en:(22)01:15:26:772
01:16:48.437 : en:(23)01:16:48:437
01:21:07.279 : en:(24)01:21:07:279
01:26:42.322 : en:(25)01:26:42:322
01:29:21.022 : en:(26)01:29:21:022
01:32:25.498 : en:(27)01:32:25:498
01:37:21.794 : en:(28)01:37:21:794
01:43:40.130 : en:(29)01:43:40:130
01:46:49.444 : en:(30)01:46:49:444
01:50:16.651 : en:(31)01:50:16:651
01:55:35.011 : en:(32)01:55:35:011
01:59:49.473 : en:(33)01:59:49:473
Загрузка...Cкриншот1 Взвод / Platoon (1986) BDRip 1080p [HEVC] 8 bit от HANNIBALЗагрузка...Cкриншот2 Взвод / Platoon (1986) BDRip 1080p [HEVC] 8 bit от HANNIBALЗагрузка...Cкриншот3 Взвод / Platoon (1986) BDRip 1080p [HEVC] 8 bit от HANNIBALЗагрузка...Cкриншот4 Взвод / Platoon (1986) BDRip 1080p [HEVC] 8 bit от HANNIBAL
Сэмпл Торрент🧲 Магнет

Рейтинги КП и IMDB, кнопки "Позвать в чате" и "Спасибо", а также мультитрекерная статистика доступны только зарегистрированным/авторизованным пользователям!

Файлы: 1
  • Platoon (1986) BDRip 1080p [HEVC].mkv   4.8 ГБ
Поблагодарили: 7
brukvalub, ko1ob, makss333, nach, Rezident, stormbringer, Торпеда
HANNIBAL
0156014.8 ГБ

Добавление нового комментария

Добавление комментариев доступно только зарегистрированным/авторизованным пользователям.