💬 Мини-чат

Giggaloнет ли у кого в планах "Давайте потанцуем" 2004
GiggaloСообщение удалено (удалил: Giggalo)
StarLordOldGamer, как дела?)
StarLordOldGamer, ура, вернулся 😄
OldGamerRezident, можете скачать этот фильм от другого релизёра, там невелика разница, а раздающие точно есть
OldGamerGiggalo, https://tsya.ru/mnemonic.html
NoMaDСообщение удалено (удалил: NoMaD)
NoMaDСообщение удалено (удалил: NoMaD)
GiggaloСообщение удалено (удалил: Giggalo)
GiggaloСообщение удалено (удалил: Giggalo)
Spartanec1308Был днём
StarLordGiggalo, наверное отрубало беднягу, целый день его нету 😅
GiggaloСообщение удалено (удалил: Giggalo)
OldGamerДоброе. Работы много, некогда на перинах валяться.
GiggaloСообщение удалено (удалил: Giggalo)
GiggaloСообщение удалено (удалил: Giggalo)
  • StarLord
  • netfigni
Отправка сообщений доступна только зарегистрированным/авторизованным пользователям.
Онлайн (за 10 мин.): 2

Крепкий орешек: Пенталогия / Die Hard: Pentalogy (1988-2013) BDRip 1080p [HEVC] 10 bit от OldGamer (RG RIPS CLUB)

HEVC
10 bit
Обложка Крепкий орешек: Пенталогия / Die Hard: Pentalogy (1988-2013) BDRip 1080p [HEVC] 10 bit от OldGamer (RG RIPS CLUB) Год: 1988-2013
Страна: США, Великобритания, Россия, Венгрия
Студия: 20th Century Fox, Silver Pictures, Gordon Company, Cinergi Pictures, Cheyenne Enterprises, Dune Entertainment, Ingenious Film Partners, Giant Pictures
Жанр: Боевик, Триллер, Криминал, Приключения

1. Крепкий орешек / Die Hard (1988) BDRip 1080p [HEVC] 10 bit от OldGamer
HEVC
10 bit
Обложка Крепкий орешек / Die Hard (1988) BDRip 1080p [HEVC] 10 bit от OldGamer Год: 1988
Страна: США
Студия: 20th Century Fox, Silver Pictures, Gordon Company
Жанр: Боевик, Триллер, Криминал
Продолжительность: 02:12:10

Режиссер: Джон МакТирнан
В ролях: Брюс Уиллис, Алан Рикман, Бонни Беделиа, Реджинальд ВелДжонсон, Пол Глисон, Уильям Этертон, Харт Бокнер, Джеймс Шигета, Александр Годунов, Роберт Дави

Описание: В суперсовременном небоскребе Лос-Анджелеса полицейский Джон Макклейн ведет смертельную схватку с бандой политических террористов, взявших в заложники два десятка человек, в число которых попадает и его жена. Началось все с того, что парень приехал в город к жене, оказался на рождественском приеме, а кончилось настоящей войной...


Исходник: Blu-Ray Remux 1080p
Видео: 1920x812 (2.35:1), 8860 Кбит/сек, HEVC (Main10@L.4.1@High)
Аудио1: AC3, 6 ch, 640 Kbps - РусскийРусский, Дублированный (Blu-ray CEE)
Аудио2: AC3, 6 ch, 640 Kbps - РусскийРусский, Многоголосый (ОРТ)
Аудио3: AC3, 6 ch, 640 Kbps - РусскийРусский, Многоголосый (Киномания)
Аудио4: AC3, 6 ch, 640 Kbps - РусскийРусский, Многоголосый (Карусель/Супербит)
Аудио5: AC3, 6 ch, 448 Kbps - РусскийРусский, Многоголосый (Киномания/Домашнее Видео)
Аудио6: AC3, 6 ch, 448 Kbps - РусскийРусский, Многоголосый (НТВ+)
Аудио7: AC3, 6 ch, 320 Kbps - РусскийРусский, Многоголосый (Премьер Видео Фильм)
Аудио8: AC3, 2 ch, 256 Kbps - РусскийРусский, Многоголосый (Лазер Видео)
Аудио9: AC3, 2 ch, 192 Kbps - РусскийРусский, Многоголосый (Гемини R5)
Аудио10: AC3, 6 ch, 640 Kbps - РусскийРусский, Авторский (Андрей Гаврилов)
Аудио11: AC3, 6 ch, 640 Kbps - РусскийРусский, Авторский (Юрий Живов)
Аудио12: AC3, 6 ch, 640 Kbps - РусскийРусский, Авторский (Денис Строев)
Аудио13: AC3, 6 ch, 384 Kbps - РусскийРусский, Авторский (Василий Горчаков)
Аудио14: AC3, 2 ch, 192 Kbps - РусскийРусский, Авторский (Леонид Володарский)
Аудио15: AC3, 2 ch, 192 Kbps - УкраинскийУкраинский, Многоголосый
Аудио16: AC3, 6 ch, 640 Kbps - EnglishEnglish, Original
Субтитры: Русские полные (SRT), English full (SRT)

Как за пару секунд удалить ненужные аудиодорожки и субтитры (Внимание! После удаления вы не сможете поддержать раздачу)

Лог (x265 info)
x265 [info]: frame I: 806, Avg QP:16.51 kb/s: 19929.06
x265 [info]: frame P: 38408, Avg QP:17.86 kb/s: 16673.30
x265 [info]: frame B: 150928, Avg QP:19.90 kb/s: 6811.05
x265 [info]: Weighted P-Frames: Y:11.6% UV:9.5%
x265 [info]: Weighted B-Frames: Y:8.6% UV:6.4%
x265 [info]: consecutive B-frames: 3.0% 2.8% 4.7% 40.2% 8.9% 31.7% 3.5% 4.7% 0.2% 0.1% 0.0% 0.0%
x265 [info]: encoded 190142 frames in 182799.13s (1.04 fps), 8858.80 kb/s, Avg QP:19.48
Медиаинфо
Общее
Уникальный идентификатор : 321176513930121564653561263782837089333 (0xF1A058B83BFBFB57AD91688E6CDFF435)
Полное имя : \\..\01.Крепкий.орешек.Die.Hard.1988.BDRip-HEVC.1080p.mkv
Формат : Matroska
Версия формата : Version 4
Размер файла : 15,2 Гбайт
Продолжительность : 2 ч. 12 м.
Общий поток : 16,4 Мбит/сек
Название фильма : 01.Крепкий.орешек.Die.Hard.1988.BDRip-HEVC.1080p
Дата кодирования : UTC 2020-10-30 11:20:42
Программа кодирования : mkvmerge v51.0.0 ('I Wish') 64-bit
Библиотека кодирования : libebml v1.4.0 + libmatroska v1.6.2

Видео
Идентификатор : 1
Формат : HEVC
Формат/Информация : High Efficiency Video Coding
Профиль формата : Main 10@L4.1@High
Идентификатор кодека : V_MPEGH/ISO/HEVC
Продолжительность : 2 ч. 12 м.
Битрейт : 8 860 Кбит/сек
Ширина : 1 920 пикселей
Высота : 812 пикселей
Соотношение сторон : 2,35:1
Режим частоты кадров : Постоянный
Частота кадров : 23,976 (24000/1001) кадра/сек
Цветовое пространство : YUV
Субдискретизация насыщенности : 4:2:0
Битовая глубина : 10 бит
Бит/(Пиксели*Кадры) : 0.237
Размер потока : 8,18 Гбайт (54%)
Заголовок : Die Hard / Rip by OldGamer
Библиотека кодирования : x265 3.4+4-g3ae3d7116:[Windows][GCC 10.2.0][64 bit] 10bit
Настройки программы : cpuid=1111039 / frame-threads=3 / numa-pools=8 / wpp / no-pmode / no-pme / no-psnr / no-ssim / log-level=2 / input-csp=1 / input-res=1920x812 / interlace=0 / total-frames=190142 / level-idc=41 / high-tier=1 / uhd-bd=0 / ref=5 / no-allow-non-conformance / no-repeat-headers / annexb / no-aud / no-hrd / info / hash=0 / no-temporal-layers / open-gop / min-keyint=23 / keyint=240 / gop-lookahead=0 / bframes=11 / b-adapt=2 / b-pyramid / bframe-bias=0 / rc-lookahead=40 / lookahead-slices=0 / scenecut=40 / hist-scenecut=0 / radl=0 / no-splice / no-intra-refresh / ctu=64 / min-cu-size=8 / rect / amp / max-tu-size=32 / tu-inter-depth=4 / tu-intra-depth=4 / limit-tu=1 / rdoq-level=2 / dynamic-rd=0.00 / no-ssim-rd / signhide / no-tskip / nr-intra=0 / nr-inter=0 / no-constrained-intra / no-strong-intra-smoothing / max-merge=5 / limit-refs=3 / no-limit-modes / me=3 / subme=7 / merange=57 / temporal-mvp / no-frame-dup / no-hme / weightp / weightb / no-analyze-src-pics / deblock=-3:-3 / no-sao / no-sao-non-deblock / rd=6 / selective-sao=0 / no-early-skip / rskip / no-fast-intra / no-tskip-fast / no-cu-lossless / b-intra / no-splitrd-skip / rdpenalty=0 / psy-rd=2.00 / psy-rdoq=1.00 / no-rd-refine / no-lossless / cbqpoffs=0 / crqpoffs=0 / rc=crf / crf=19.7 / qcomp=0.70 / qpstep=4 / stats-write=0 / stats-read=0 / vbv-maxrate=50000 / vbv-bufsize=50000 / vbv-init=0.9 / crf-max=0.0 / crf-min=0.0 / ipratio=1.40 / pbratio=1.30 / aq-mode=1 / aq-strength=1.00 / no-cutree / zone-count=1 / zones: / start-frame=184395 / end-frame=190123 / qp=36 / no-strict-cbr / qg-size=32 / no-rc-grain / qpmax=69 / qpmin=0 / no-const-vbv / sar=1 / overscan=0 / videoformat=5 / range=0 / colorprim=2 / transfer=2 / colormatrix=2 / chromaloc=0 / display-window=0 / cll=0,0 / min-luma=0 / max-luma=1023 / log2-max-poc-lsb=8 / vui-timing-info / vui-hrd-info / slices=1 / no-opt-qp-pps / no-opt-ref-list-length-pps / no-multi-pass-opt-rps / scenecut-bias=0.00 / hist-threshold=0.01 / no-opt-cu-delta-qp / no-aq-motion / no-hdr10 / no-hdr10-opt / no-dhdr10-opt / no-idr-recovery-sei / analysis-reuse-level=0 / analysis-save-reuse-level=0 / analysis-load-reuse-level=0 / scale-factor=0 / refine-intra=0 / refine-inter=0 / refine-mv=1 / refine-ctu-distortion=0 / no-limit-sao / ctu-info=0 / no-lowpass-dct / refine-analysis-type=0 / copy-pic=1 / max-ausize-factor=1.0 / no-dynamic-refine / no-single-sei / no-hevc-aq / no-svt / no-field / qp-adaptation-range=1.00 / no-scenecut-aware-qpconformance-window-offsets / right=0 / bottom=0 / decoder-max-rate=0
Язык : English
Default : Да
Forced : Нет

Аудио #1
Идентификатор : 2
Формат : AC-3
Формат/Информация : Audio Coding 3
Коммерческое название : Dolby Digital
Идентификатор кодека : A_AC3
Продолжительность : 2 ч. 12 м.
Вид битрейта : Постоянный
Битрейт : 640 Кбит/сек
Каналы : 6 каналов
Channel layout : L R C LFE Ls Rs
Частота : 48,0 КГц
Частота кадров : 31,250 кадров/сек (1536 SPF)
Метод сжатия : С потерями
Размер потока : 605 Мбайт (4%)
Заголовок : DUB (Blu-ray CEE)
Язык : Russian
Service kind : Complete Main
Default : Да
Forced : Нет

Аудио #2
Идентификатор : 3
Формат : AC-3
Формат/Информация : Audio Coding 3
Коммерческое название : Dolby Digital
Идентификатор кодека : A_AC3
Продолжительность : 2 ч. 12 м.
Вид битрейта : Постоянный
Битрейт : 640 Кбит/сек
Каналы : 6 каналов
Channel layout : L R C LFE Ls Rs
Частота : 48,0 КГц
Частота кадров : 31,250 кадров/сек (1536 SPF)
Метод сжатия : С потерями
Размер потока : 605 Мбайт (4%)
Заголовок : MVO (ОРТ)
Язык : Russian
Service kind : Complete Main
Default : Нет
Forced : Нет

Аудио #3
Идентификатор : 4
Формат : AC-3
Формат/Информация : Audio Coding 3
Коммерческое название : Dolby Digital
Идентификатор кодека : A_AC3
Продолжительность : 2 ч. 12 м.
Вид битрейта : Постоянный
Битрейт : 640 Кбит/сек
Каналы : 6 каналов
Channel layout : L R C LFE Ls Rs
Частота : 48,0 КГц
Частота кадров : 31,250 кадров/сек (1536 SPF)
Метод сжатия : С потерями
Размер потока : 605 Мбайт (4%)
Заголовок : MVO (Киномания)
Язык : Russian
Service kind : Complete Main
Default : Нет
Forced : Нет

Аудио #4
Идентификатор : 5
Формат : AC-3
Формат/Информация : Audio Coding 3
Коммерческое название : Dolby Digital
Идентификатор кодека : A_AC3
Продолжительность : 2 ч. 12 м.
Вид битрейта : Постоянный
Битрейт : 640 Кбит/сек
Каналы : 6 каналов
Channel layout : L R C LFE Ls Rs
Частота : 48,0 КГц
Частота кадров : 31,250 кадров/сек (1536 SPF)
Метод сжатия : С потерями
Размер потока : 605 Мбайт (4%)
Заголовок : MVO (Карусель/Супербит)
Язык : Russian
Service kind : Complete Main
Default : Нет
Forced : Нет

Аудио #5
Идентификатор : 6
ID in the original source medium : 4357 (0x1105)
Формат : AC-3
Формат/Информация : Audio Coding 3
Коммерческое название : Dolby Digital
Идентификатор кодека : A_AC3
Продолжительность : 2 ч. 12 м.
Вид битрейта : Постоянный
Битрейт : 448 Кбит/сек
Каналы : 6 каналов
Channel layout : L R C LFE Ls Rs
Частота : 48,0 КГц
Частота кадров : 31,250 кадров/сек (1536 SPF)
Метод сжатия : С потерями
Размер потока : 423 Мбайт (3%)
Заголовок : MVO (Киномания/Домашнее Видео)
Язык : Russian
Service kind : Complete Main
Default : Нет
Forced : Нет
Носитель оригинала : Blu-ray

Аудио #6
Идентификатор : 7
ID in the original source medium : 4358 (0x1106)
Формат : AC-3
Формат/Информация : Audio Coding 3
Коммерческое название : Dolby Digital
Идентификатор кодека : A_AC3
Продолжительность : 2 ч. 12 м.
Вид битрейта : Постоянный
Битрейт : 448 Кбит/сек
Каналы : 6 каналов
Channel layout : L R C LFE Ls Rs
Частота : 48,0 КГц
Частота кадров : 31,250 кадров/сек (1536 SPF)
Метод сжатия : С потерями
Размер потока : 423 Мбайт (3%)
Заголовок : MVO (НТВ+)
Язык : Russian
Service kind : Complete Main
Default : Нет
Forced : Нет
Носитель оригинала : Blu-ray

Аудио #7
Идентификатор : 8
ID in the original source medium : 4360 (0x1108)
Формат : AC-3
Формат/Информация : Audio Coding 3
Коммерческое название : Dolby Digital
Идентификатор кодека : A_AC3
Продолжительность : 2 ч. 12 м.
Вид битрейта : Постоянный
Битрейт : 320 Кбит/сек
Каналы : 6 каналов
Channel layout : L R C LFE Ls Rs
Частота : 48,0 КГц
Частота кадров : 31,250 кадров/сек (1536 SPF)
Метод сжатия : С потерями
Размер потока : 302 Мбайт (2%)
Заголовок : MVO (Премьер Видео Фильм)
Язык : Russian
Service kind : Complete Main
Default : Нет
Forced : Нет
Носитель оригинала : Blu-ray

Аудио #8
Идентификатор : 9
ID in the original source medium : 4361 (0x1109)
Формат : AC-3
Формат/Информация : Audio Coding 3
Коммерческое название : Dolby Digital
Идентификатор кодека : A_AC3
Продолжительность : 2 ч. 8 м.
Вид битрейта : Постоянный
Битрейт : 256 Кбит/сек
Каналы : 2 канала
Channel layout : L R
Частота : 48,0 КГц
Частота кадров : 31,250 кадров/сек (1536 SPF)
Метод сжатия : С потерями
Размер потока : 236 Мбайт (2%)
Заголовок : MVO (Лазер Видео)
Язык : Russian
Service kind : Complete Main
Default : Нет
Forced : Нет
Носитель оригинала : Blu-ray

Аудио #9
Идентификатор : 10
ID in the original source medium : 4359 (0x1107)
Формат : AC-3
Формат/Информация : Audio Coding 3
Коммерческое название : Dolby Digital
Идентификатор кодека : A_AC3
Продолжительность : 2 ч. 12 м.
Вид битрейта : Постоянный
Битрейт : 192 Кбит/сек
Каналы : 2 канала
Channel layout : L R
Частота : 48,0 КГц
Частота кадров : 31,250 кадров/сек (1536 SPF)
Метод сжатия : С потерями
Размер потока : 181 Мбайт (1%)
Заголовок : MVO (Гемини R5)
Язык : Russian
Service kind : Complete Main
Default : Нет
Forced : Нет
Носитель оригинала : Blu-ray

Аудио #10
Идентификатор : 11
Формат : AC-3
Формат/Информация : Audio Coding 3
Коммерческое название : Dolby Digital
Идентификатор кодека : A_AC3
Продолжительность : 2 ч. 12 м.
Вид битрейта : Постоянный
Битрейт : 640 Кбит/сек
Каналы : 6 каналов
Channel layout : L R C LFE Ls Rs
Частота : 48,0 КГц
Частота кадров : 31,250 кадров/сек (1536 SPF)
Метод сжатия : С потерями
Размер потока : 605 Мбайт (4%)
Заголовок : AVO (Андрей Гаврилов)
Язык : Russian
Service kind : Complete Main
Default : Нет
Forced : Нет

Аудио #11
Идентификатор : 12
Формат : AC-3
Формат/Информация : Audio Coding 3
Коммерческое название : Dolby Digital
Идентификатор кодека : A_AC3
Продолжительность : 2 ч. 12 м.
Вид битрейта : Постоянный
Битрейт : 640 Кбит/сек
Каналы : 6 каналов
Channel layout : L R C LFE Ls Rs
Частота : 48,0 КГц
Частота кадров : 31,250 кадров/сек (1536 SPF)
Метод сжатия : С потерями
Размер потока : 605 Мбайт (4%)
Заголовок : AVO (Юрий Живов)
Язык : Russian
Service kind : Complete Main
Default : Нет
Forced : Нет

Аудио #12
Идентификатор : 13
Формат : AC-3
Формат/Информация : Audio Coding 3
Коммерческое название : Dolby Digital
Идентификатор кодека : A_AC3
Продолжительность : 2 ч. 12 м.
Вид битрейта : Постоянный
Битрейт : 640 Кбит/сек
Каналы : 6 каналов
Channel layout : L R C LFE Ls Rs
Частота : 48,0 КГц
Частота кадров : 31,250 кадров/сек (1536 SPF)
Метод сжатия : С потерями
Размер потока : 605 Мбайт (4%)
Заголовок : AVO (Денис Строев)
Язык : Russian
Service kind : Complete Main
Default : Нет
Forced : Нет

Аудио #13
Идентификатор : 14
ID in the original source medium : 4365 (0x110D)
Формат : AC-3
Формат/Информация : Audio Coding 3
Коммерческое название : Dolby Digital
Идентификатор кодека : A_AC3
Продолжительность : 2 ч. 12 м.
Вид битрейта : Постоянный
Битрейт : 384 Кбит/сек
Каналы : 6 каналов
Channel layout : L R C LFE Ls Rs
Частота : 48,0 КГц
Частота кадров : 31,250 кадров/сек (1536 SPF)
Метод сжатия : С потерями
Размер потока : 363 Мбайт (2%)
Заголовок : AVO (Василий Горчаков)
Язык : Russian
Service kind : Complete Main
Default : Нет
Forced : Нет
Носитель оригинала : Blu-ray

Аудио #14
Идентификатор : 15
ID in the original source medium : 4367 (0x110F)
Формат : AC-3
Формат/Информация : Audio Coding 3
Коммерческое название : Dolby Digital
Идентификатор кодека : A_AC3
Продолжительность : 2 ч. 12 м.
Вид битрейта : Постоянный
Битрейт : 192 Кбит/сек
Каналы : 2 канала
Channel layout : L R
Частота : 48,0 КГц
Частота кадров : 31,250 кадров/сек (1536 SPF)
Метод сжатия : С потерями
Размер потока : 181 Мбайт (1%)
Заголовок : AVO (Леонид Володарский)
Язык : Russian
Service kind : Complete Main
Default : Нет
Forced : Нет
Носитель оригинала : Blu-ray

Аудио #15
Идентификатор : 16
ID in the original source medium : 4362 (0x110A)
Формат : AC-3
Формат/Информация : Audio Coding 3
Коммерческое название : Dolby Digital
Идентификатор кодека : A_AC3
Продолжительность : 2 ч. 12 м.
Вид битрейта : Постоянный
Битрейт : 192 Кбит/сек
Каналы : 2 канала
Channel layout : L R
Частота : 48,0 КГц
Частота кадров : 31,250 кадров/сек (1536 SPF)
Метод сжатия : С потерями
Размер потока : 182 Мбайт (1%)
Заголовок : MVO
Язык : Ukrainian
Service kind : Complete Main
Default : Нет
Forced : Нет
Носитель оригинала : Blu-ray

Аудио #16
Идентификатор : 17
Формат : AC-3
Формат/Информация : Audio Coding 3
Коммерческое название : Dolby Digital
Идентификатор кодека : A_AC3
Продолжительность : 2 ч. 12 м.
Вид битрейта : Постоянный
Битрейт : 640 Кбит/сек
Каналы : 6 каналов
Channel layout : L R C LFE Ls Rs
Частота : 48,0 КГц
Частота кадров : 31,250 кадров/сек (1536 SPF)
Метод сжатия : С потерями
Размер потока : 605 Мбайт (4%)
Язык : English
Service kind : Complete Main
Default : Нет
Forced : Нет

Текст #1
Идентификатор : 18
Формат : UTF-8
Идентификатор кодека : S_TEXT/UTF8
Идентификатор кодека/Информация : UTF-8 Plain Text
Продолжительность : 2 ч. 6 м.
Битрейт : 87 бит/сек
Count of elements : 1460
Размер потока : 80,6 Кбайт (0%)
Язык : Russian
Default : Нет
Forced : Нет

Текст #2
Идентификатор : 19
Формат : UTF-8
Идентификатор кодека : S_TEXT/UTF8
Идентификатор кодека/Информация : UTF-8 Plain Text
Продолжительность : 2 ч. 6 м.
Битрейт : 55 бит/сек
Count of elements : 1662
Размер потока : 50,9 Кбайт (0%)
Язык : English
Default : Нет
Forced : Нет

Меню
00:00:00.000 : en:Chapter 01
00:02:21.975 : en:Chapter 02
00:03:58.363 : en:Chapter 03
00:05:12.520 : en:Chapter 04
00:06:10.411 : en:Chapter 05
00:07:51.512 : en:Chapter 06
00:11:58.718 : en:Chapter 07
00:13:18.506 : en:Chapter 08
00:14:03.676 : en:Chapter 09
00:14:18.941 : en:Chapter 10
00:16:58.892 : en:Chapter 11
00:21:01.051 : en:Chapter 12
00:22:42.569 : en:Chapter 13
00:24:53.825 : en:Chapter 14
00:26:50.900 : en:Chapter 15
00:28:50.812 : en:Chapter 16
00:33:25.044 : en:Chapter 17
00:34:09.213 : en:Chapter 18
00:35:26.999 : en:Chapter 19
00:38:19.255 : en:Chapter 20
00:42:34.176 : en:Chapter 21
00:43:24.727 : en:Chapter 22
00:45:19.007 : en:Chapter 23
00:48:00.002 : en:Chapter 24
00:52:39.614 : en:Chapter 25
00:56:49.739 : en:Chapter 26
00:57:55.805 : en:Chapter 27
00:58:39.307 : en:Chapter 28
01:00:50.063 : en:Chapter 29
01:01:39.445 : en:Chapter 30
01:04:18.980 : en:Chapter 31
01:07:44.685 : en:Chapter 32
01:12:58.874 : en:Chapter 33
01:15:19.640 : en:Chapter 34
01:19:15.333 : en:Chapter 35
01:26:11.374 : en:Chapter 36
01:28:50.366 : en:Chapter 37
01:29:27.820 : en:Chapter 38
01:30:07.527 : en:Chapter 39
01:35:44.029 : en:Chapter 40
01:38:58.557 : en:Chapter 41
01:41:27.331 : en:Chapter 42
01:45:25.193 : en:Chapter 43
01:47:45.584 : en:Chapter 44
01:48:11.526 : en:Chapter 45
01:49:50.542 : en:Chapter 46
01:51:09.996 : en:Chapter 47
01:54:16.599 : en:Chapter 48
01:58:23.346 : en:Chapter 49
01:59:44.844 : en:Chapter 50
02:02:01.188 : en:Chapter 51
02:03:49.422 : en:Chapter 52
02:05:13.714 : en:Chapter 53
02:06:28.706 : en:Chapter 54
02:07:19.632 : en:Chapter 55
Загрузка...Cкриншот1 Крепкий орешек / Die Hard (1988) BDRip 1080p [HEVC] 10 bit от OldGamerЗагрузка...Cкриншот2 Крепкий орешек / Die Hard (1988) BDRip 1080p [HEVC] 10 bit от OldGamerЗагрузка...Cкриншот3 Крепкий орешек / Die Hard (1988) BDRip 1080p [HEVC] 10 bit от OldGamerЗагрузка...Cкриншот4 Крепкий орешек / Die Hard (1988) BDRip 1080p [HEVC] 10 bit от OldGamer
Сэмпл
2. Крепкий орешек 2 / Die Hard 2 (1990) BDRip 1080p [HEVC] 10 bit от OldGamer
HEVC
10 bit
Обложка Крепкий орешек 2 / Die Hard 2 (1990) BDRip 1080p [HEVC] 10 bit от OldGamer Год: 1990
Страна: США
Студия: 20th Century Fox, Silver Pictures, Gordon Company
Жанр: Боевик, Триллер
Продолжительность: 02:03:23

Режиссер: Ренни Харлин
В ролях: Брюс Уиллис, Бонни Беделиа, Уильям Сэдлер, Франко Неро, Уильям Этертон, Деннис Франц, Джон Эймос, Арт Эванс, Фред Долтон Томпсон, Реджинальд ВелДжонсон

Описание: В канун Рождества группа террористов захватила международный аэропорт и теперь удерживает тысячи путешествующих в качестве заложников. Террористы - банда отступников из первоклассно вооруженных коммандос, возглавляемых одержимым жестокостью офицером. Их цель - спасти наркобарона. Банда подготовлена ко всевозможным случайностям, за исключением одной - встречи с Джоном Макклейном. Брюс Уиллис возвращается в роли супергероя-полицейского, который сражается не только с террористами, но и с некомпетентным шефом полиции аэропорта, тупоголовым начальником антитеррористического подразделения и страшным снежным бураном. Заложники мечутся, смертельно испуганные и растерянные. А Джон Макклейн ведет схватку и со временем. Его жена находится в одном из самолетов, кружащих над аэропортом. А топливо - на пределе...


Исходник: Blu-Ray Remux 1080p
Видео: 1920x812 (2.35:1), 7490 Кбит/сек, HEVC (Main10@L.4.1@High)
Аудио1: AC3, 6 ch, 640 Kbps - РусскийРусский, Дублированный (Blu-ray CEE)
Аудио2: AC3, 6 ch, 640 Kbps - РусскийРусский, Многоголосый (ОРТ)
Аудио3: AC3, 6 ch, 640 Kbps - РусскийРусский, Многоголосый (Киномания)
Аудио4: AC3, 6 ch, 640 Kbps - РусскийРусский, Многоголосый (Карусель/Супербит)
Аудио5: AC3, 6 ch, 448 Kbps - РусскийРусский, Многоголосый (Киномания/Домашнее Видео)
Аудио6: AC3, 6 ch, 384 Kbps - РусскийРусский, Многоголосый (НТВ+)
Аудио7: AC3, 2 ch, 192 Kbps - РусскийРусский, Многоголосый (Гемини R5)
Аудио8: AC3, 2 ch, 192 Kbps - РусскийРусский, Многоголосый (Премьер Видео Фильм)
Аудио9: AC3, 2 ch, 192 Kbps - РусскийРусский, Многоголосый (Лазер Видео)
Аудио10: AC3, 6 ch, 640 Kbps - РусскийРусский, Авторский (Андрей Гаврилов)
Аудио11: AC3, 6 ch, 640 Kbps - РусскийРусский, Авторский (Юрий Живов)
Аудио12: AC3, 6 ch, 640 Kbps - РусскийРусский, Авторский (Василий Горчаков)
Аудио13: AC3, 6 ch, 640 Kbps - РусскийРусский, Авторский (Михаил Иванов)
Аудио14: AC3, 2 ch, 192 Kbps - РусскийРусский, Авторский (Владимир Козлов "Петербуржец")
Аудио15: AC3, 6 ch, 640 Kbps - EnglishEnglish, Original
Субтитры: Русские полные (SRT), English full (SRT)

Как за пару секунд удалить ненужные аудиодорожки и субтитры (Внимание! После удаления вы не сможете поддержать раздачу)

Лог (x265 info)
x265 [info]: frame I: 749, Avg QP:17.56 kb/s: 13059.82
x265 [info]: frame P: 31754, Avg QP:18.53 kb/s: 12200.62
x265 [info]: frame B: 144992, Avg QP:20.66 kb/s: 6429.24
x265 [info]: Weighted P-Frames: Y:17.5% UV:13.4%
x265 [info]: Weighted B-Frames: Y:19.1% UV:12.3%
x265 [info]: consecutive B-frames: 3.1% 3.7% 5.3% 36.9% 8.3% 16.7% 4.2% 14.5% 1.7% 1.2% 0.7% 2.2% 0.3% 0.2% 0.3% 0.6% 0.2%
x265 [info]: encoded 177495 frames in 156875.17s (1.13 fps), 7489.72 kb/s, Avg QP:20.26
Медиаинфо
Общее
Уникальный идентификатор : 18338309043638603216352587599912495698 (0xDCBD471287FB4F927B1EDBBEA3DEA52)
Полное имя : \\..\02.Крепкий.орешек.2.Die.Hard.2.1990.BDRip-HEVC.1080p.mkv
Формат : Matroska
Версия формата : Version 4
Размер файла : 12,8 Гбайт
Продолжительность : 2 ч. 3 м.
Общий поток : 14,9 Мбит/сек
Название фильма : 02.Крепкий.орешек.2.Die.Hard.2.1990.BDRip-HEVC.1080p
Дата кодирования : UTC 2020-11-01 07:33:50
Программа кодирования : mkvmerge v51.0.0 ('I Wish') 64-bit
Библиотека кодирования : libebml v1.4.0 + libmatroska v1.6.2

Видео
Идентификатор : 1
Формат : HEVC
Формат/Информация : High Efficiency Video Coding
Профиль формата : Main 10@L4.1@High
Идентификатор кодека : V_MPEGH/ISO/HEVC
Продолжительность : 2 ч. 3 м.
Битрейт : 7 490 Кбит/сек
Ширина : 1 920 пикселей
Высота : 812 пикселей
Соотношение сторон : 2,35:1
Режим частоты кадров : Постоянный
Частота кадров : 23,976 (24000/1001) кадра/сек
Цветовое пространство : YUV
Субдискретизация насыщенности : 4:2:0
Битовая глубина : 10 бит
Бит/(Пиксели*Кадры) : 0.200
Размер потока : 6,46 Гбайт (50%)
Заголовок : Die Hard 2 / Rip by OldGamer
Библиотека кодирования : x265 3.4+4-g3ae3d7116:[Windows][GCC 10.2.0][64 bit] 10bit
Настройки программы : cpuid=1111039 / frame-threads=3 / numa-pools=8 / wpp / no-pmode / no-pme / no-psnr / no-ssim / log-level=2 / input-csp=1 / input-res=1920x812 / interlace=0 / total-frames=177495 / level-idc=41 / high-tier=1 / uhd-bd=0 / ref=5 / no-allow-non-conformance / no-repeat-headers / annexb / no-aud / no-hrd / info / hash=0 / no-temporal-layers / open-gop / min-keyint=23 / keyint=240 / gop-lookahead=0 / bframes=16 / b-adapt=2 / b-pyramid / bframe-bias=0 / rc-lookahead=40 / lookahead-slices=0 / scenecut=40 / hist-scenecut=0 / radl=0 / no-splice / no-intra-refresh / ctu=64 / min-cu-size=8 / rect / amp / max-tu-size=32 / tu-inter-depth=4 / tu-intra-depth=4 / limit-tu=1 / rdoq-level=2 / dynamic-rd=0.00 / no-ssim-rd / signhide / no-tskip / nr-intra=0 / nr-inter=0 / no-constrained-intra / no-strong-intra-smoothing / max-merge=5 / limit-refs=3 / no-limit-modes / me=3 / subme=7 / merange=57 / temporal-mvp / no-frame-dup / no-hme / weightp / weightb / no-analyze-src-pics / deblock=-3:-3 / no-sao / no-sao-non-deblock / rd=6 / selective-sao=0 / no-early-skip / rskip / no-fast-intra / no-tskip-fast / no-cu-lossless / b-intra / no-splitrd-skip / rdpenalty=0 / psy-rd=2.00 / psy-rdoq=1.00 / no-rd-refine / no-lossless / cbqpoffs=0 / crqpoffs=0 / rc=crf / crf=20.5 / qcomp=0.70 / qpstep=4 / stats-write=0 / stats-read=0 / vbv-maxrate=50000 / vbv-bufsize=50000 / vbv-init=0.9 / crf-max=0.0 / crf-min=0.0 / ipratio=1.40 / pbratio=1.30 / aq-mode=1 / aq-strength=1.00 / no-cutree / zone-count=1 / zones: / start-frame=168040 / end-frame=177479 / qp=36 / no-strict-cbr / qg-size=32 / no-rc-grain / qpmax=69 / qpmin=0 / no-const-vbv / sar=1 / overscan=0 / videoformat=5 / range=0 / colorprim=2 / transfer=2 / colormatrix=2 / chromaloc=0 / display-window=0 / cll=0,0 / min-luma=0 / max-luma=1023 / log2-max-poc-lsb=8 / vui-timing-info / vui-hrd-info / slices=1 / no-opt-qp-pps / no-opt-ref-list-length-pps / no-multi-pass-opt-rps / scenecut-bias=0.00 / hist-threshold=0.01 / no-opt-cu-delta-qp / no-aq-motion / no-hdr10 / no-hdr10-opt / no-dhdr10-opt / no-idr-recovery-sei / analysis-reuse-level=0 / analysis-save-reuse-level=0 / analysis-load-reuse-level=0 / scale-factor=0 / refine-intra=0 / refine-inter=0 / refine-mv=1 / refine-ctu-distortion=0 / no-limit-sao / ctu-info=0 / no-lowpass-dct / refine-analysis-type=0 / copy-pic=1 / max-ausize-factor=1.0 / no-dynamic-refine / no-single-sei / no-hevc-aq / no-svt / no-field / qp-adaptation-range=1.00 / no-scenecut-aware-qpconformance-window-offsets / right=0 / bottom=0 / decoder-max-rate=0
Язык : English
Default : Да
Forced : Нет

Аудио #1
Идентификатор : 2
Формат : AC-3
Формат/Информация : Audio Coding 3
Коммерческое название : Dolby Digital
Идентификатор кодека : A_AC3
Продолжительность : 2 ч. 3 м.
Вид битрейта : Постоянный
Битрейт : 640 Кбит/сек
Каналы : 6 каналов
Channel layout : L R C LFE Ls Rs
Частота : 48,0 КГц
Частота кадров : 31,250 кадров/сек (1536 SPF)
Метод сжатия : С потерями
Размер потока : 565 Мбайт (4%)
Заголовок : Dub (Blu-ray CEE)
Язык : Russian
Service kind : Complete Main
Default : Да
Forced : Нет

Аудио #2
Идентификатор : 3
Формат : AC-3
Формат/Информация : Audio Coding 3
Коммерческое название : Dolby Digital
Идентификатор кодека : A_AC3
Продолжительность : 2 ч. 3 м.
Вид битрейта : Постоянный
Битрейт : 640 Кбит/сек
Каналы : 6 каналов
Channel layout : L R C LFE Ls Rs
Частота : 48,0 КГц
Частота кадров : 31,250 кадров/сек (1536 SPF)
Метод сжатия : С потерями
Размер потока : 565 Мбайт (4%)
Заголовок : MVO (ОРТ)
Язык : Russian
Service kind : Complete Main
Default : Нет
Forced : Нет

Аудио #3
Идентификатор : 4
Формат : AC-3
Формат/Информация : Audio Coding 3
Коммерческое название : Dolby Digital
Идентификатор кодека : A_AC3
Продолжительность : 2 ч. 3 м.
Вид битрейта : Постоянный
Битрейт : 640 Кбит/сек
Каналы : 6 каналов
Channel layout : L R C LFE Ls Rs
Частота : 48,0 КГц
Частота кадров : 31,250 кадров/сек (1536 SPF)
Метод сжатия : С потерями
Размер потока : 565 Мбайт (4%)
Заголовок : MVO (Киномания)
Язык : Russian
Service kind : Complete Main
Default : Нет
Forced : Нет

Аудио #4
Идентификатор : 5
Формат : AC-3
Формат/Информация : Audio Coding 3
Коммерческое название : Dolby Digital
Идентификатор кодека : A_AC3
Продолжительность : 2 ч. 3 м.
Вид битрейта : Постоянный
Битрейт : 640 Кбит/сек
Каналы : 6 каналов
Channel layout : L R C LFE Ls Rs
Частота : 48,0 КГц
Частота кадров : 31,250 кадров/сек (1536 SPF)
Метод сжатия : С потерями
Размер потока : 565 Мбайт (4%)
Заголовок : MVO (Карусель/Супербит)
Язык : Russian
Service kind : Complete Main
Default : Нет
Forced : Нет

Аудио #5
Идентификатор : 6
ID in the original source medium : 4357 (0x1105)
Формат : AC-3
Формат/Информация : Audio Coding 3
Коммерческое название : Dolby Digital
Идентификатор кодека : A_AC3
Продолжительность : 2 ч. 3 м.
Вид битрейта : Постоянный
Битрейт : 448 Кбит/сек
Каналы : 6 каналов
Channel layout : L R C LFE Ls Rs
Частота : 48,0 КГц
Частота кадров : 31,250 кадров/сек (1536 SPF)
Метод сжатия : С потерями
Размер потока : 395 Мбайт (3%)
Заголовок : MVO (Киномания/Домашнее Видео)
Язык : Russian
Service kind : Complete Main
Default : Нет
Forced : Нет
Носитель оригинала : Blu-ray

Аудио #6
Идентификатор : 7
ID in the original source medium : 4358 (0x1106)
Формат : AC-3
Формат/Информация : Audio Coding 3
Коммерческое название : Dolby Digital
Идентификатор кодека : A_AC3
Продолжительность : 2 ч. 2 м.
Вид битрейта : Постоянный
Битрейт : 384 Кбит/сек
Каналы : 6 каналов
Channel layout : L R C LFE Ls Rs
Частота : 48,0 КГц
Частота кадров : 31,250 кадров/сек (1536 SPF)
Метод сжатия : С потерями
Размер потока : 337 Мбайт (3%)
Заголовок : MVO (НТВ+)
Язык : Russian
Service kind : Complete Main
Default : Нет
Forced : Нет
Носитель оригинала : Blu-ray

Аудио #7
Идентификатор : 8
ID in the original source medium : 4359 (0x1107)
Формат : AC-3
Формат/Информация : Audio Coding 3
Коммерческое название : Dolby Digital
Идентификатор кодека : A_AC3
Продолжительность : 2 ч. 3 м.
Вид битрейта : Постоянный
Битрейт : 192 Кбит/сек
Каналы : 2 канала
Channel layout : L R
Частота : 48,0 КГц
Частота кадров : 31,250 кадров/сек (1536 SPF)
Метод сжатия : С потерями
Размер потока : 169 Мбайт (1%)
Заголовок : MVO (Гемини R5)
Язык : Russian
Service kind : Complete Main
Default : Нет
Forced : Нет
Носитель оригинала : Blu-ray

Аудио #8
Идентификатор : 9
ID in the original source medium : 4360 (0x1108)
Формат : AC-3
Формат/Информация : Audio Coding 3
Коммерческое название : Dolby Digital
Идентификатор кодека : A_AC3
Продолжительность : 2 ч. 3 м.
Вид битрейта : Постоянный
Битрейт : 192 Кбит/сек
Каналы : 2 канала
Channel layout : L R
Частота : 48,0 КГц
Частота кадров : 31,250 кадров/сек (1536 SPF)
Метод сжатия : С потерями
Размер потока : 169 Мбайт (1%)
Заголовок : MVO (Премьер Видео Фильм)
Язык : Russian
Service kind : Complete Main
Default : Нет
Forced : Нет
Носитель оригинала : Blu-ray

Аудио #9
Идентификатор : 10
ID in the original source medium : 4361 (0x1109)
Формат : AC-3
Формат/Информация : Audio Coding 3
Коммерческое название : Dolby Digital
Идентификатор кодека : A_AC3
Продолжительность : 2 ч. 3 м.
Вид битрейта : Постоянный
Битрейт : 192 Кбит/сек
Каналы : 2 канала
Channel layout : L R
Частота : 48,0 КГц
Частота кадров : 31,250 кадров/сек (1536 SPF)
Метод сжатия : С потерями
Размер потока : 169 Мбайт (1%)
Заголовок : MVO (Лазер Видео)
Язык : Russian
Service kind : Complete Main
Default : Нет
Forced : Нет
Носитель оригинала : Blu-ray

Аудио #10
Идентификатор : 11
Формат : AC-3
Формат/Информация : Audio Coding 3
Коммерческое название : Dolby Digital
Идентификатор кодека : A_AC3
Продолжительность : 2 ч. 3 м.
Вид битрейта : Постоянный
Битрейт : 640 Кбит/сек
Каналы : 6 каналов
Channel layout : L R C LFE Ls Rs
Частота : 48,0 КГц
Частота кадров : 31,250 кадров/сек (1536 SPF)
Метод сжатия : С потерями
Размер потока : 565 Мбайт (4%)
Заголовок : AVO (Андрей Гаврилов)
Язык : Russian
Service kind : Complete Main
Default : Нет
Forced : Нет

Аудио #11
Идентификатор : 12
Формат : AC-3
Формат/Информация : Audio Coding 3
Коммерческое название : Dolby Digital
Идентификатор кодека : A_AC3
Продолжительность : 2 ч. 3 м.
Вид битрейта : Постоянный
Битрейт : 640 Кбит/сек
Каналы : 6 каналов
Channel layout : L R C LFE Ls Rs
Частота : 48,0 КГц
Частота кадров : 31,250 кадров/сек (1536 SPF)
Метод сжатия : С потерями
Размер потока : 565 Мбайт (4%)
Заголовок : AVO (Юрий Живов)
Язык : Russian
Service kind : Complete Main
Default : Нет
Forced : Нет

Аудио #12
Идентификатор : 13
Формат : AC-3
Формат/Информация : Audio Coding 3
Коммерческое название : Dolby Digital
Идентификатор кодека : A_AC3
Продолжительность : 2 ч. 3 м.
Вид битрейта : Постоянный
Битрейт : 640 Кбит/сек
Каналы : 6 каналов
Channel layout : L R C LFE Ls Rs
Частота : 48,0 КГц
Частота кадров : 31,250 кадров/сек (1536 SPF)
Метод сжатия : С потерями
Размер потока : 565 Мбайт (4%)
Заголовок : AVO (Василий Горчаков)
Язык : Russian
Service kind : Complete Main
Default : Нет
Forced : Нет

Аудио #13
Идентификатор : 14
Формат : AC-3
Формат/Информация : Audio Coding 3
Коммерческое название : Dolby Digital
Идентификатор кодека : A_AC3
Продолжительность : 2 ч. 3 м.
Вид битрейта : Постоянный
Битрейт : 640 Кбит/сек
Каналы : 6 каналов
Channel layout : L R C LFE Ls Rs
Частота : 48,0 КГц
Частота кадров : 31,250 кадров/сек (1536 SPF)
Метод сжатия : С потерями
Размер потока : 565 Мбайт (4%)
Заголовок : AVO (Михаил Иванов)
Язык : Russian
Service kind : Complete Main
Default : Нет
Forced : Нет

Аудио #14
Идентификатор : 15
ID in the original source medium : 4367 (0x110F)
Формат : AC-3
Формат/Информация : Audio Coding 3
Коммерческое название : Dolby Digital
Идентификатор кодека : A_AC3
Продолжительность : 2 ч. 3 м.
Вид битрейта : Постоянный
Битрейт : 192 Кбит/сек
Каналы : 2 канала
Channel layout : L R
Частота : 48,0 КГц
Частота кадров : 31,250 кадров/сек (1536 SPF)
Метод сжатия : С потерями
Размер потока : 169 Мбайт (1%)
Заголовок : AVO (Владимир Козлов "Петербуржец")
Язык : Russian
Service kind : Complete Main
Default : Нет
Forced : Нет
Носитель оригинала : Blu-ray

Аудио #15
Идентификатор : 16
Формат : AC-3
Формат/Информация : Audio Coding 3
Коммерческое название : Dolby Digital
Идентификатор кодека : A_AC3
Продолжительность : 2 ч. 3 м.
Вид битрейта : Постоянный
Битрейт : 640 Кбит/сек
Каналы : 6 каналов
Channel layout : L R C LFE Ls Rs
Частота : 48,0 КГц
Частота кадров : 31,250 кадров/сек (1536 SPF)
Метод сжатия : С потерями
Размер потока : 565 Мбайт (4%)
Язык : English
Service kind : Complete Main
Default : Нет
Forced : Нет

Текст #1
Идентификатор : 17
Формат : UTF-8
Идентификатор кодека : S_TEXT/UTF8
Идентификатор кодека/Информация : UTF-8 Plain Text
Продолжительность : 1 ч. 55 м.
Битрейт : 110 бит/сек
Count of elements : 1464
Размер потока : 94,0 Кбайт (0%)
Язык : Russian
Default : Нет
Forced : Нет

Текст #2
Идентификатор : 18
Формат : UTF-8
Идентификатор кодека : S_TEXT/UTF8
Идентификатор кодека/Информация : UTF-8 Plain Text
Продолжительность : 1 ч. 55 м.
Битрейт : 65 бит/сек
Count of elements : 1932
Размер потока : 55,1 Кбайт (0%)
Язык : English
Default : Нет
Forced : Нет

Меню
00:00:00.000 : en:Chapter 01
00:06:14.582 : en:Chapter 02
00:08:14.535 : en:Chapter 03
00:12:15.693 : en:Chapter 04
00:16:21.438 : en:Chapter 05
00:18:32.694 : en:Chapter 06
00:19:32.129 : en:Chapter 07
00:23:22.734 : en:Chapter 08
00:25:09.925 : en:Chapter 09
00:27:03.246 : en:Chapter 10
00:29:48.077 : en:Chapter 11
00:36:46.245 : en:Chapter 12
00:39:14.769 : en:Chapter 13
00:40:02.775 : en:Chapter 14
00:43:37.156 : en:Chapter 15
00:48:58.477 : en:Chapter 16
00:49:57.035 : en:Chapter 17
00:52:30.730 : en:Chapter 18
00:58:29.672 : en:Chapter 19
01:01:43.950 : en:Chapter 20
01:02:39.922 : en:Chapter 21
01:04:47.383 : en:Chapter 22
01:06:38.411 : en:Chapter 23
01:08:12.254 : en:Chapter 24
01:09:54.440 : en:Chapter 25
01:10:59.755 : en:Chapter 26
01:16:23.245 : en:Chapter 27
01:21:56.369 : en:Chapter 28
01:23:27.210 : en:Chapter 29
01:25:40.885 : en:Chapter 30
01:30:53.990 : en:Chapter 31
01:33:17.633 : en:Chapter 32
01:34:23.157 : en:Chapter 33
01:41:09.688 : en:Chapter 34
01:42:31.854 : en:Chapter 35
01:44:53.161 : en:Chapter 36
01:46:36.431 : en:Chapter 37
01:49:13.255 : en:Chapter 38
01:53:34.432 : en:Chapter 39
01:56:08.711 : en:Chapter 40
Загрузка...Cкриншот1 Крепкий орешек 2 / Die Hard 2 (1990) BDRip 1080p [HEVC] 10 bit от OldGamerЗагрузка...Cкриншот2 Крепкий орешек 2 / Die Hard 2 (1990) BDRip 1080p [HEVC] 10 bit от OldGamerЗагрузка...Cкриншот3 Крепкий орешек 2 / Die Hard 2 (1990) BDRip 1080p [HEVC] 10 bit от OldGamerЗагрузка...Cкриншот4 Крепкий орешек 2 / Die Hard 2 (1990) BDRip 1080p [HEVC] 10 bit от OldGamer
Сэмпл
3. Крепкий орешек 3: Возмездие / Die Hard: With a Vengeance (1995) BDRip 1080p [HEVC] 10 bit от OldGamer
HEVC
10 bit
Обложка Крепкий орешек 3: Возмездие / Die Hard: With a Vengeance (1995) BDRip 1080p [HEVC] 10 bit от OldGamer Год: 1995
Страна: США
Студия: 20th Century Fox, Cinergi Pictures
Жанр: Боевик, Триллер, Приключения
Продолжительность: 02:08:31

Режиссер: Джон МакТирнан
В ролях: Брюс Уиллис, Сэмюэл Л. Джексон, Джереми Айронс, Ларри Бриггман, Грэм Грин, Коллин Кэмп, Энтони Пек, Николас Уаймэн, Сэм Филлипс, Кевин Чэмберлин

Описание: На улицах Нью-Йорка офицер полиции Джон МакКлейн видел все, что только возможно. На этот раз для того, чтобы отомстить МакКлейну, террорист Саймон, виртуозно устраивающий взрывы, заставляет героя - полицейского играть в смертельную игру. Ставка - город Нью-Йорк. МакКлейн вынужден метаться по городу, следуя телефонным указаниям Саймона, готового разнести пол Нью-Йорка за малейшее отклонение от его требований.И в то время, как вся полиция города занята поисками террористов, преступники похищают золотой запас Национального банка США. У МакКлейна бывали неудачные деньки за годы службы в полиции, но сегодня у него, похоже, будет исключительно скверный день...


Исходник: Blu-Ray Remux 1080p
Видео: 1920x816 (2.35:1), 10,4 Мбит/сек, HEVC (Main10@L.4.1@High)
Аудио1: AC3, 6 ch, 640 Kbps - РусскийРусский, Многоголосый (ОРТ)
Аудио2: AC3, 6 ch, 640 Kbps - РусскийРусский, Многоголосый (Киномания)
Аудио3: AC3, 6 ch, 640 Kbps - РусскийРусский, Многоголосый (Карусель/Супербит)
Аудио4: AC3, 6 ch, 448 Kbps - РусскийРусский, Многоголосый (R5 Гемини)
Аудио5: AC3, 6 ch, 448 Kbps - РусскийРусский, Двухголосый (Twister)
Аудио6: AC3, 6 ch, 640 Kbps - РусскийРусский, Авторский (Андрей Гаврилов)
Аудио7: AC3, 6 ch, 640 Kbps - РусскийРусский, Авторский (Юрий Живов)
Аудио8: AC3, 2 ch, 192 Kbps - РусскийРусский, Авторский (Василий Горчаков)
Аудио9: AC3, 2 ch, 192 Kbps - РусскийРусский, Авторский (Сергей Визгунов)
Аудио10: AC3, 2 ch, 192 Kbps - РусскийРусский, Авторский (Александр Кашкин)
Аудио11: AC3, 6 ch, 640 Kbps - EnglishEnglish, Original
Субтитры: Русские полные (SRT), English full (SRT)

Как за пару секунд удалить ненужные аудиодорожки и субтитры (Внимание! После удаления вы не сможете поддержать раздачу)

Лог (x265 info)
x265 [info]: frame I: 793, Avg QP:18.33 kb/s: 21897.04
x265 [info]: frame P: 40685, Avg QP:19.48 kb/s: 18026.34
x265 [info]: frame B: 143417, Avg QP:21.59 kb/s: 8174.27
x265 [info]: Weighted P-Frames: Y:12.5% UV:9.5%
x265 [info]: Weighted B-Frames: Y:8.9% UV:6.0%
x265 [info]: consecutive B-frames: 2.7% 4.5% 7.4% 47.9% 9.5% 25.4% 1.2% 0.9% 0.2% 0.1% 0.1%
x265 [info]: encoded 184895 frames in 202665.28s (0.91 fps), 10401.02 kb/s, Avg QP:21.11
Медиаинфо
Общее
Уникальный идентификатор : 249712072752839007706048090467873204880 (0xBBDCCBBC1A4B950565569BD975D22A90)
Полное имя : \\.\03.Крепкий.орешек.3.Возмездие.Die.Hard.With.a.Vengeance.1995.BDRip-HEVC.1080p.mkv
Формат : Matroska
Версия формата : Version 4
Размер файла : 14,1 Гбайт
Продолжительность : 2 ч. 8 м.
Общий поток : 15,7 Мбит/сек
Название фильма : 03.Крепкий.орешек.3.Возмездие.Die.Hard.With.a.Vengeance.1995.BDRip-HEVC.1080p
Дата кодирования : UTC 2020-11-03 15:10:07
Программа кодирования : mkvmerge v51.0.0 ('I Wish') 64-bit
Библиотека кодирования : libebml v1.4.0 + libmatroska v1.6.2

Видео
Идентификатор : 1
Формат : HEVC
Формат/Информация : High Efficiency Video Coding
Профиль формата : Main 10@L4.1@High
Идентификатор кодека : V_MPEGH/ISO/HEVC
Продолжительность : 2 ч. 8 м.
Битрейт : 10,4 Мбит/сек
Ширина : 1 920 пикселей
Высота : 816 пикселей
Соотношение сторон : 2,35:1
Режим частоты кадров : Постоянный
Частота кадров : 23,976 (24000/1001) кадра/сек
Цветовое пространство : YUV
Субдискретизация насыщенности : 4:2:0
Битовая глубина : 10 бит
Бит/(Пиксели*Кадры) : 0.277
Размер потока : 9,34 Гбайт (66%)
Заголовок : Die Hard: With a Vengeance / Rip by OldGamer
Библиотека кодирования : x265 3.4+4-g3ae3d7116:[Windows][GCC 10.2.0][64 bit] 10bit
Настройки программы : cpuid=1111039 / frame-threads=3 / numa-pools=8 / wpp / no-pmode / no-pme / no-psnr / no-ssim / log-level=2 / input-csp=1 / input-res=1920x816 / interlace=0 / total-frames=184895 / level-idc=41 / high-tier=1 / uhd-bd=0 / ref=5 / no-allow-non-conformance / no-repeat-headers / annexb / no-aud / no-hrd / info / hash=0 / no-temporal-layers / open-gop / min-keyint=23 / keyint=240 / gop-lookahead=0 / bframes=10 / b-adapt=2 / b-pyramid / bframe-bias=0 / rc-lookahead=40 / lookahead-slices=0 / scenecut=40 / hist-scenecut=0 / radl=0 / no-splice / no-intra-refresh / ctu=64 / min-cu-size=8 / rect / amp / max-tu-size=32 / tu-inter-depth=4 / tu-intra-depth=4 / limit-tu=1 / rdoq-level=2 / dynamic-rd=0.00 / no-ssim-rd / signhide / no-tskip / nr-intra=0 / nr-inter=0 / no-constrained-intra / no-strong-intra-smoothing / max-merge=5 / limit-refs=3 / no-limit-modes / me=3 / subme=7 / merange=57 / temporal-mvp / no-frame-dup / no-hme / weightp / weightb / no-analyze-src-pics / deblock=-3:-3 / no-sao / no-sao-non-deblock / rd=6 / selective-sao=0 / no-early-skip / rskip / no-fast-intra / no-tskip-fast / no-cu-lossless / b-intra / no-splitrd-skip / rdpenalty=0 / psy-rd=2.00 / psy-rdoq=1.00 / no-rd-refine / no-lossless / cbqpoffs=0 / crqpoffs=0 / rc=crf / crf=19.7 / qcomp=0.70 / qpstep=4 / stats-write=0 / stats-read=0 / vbv-maxrate=50000 / vbv-bufsize=50000 / vbv-init=0.9 / crf-max=0.0 / crf-min=0.0 / ipratio=1.40 / pbratio=1.30 / aq-mode=1 / aq-strength=1.00 / no-cutree / zone-count=1 / zones: / start-frame=175149 / end-frame=184872 / qp=36 / no-strict-cbr / qg-size=32 / no-rc-grain / qpmax=69 / qpmin=0 / no-const-vbv / sar=1 / overscan=0 / videoformat=5 / range=0 / colorprim=2 / transfer=2 / colormatrix=2 / chromaloc=0 / display-window=0 / cll=0,0 / min-luma=0 / max-luma=1023 / log2-max-poc-lsb=8 / vui-timing-info / vui-hrd-info / slices=1 / no-opt-qp-pps / no-opt-ref-list-length-pps / no-multi-pass-opt-rps / scenecut-bias=0.00 / hist-threshold=0.01 / no-opt-cu-delta-qp / no-aq-motion / no-hdr10 / no-hdr10-opt / no-dhdr10-opt / no-idr-recovery-sei / analysis-reuse-level=0 / analysis-save-reuse-level=0 / analysis-load-reuse-level=0 / scale-factor=0 / refine-intra=0 / refine-inter=0 / refine-mv=1 / refine-ctu-distortion=0 / no-limit-sao / ctu-info=0 / no-lowpass-dct / refine-analysis-type=0 / copy-pic=1 / max-ausize-factor=1.0 / no-dynamic-refine / no-single-sei / no-hevc-aq / no-svt / no-field / qp-adaptation-range=1.00 / no-scenecut-aware-qpconformance-window-offsets / right=0 / bottom=0 / decoder-max-rate=0
Язык : English
Default : Да
Forced : Нет

Аудио #1
Идентификатор : 2
Формат : AC-3
Формат/Информация : Audio Coding 3
Коммерческое название : Dolby Digital
Идентификатор кодека : A_AC3
Продолжительность : 2 ч. 8 м.
Вид битрейта : Постоянный
Битрейт : 640 Кбит/сек
Каналы : 6 каналов
Channel layout : L R C LFE Ls Rs
Частота : 48,0 КГц
Частота кадров : 31,250 кадров/сек (1536 SPF)
Метод сжатия : С потерями
Размер потока : 588 Мбайт (4%)
Заголовок : MVO (ОРТ)
Язык : Russian
Service kind : Complete Main
Default : Да
Forced : Нет

Аудио #2
Идентификатор : 3
Формат : AC-3
Формат/Информация : Audio Coding 3
Коммерческое название : Dolby Digital
Идентификатор кодека : A_AC3
Продолжительность : 2 ч. 8 м.
Вид битрейта : Постоянный
Битрейт : 640 Кбит/сек
Каналы : 6 каналов
Channel layout : L R C LFE Ls Rs
Частота : 48,0 КГц
Частота кадров : 31,250 кадров/сек (1536 SPF)
Метод сжатия : С потерями
Размер потока : 588 Мбайт (4%)
Заголовок : MVO (Киномания)
Язык : Russian
Service kind : Complete Main
Default : Нет
Forced : Нет

Аудио #3
Идентификатор : 4
Формат : AC-3
Формат/Информация : Audio Coding 3
Коммерческое название : Dolby Digital
Идентификатор кодека : A_AC3
Продолжительность : 2 ч. 8 м.
Вид битрейта : Постоянный
Битрейт : 640 Кбит/сек
Каналы : 6 каналов
Channel layout : L R C LFE Ls Rs
Частота : 48,0 КГц
Частота кадров : 31,250 кадров/сек (1536 SPF)
Метод сжатия : С потерями
Размер потока : 588 Мбайт (4%)
Заголовок : MVO (Карусель/Супербит)
Язык : Russian
Service kind : Complete Main
Default : Нет
Forced : Нет

Аудио #4
Идентификатор : 5
ID in the original source medium : 4357 (0x1105)
Формат : AC-3
Формат/Информация : Audio Coding 3
Коммерческое название : Dolby Digital
Идентификатор кодека : A_AC3
Продолжительность : 2 ч. 8 м.
Вид битрейта : Постоянный
Битрейт : 448 Кбит/сек
Каналы : 6 каналов
Channel layout : L R C LFE Ls Rs
Частота : 48,0 КГц
Частота кадров : 31,250 кадров/сек (1536 SPF)
Метод сжатия : С потерями
Размер потока : 412 Мбайт (3%)
Заголовок : MVO (R5 Гемини)
Язык : Russian
Service kind : Complete Main
Default : Нет
Forced : Нет
Носитель оригинала : Blu-ray

Аудио #5
Идентификатор : 6
ID in the original source medium : 4354 (0x1102)
Формат : AC-3
Формат/Информация : Audio Coding 3
Коммерческое название : Dolby Digital
Идентификатор кодека : A_AC3
Продолжительность : 2 ч. 8 м.
Вид битрейта : Постоянный
Битрейт : 448 Кбит/сек
Каналы : 6 каналов
Channel layout : L R C LFE Ls Rs
Частота : 48,0 КГц
Частота кадров : 31,250 кадров/сек (1536 SPF)
Метод сжатия : С потерями
Размер потока : 412 Мбайт (3%)
Заголовок : DVO (Twister)
Язык : Russian
Service kind : Complete Main
Default : Нет
Forced : Нет
Носитель оригинала : Blu-ray

Аудио #6
Идентификатор : 7
Формат : AC-3
Формат/Информация : Audio Coding 3
Коммерческое название : Dolby Digital
Идентификатор кодека : A_AC3
Продолжительность : 2 ч. 8 м.
Вид битрейта : Постоянный
Битрейт : 640 Кбит/сек
Каналы : 6 каналов
Channel layout : L R C LFE Ls Rs
Частота : 48,0 КГц
Частота кадров : 31,250 кадров/сек (1536 SPF)
Метод сжатия : С потерями
Размер потока : 588 Мбайт (4%)
Заголовок : AVO (Андрей Гаврилов)
Язык : Russian
Service kind : Complete Main
Default : Нет
Forced : Нет

Аудио #7
Идентификатор : 8
Формат : AC-3
Формат/Информация : Audio Coding 3
Коммерческое название : Dolby Digital
Идентификатор кодека : A_AC3
Продолжительность : 2 ч. 8 м.
Вид битрейта : Постоянный
Битрейт : 640 Кбит/сек
Каналы : 6 каналов
Channel layout : L R C LFE Ls Rs
Частота : 48,0 КГц
Частота кадров : 31,250 кадров/сек (1536 SPF)
Метод сжатия : С потерями
Размер потока : 588 Мбайт (4%)
Заголовок : AVO (Юрий Живов)
Язык : Russian
Service kind : Complete Main
Default : Нет
Forced : Нет

Аудио #8
Идентификатор : 9
ID in the original source medium : 4361 (0x1109)
Формат : AC-3
Формат/Информация : Audio Coding 3
Коммерческое название : Dolby Digital
Идентификатор кодека : A_AC3
Продолжительность : 2 ч. 8 м.
Вид битрейта : Постоянный
Битрейт : 192 Кбит/сек
Каналы : 2 канала
Channel layout : L R
Частота : 48,0 КГц
Частота кадров : 31,250 кадров/сек (1536 SPF)
Метод сжатия : С потерями
Размер потока : 176 Мбайт (1%)
Заголовок : AVO (Василий Горчаков)
Язык : Russian
Service kind : Complete Main
Default : Нет
Forced : Нет
Носитель оригинала : Blu-ray

Аудио #9
Идентификатор : 10
ID in the original source medium : 4362 (0x110A)
Формат : AC-3
Формат/Информация : Audio Coding 3
Коммерческое название : Dolby Digital
Идентификатор кодека : A_AC3
Продолжительность : 2 ч. 8 м.
Вид битрейта : Постоянный
Битрейт : 192 Кбит/сек
Каналы : 2 канала
Channel layout : L R
Частота : 48,0 КГц
Частота кадров : 31,250 кадров/сек (1536 SPF)
Метод сжатия : С потерями
Размер потока : 176 Мбайт (1%)
Заголовок : AVO (Сергей Визгунов)
Язык : Russian
Service kind : Complete Main
Default : Нет
Forced : Нет
Носитель оригинала : Blu-ray

Аудио #10
Идентификатор : 11
ID in the original source medium : 4363 (0x110B)
Формат : AC-3
Формат/Информация : Audio Coding 3
Коммерческое название : Dolby Digital
Идентификатор кодека : A_AC3
Продолжительность : 2 ч. 8 м.
Вид битрейта : Постоянный
Битрейт : 192 Кбит/сек
Каналы : 2 канала
Channel layout : L R
Частота : 48,0 КГц
Частота кадров : 31,250 кадров/сек (1536 SPF)
Метод сжатия : С потерями
Размер потока : 176 Мбайт (1%)
Заголовок : AVO (Александр Кашкин)
Язык : Russian
Service kind : Complete Main
Default : Нет
Forced : Нет
Носитель оригинала : Blu-ray

Аудио #11
Идентификатор : 12
Формат : AC-3
Формат/Информация : Audio Coding 3
Коммерческое название : Dolby Digital
Идентификатор кодека : A_AC3
Продолжительность : 2 ч. 8 м.
Вид битрейта : Постоянный
Битрейт : 640 Кбит/сек
Каналы : 6 каналов
Channel layout : L R C LFE Ls Rs
Частота : 48,0 КГц
Частота кадров : 31,250 кадров/сек (1536 SPF)
Метод сжатия : С потерями
Размер потока : 588 Мбайт (4%)
Язык : English
Service kind : Complete Main
Default : Нет
Forced : Нет

Текст #1
Идентификатор : 13
Формат : UTF-8
Идентификатор кодека : S_TEXT/UTF8
Идентификатор кодека/Информация : UTF-8 Plain Text
Продолжительность : 2 ч. 0 м.
Битрейт : 103 бит/сек
Count of elements : 1495
Размер потока : 91,5 Кбайт (0%)
Язык : Russian
Default : Нет
Forced : Нет

Текст #2
Идентификатор : 14
Формат : UTF-8
Идентификатор кодека : S_TEXT/UTF8
Идентификатор кодека/Информация : UTF-8 Plain Text
Продолжительность : 1 ч. 59 м.
Битрейт : 77 бит/сек
Count of elements : 2131
Размер потока : 67,7 Кбайт (0%)
Язык : English
Default : Нет
Forced : Нет

Меню
00:00:00.000 : en:Chapter 01
00:00:53.845 : en:Chapter 02
00:01:53.988 : en:Chapter 03
00:03:50.980 : en:Chapter 04
00:07:58.144 : en:Chapter 05
00:09:09.465 : en:Chapter 06
00:13:38.150 : en:Chapter 07
00:16:53.595 : en:Chapter 08
00:22:55.374 : en:Chapter 09
00:27:32.525 : en:Chapter 10
00:32:39.499 : en:Chapter 11
00:37:31.582 : en:Chapter 12
00:40:18.249 : en:Chapter 13
00:43:39.033 : en:Chapter 14
00:48:48.300 : en:Chapter 15
00:52:04.329 : en:Chapter 16
00:52:38.738 : en:Chapter 17
00:56:09.824 : en:Chapter 18
00:58:38.932 : en:Chapter 19
01:02:57.148 : en:Chapter 20
01:04:43.629 : en:Chapter 21
01:07:44.810 : en:Chapter 22
01:11:36.375 : en:Chapter 23
01:17:05.120 : en:Chapter 24
01:20:17.646 : en:Chapter 25
01:21:17.497 : en:Chapter 26
01:24:42.660 : en:Chapter 27
01:27:43.299 : en:Chapter 28
01:28:20.670 : en:Chapter 29
01:31:47.710 : en:Chapter 30
01:32:35.508 : en:Chapter 31
01:34:18.861 : en:Chapter 32
01:39:24.416 : en:Chapter 33
01:40:45.247 : en:Chapter 34
01:43:52.935 : en:Chapter 35
01:47:53.550 : en:Chapter 36
01:53:03.526 : en:Chapter 37
01:55:59.452 : en:Chapter 38
01:59:27.201 : en:Chapter 39
02:00:27.303 : en:Chapter 40
Загрузка...Cкриншот1 Крепкий орешек 3: Возмездие / Die Hard: With a Vengeance (1995) BDRip 1080p [HEVC] 10 bit от OldGamerЗагрузка...Cкриншот2 Крепкий орешек 3: Возмездие / Die Hard: With a Vengeance (1995) BDRip 1080p [HEVC] 10 bit от OldGamerЗагрузка...Cкриншот3 Крепкий орешек 3: Возмездие / Die Hard: With a Vengeance (1995) BDRip 1080p [HEVC] 10 bit от OldGamerЗагрузка...Cкриншот4 Крепкий орешек 3: Возмездие / Die Hard: With a Vengeance (1995) BDRip 1080p [HEVC] 10 bit от OldGamer
Сэмпл
4. Крепкий орешек 4.0 / Live Free or Die Hard (2007) [Unrated Version] BDRip 1080p [HEVC] 10 bit от OldGamer
HEVC
10 bit
Обложка Крепкий орешек 4.0 / Live Free or Die Hard (2007) [Unrated Version] BDRip 1080p [HEVC] 10 bit от OldGamer Год: 2007
Страна: США, Великобритания
Студия: Cheyenne Enterprises, Dune Entertainment, Ingenious Film Partners, 20th Century Fox
Жанр: Боевик, Триллер
Продолжительность: 02:08:42

Режиссер: Лен Уайзман
В ролях: Брюс Уиллис, Джастин Лонг, Тимоти Олифант, Мэгги Кью, Клифф Кёртис, Джонатан Садовский, Мэри Элизабет Уинстэд, Кевин Смит, Эндрю Фридман, Сирил Раффаэлли

Описание: Мир снова под угрозой: террористы захватили контроль над глобальной компьютерной сетью. Повсюду воцаряется хаос, правительство и спецслужбы бессильны. Джон МакКлейн давно в отставке, но он не будет стоять в стороне, когда надо защищать семью. Однако в этот раз ему уже не справиться без помощника.


Исходник: Blu-Ray Remux 1080p
Видео: 1918x800 (2.40:1), 8325 Кбит/сек, HEVC (Main10@L.4.1@High)
Аудио1: AC3, 6 ch, 640 Kbps - РусскийРусский, Дублированный (Blu-ray CEE)
Аудио2: AC3, 6 ch, 640 Kbps - РусскийРусский, Многоголосый (Киномания)
Аудио3: AC3, 6 ch, 640 Kbps - РусскийРусский, Авторский (Андрей Гаврилов)
Аудио4: AC3, 6 ch, 640 Kbps - РусскийРусский, Авторский (Юрий Живов)
Аудио5: AC3, 6 ch, 640 Kbps - РусскийРусский, Авторский (Михаил Яроцкий, без цензуры)
Аудио6: AC3, 6 ch, 640 Kbps - EnglishEnglish, Original (censored)
Аудио7: AC3, 6 ch, 448 Kbps - EnglishEnglish, Original (uncensored)
Субтитры: Русские полные (SRT), English full (SRT)

Как за пару секунд удалить ненужные аудиодорожки и субтитры (Внимание! После удаления вы не сможете поддержать раздачу)

Лог (x265 info)
x265 [info]: frame I: 780, Avg QP:17.00 kb/s: 19235.86
x265 [info]: frame P: 43664, Avg QP:18.42 kb/s: 15127.52
x265 [info]: frame B: 140702, Avg QP:20.59 kb/s: 6152.01
x265 [info]: Weighted P-Frames: Y:6.6% UV:5.5%
x265 [info]: Weighted B-Frames: Y:7.3% UV:5.7%
x265 [info]: consecutive B-frames: 5.0% 6.9% 10.5% 46.3% 11.5% 16.7% 1.6% 1.1% 0.1% 0.1% 0.0% 0.0%
x265 [info]: encoded 185146 frames in 174197.78s (1.06 fps), 8323.88 kb/s, Avg QP:20.06
Медиаинфо
Общее
Уникальный идентификатор : 148060747939012444517628597855238425784 (0x6F63767A5993BE6365071715AA830CB8)
Полное имя : \\..\04.Крепкий.орешек.4.0.Live.Free.or.Die.Hard.2007.Unrated.Version.BDRip-HEVC.1080p.mkv
Формат : Matroska
Версия формата : Version 4
Размер файла : 11,3 Гбайт
Продолжительность : 2 ч. 8 м.
Общий поток : 12,6 Мбит/сек
Название фильма : 04.Крепкий.орешек.4.0.Live.Free.or.Die.Hard.2007.Unrated.Version.BDRip-HEVC.1080p
Дата кодирования : UTC 2020-11-06 03:15:44
Программа кодирования : mkvmerge v51.0.0 ('I Wish') 64-bit
Библиотека кодирования : libebml v1.4.0 + libmatroska v1.6.2

Видео
Идентификатор : 1
Формат : HEVC
Формат/Информация : High Efficiency Video Coding
Профиль формата : Main 10@L4.1@High
Идентификатор кодека : V_MPEGH/ISO/HEVC
Продолжительность : 2 ч. 8 м.
Битрейт : 8 325 Кбит/сек
Ширина : 1 918 пикселей
Высота : 800 пикселей
Соотношение сторон : 2,40:1
Соотношение сторон в оригинале : 2,40:1
Режим частоты кадров : Постоянный
Частота кадров : 23,976 (24000/1001) кадра/сек
Цветовое пространство : YUV
Субдискретизация насыщенности : 4:2:0
Битовая глубина : 10 бит
Бит/(Пиксели*Кадры) : 0.226
Размер потока : 7,48 Гбайт (66%)
Заголовок : Live Free or Die Hard / Rip by OldGamer
Библиотека кодирования : x265 3.4+4-g3ae3d7116:[Windows][GCC 10.2.0][64 bit] 10bit
Настройки программы : cpuid=1111039 / frame-threads=3 / numa-pools=8 / wpp / no-pmode / no-pme / no-psnr / no-ssim / log-level=2 / input-csp=1 / input-res=1918x800 / interlace=0 / total-frames=185146 / level-idc=41 / high-tier=1 / uhd-bd=0 / ref=5 / no-allow-non-conformance / no-repeat-headers / annexb / no-aud / no-hrd / info / hash=0 / no-temporal-layers / open-gop / min-keyint=23 / keyint=240 / gop-lookahead=0 / bframes=11 / b-adapt=2 / b-pyramid / bframe-bias=0 / rc-lookahead=40 / lookahead-slices=0 / scenecut=40 / hist-scenecut=0 / radl=0 / no-splice / no-intra-refresh / ctu=64 / min-cu-size=8 / rect / amp / max-tu-size=32 / tu-inter-depth=4 / tu-intra-depth=4 / limit-tu=1 / rdoq-level=2 / dynamic-rd=0.00 / no-ssim-rd / signhide / no-tskip / nr-intra=0 / nr-inter=0 / no-constrained-intra / no-strong-intra-smoothing / max-merge=5 / limit-refs=3 / no-limit-modes / me=3 / subme=7 / merange=57 / temporal-mvp / no-frame-dup / no-hme / weightp / weightb / no-analyze-src-pics / deblock=-3:-3 / no-sao / no-sao-non-deblock / rd=6 / selective-sao=0 / no-early-skip / rskip / no-fast-intra / no-tskip-fast / no-cu-lossless / b-intra / no-splitrd-skip / rdpenalty=0 / psy-rd=2.00 / psy-rdoq=1.00 / no-rd-refine / no-lossless / cbqpoffs=0 / crqpoffs=0 / rc=crf / crf=19.7 / qcomp=0.70 / qpstep=4 / stats-write=0 / stats-read=0 / vbv-maxrate=50000 / vbv-bufsize=50000 / vbv-init=0.9 / crf-max=0.0 / crf-min=0.0 / ipratio=1.40 / pbratio=1.30 / aq-mode=1 / aq-strength=1.00 / no-cutree / zone-count=1 / zones: / start-frame=178580 / end-frame=185128 / qp=36 / no-strict-cbr / qg-size=32 / no-rc-grain / qpmax=69 / qpmin=0 / no-const-vbv / sar=1 / overscan=0 / videoformat=5 / range=0 / colorprim=2 / transfer=2 / colormatrix=2 / chromaloc=0 / display-window=0 / cll=0,0 / min-luma=0 / max-luma=1023 / log2-max-poc-lsb=8 / vui-timing-info / vui-hrd-info / slices=1 / no-opt-qp-pps / no-opt-ref-list-length-pps / no-multi-pass-opt-rps / scenecut-bias=0.00 / hist-threshold=0.01 / no-opt-cu-delta-qp / no-aq-motion / no-hdr10 / no-hdr10-opt / no-dhdr10-opt / no-idr-recovery-sei / analysis-reuse-level=0 / analysis-save-reuse-level=0 / analysis-load-reuse-level=0 / scale-factor=0 / refine-intra=0 / refine-inter=0 / refine-mv=1 / refine-ctu-distortion=0 / no-limit-sao / ctu-info=0 / no-lowpass-dct / refine-analysis-type=0 / copy-pic=1 / max-ausize-factor=1.0 / no-dynamic-refine / no-single-sei / no-hevc-aq / no-svt / no-field / qp-adaptation-range=1.00 / no-scenecut-aware-qpconformance-window-offsets / right=0 / bottom=0 / decoder-max-rate=0
Язык : English
Default : Да
Forced : Нет

Аудио #1
Идентификатор : 2
Формат : AC-3
Формат/Информация : Audio Coding 3
Коммерческое название : Dolby Digital
Идентификатор кодека : A_AC3
Продолжительность : 2 ч. 8 м.
Вид битрейта : Постоянный
Битрейт : 640 Кбит/сек
Каналы : 6 каналов
Channel layout : L R C LFE Ls Rs
Частота : 48,0 КГц
Частота кадров : 31,250 кадров/сек (1536 SPF)
Метод сжатия : С потерями
Размер потока : 589 Мбайт (5%)
Заголовок : Dub (Blu-ray CEE)
Язык : Russian
Service kind : Complete Main
Default : Да
Forced : Нет

Аудио #2
Идентификатор : 3
Формат : AC-3
Формат/Информация : Audio Coding 3
Коммерческое название : Dolby Digital
Идентификатор кодека : A_AC3
Продолжительность : 2 ч. 8 м.
Вид битрейта : Постоянный
Битрейт : 640 Кбит/сек
Каналы : 6 каналов
Channel layout : L R C LFE Ls Rs
Частота : 48,0 КГц
Частота кадров : 31,250 кадров/сек (1536 SPF)
Метод сжатия : С потерями
Размер потока : 589 Мбайт (5%)
Заголовок : MVO (Киномания)
Язык : Russian
Service kind : Complete Main
Default : Нет
Forced : Нет

Аудио #3
Идентификатор : 4
Формат : AC-3
Формат/Информация : Audio Coding 3
Коммерческое название : Dolby Digital
Идентификатор кодека : A_AC3
Продолжительность : 2 ч. 8 м.
Вид битрейта : Постоянный
Битрейт : 640 Кбит/сек
Каналы : 6 каналов
Channel layout : L R C LFE Ls Rs
Частота : 48,0 КГц
Частота кадров : 31,250 кадров/сек (1536 SPF)
Метод сжатия : С потерями
Размер потока : 590 Мбайт (5%)
Заголовок : AVO (Андрей Гаврилов)
Язык : Russian
Service kind : Complete Main
Default : Нет
Forced : Нет

Аудио #4
Идентификатор : 5
Формат : AC-3
Формат/Информация : Audio Coding 3
Коммерческое название : Dolby Digital
Идентификатор кодека : A_AC3
Продолжительность : 2 ч. 8 м.
Вид битрейта : Постоянный
Битрейт : 640 Кбит/сек
Каналы : 6 каналов
Channel layout : L R C LFE Ls Rs
Частота : 48,0 КГц
Частота кадров : 31,250 кадров/сек (1536 SPF)
Метод сжатия : С потерями
Размер потока : 590 Мбайт (5%)
Заголовок : AVO (Юрий Живов)
Язык : Russian
Service kind : Complete Main
Default : Нет
Forced : Нет

Аудио #5
Идентификатор : 6
Формат : AC-3
Формат/Информация : Audio Coding 3
Коммерческое название : Dolby Digital
Идентификатор кодека : A_AC3
Продолжительность : 2 ч. 8 м.
Вид битрейта : Постоянный
Битрейт : 640 Кбит/сек
Каналы : 6 каналов
Channel layout : L R C LFE Ls Rs
Частота : 48,0 КГц
Частота кадров : 31,250 кадров/сек (1536 SPF)
Метод сжатия : С потерями
Размер потока : 589 Мбайт (5%)
Заголовок : AVO (Михаил Яроцкий, без цензуры)
Язык : Russian
Service kind : Complete Main
Default : Нет
Forced : Нет

Аудио #6
Идентификатор : 7
Формат : AC-3
Формат/Информация : Audio Coding 3
Коммерческое название : Dolby Digital
Идентификатор кодека : A_AC3
Продолжительность : 2 ч. 8 м.
Вид битрейта : Постоянный
Битрейт : 640 Кбит/сек
Каналы : 6 каналов
Channel layout : L R C LFE Ls Rs
Частота : 48,0 КГц
Частота кадров : 31,250 кадров/сек (1536 SPF)
Метод сжатия : С потерями
Размер потока : 589 Мбайт (5%)
Заголовок : Original (censored)
Язык : English
Service kind : Complete Main
Default : Нет
Forced : Нет

Аудио #7
Идентификатор : 8
ID in the original source medium : 4358 (0x1106)
Формат : AC-3
Формат/Информация : Audio Coding 3
Коммерческое название : Dolby Digital
Идентификатор кодека : A_AC3
Продолжительность : 2 ч. 8 м.
Вид битрейта : Постоянный
Битрейт : 448 Кбит/сек
Каналы : 6 каналов
Channel layout : L R C LFE Ls Rs
Частота : 48,0 КГц
Частота кадров : 31,250 кадров/сек (1536 SPF)
Метод сжатия : С потерями
Размер потока : 412 Мбайт (4%)
Заголовок : Original (uncensored)
Язык : English
Service kind : Complete Main
Default : Нет
Forced : Нет
Носитель оригинала : Blu-ray

Текст #1
Идентификатор : 9
Формат : UTF-8
Идентификатор кодека : S_TEXT/UTF8
Идентификатор кодека/Информация : UTF-8 Plain Text
Продолжительность : 2 ч. 3 м.
Битрейт : 86 бит/сек
Count of elements : 1503
Размер потока : 77,7 Кбайт (0%)
Язык : Russian
Default : Нет
Forced : Нет

Текст #2
Идентификатор : 10
Формат : UTF-8
Идентификатор кодека : S_TEXT/UTF8
Идентификатор кодека/Информация : UTF-8 Plain Text
Продолжительность : 2 ч. 3 м.
Битрейт : 55 бит/сек
Count of elements : 1450
Размер потока : 49,6 Кбайт (0%)
Язык : English
Default : Нет
Forced : Нет

Меню
00:00:00.000 : en:Chapter 01
00:03:53.149 : en:Chapter 02
00:06:18.544 : en:Chapter 03
00:07:49.135 : en:Chapter 04
00:11:31.524 : en:Chapter 05
00:15:16.081 : en:Chapter 06
00:17:57.493 : en:Chapter 07
00:20:47.496 : en:Chapter 08
00:25:55.887 : en:Chapter 09
00:27:30.106 : en:Chapter 10
00:30:02.884 : en:Chapter 11
00:31:27.719 : en:Chapter 12
00:33:47.066 : en:Chapter 13
00:38:16.294 : en:Chapter 14
00:41:04.253 : en:Chapter 15
00:45:42.865 : en:Chapter 16
00:52:16.133 : en:Chapter 17
00:55:26.573 : en:Chapter 18
00:58:02.312 : en:Chapter 19
01:00:47.060 : en:Chapter 20
01:02:29.871 : en:Chapter 21
01:08:15.508 : en:Chapter 22
01:12:31.263 : en:Chapter 23
01:17:01.199 : en:Chapter 24
01:18:28.161 : en:Chapter 25
01:21:30.051 : en:Chapter 26
01:25:52.063 : en:Chapter 27
01:32:45.101 : en:Chapter 28
01:36:50.012 : en:Chapter 29
01:39:47.523 : en:Chapter 30
01:45:02.254 : en:Chapter 31
01:46:22.459 : en:Chapter 32
01:51:21.174 : en:Chapter 33
01:56:38.700 : en:Chapter 34
01:58:12.543 : en:Chapter 35
02:01:45.965 : en:Chapter 36
Загрузка...Cкриншот1 Крепкий орешек 4.0 / Live Free or Die Hard (2007) [Unrated Version] BDRip 1080p [HEVC] 10 bit от OldGamerЗагрузка...Cкриншот2 Крепкий орешек 4.0 / Live Free or Die Hard (2007) [Unrated Version] BDRip 1080p [HEVC] 10 bit от OldGamerЗагрузка...Cкриншот3 Крепкий орешек 4.0 / Live Free or Die Hard (2007) [Unrated Version] BDRip 1080p [HEVC] 10 bit от OldGamerЗагрузка...Cкриншот4 Крепкий орешек 4.0 / Live Free or Die Hard (2007) [Unrated Version] BDRip 1080p [HEVC] 10 bit от OldGamer
Сэмпл
5. Крепкий орешек: Хороший день, чтобы умереть / A Good Day to Die Hard (2013) [Extended Cut] BDRip 1080p [HEVC] 10 bit от OldGamer
HEVC
10 bit
Обложка Крепкий орешек: Хороший день, чтобы умереть / A Good Day to Die Hard (2013) [Extended Cut] BDRip 1080p [HEVC] 10 bit от OldGamer Год: 2013
Страна: США, Россия, Венгрия
Студия: 20th Century Fox, Giant Pictures, TSG Entertainment, Студия ТРИТЭ
Жанр: Боевик, Триллер
Продолжительность: 01:41:11

Режиссер: Джон Мур
В ролях: Брюс Уиллис, Джай Кортни, Себастьян Кох, Юлия Снигирь, Радивойе Буквич, Сергей Колесников, Мэри Элизабет Уинстэд, Коул Хаузер, Амори Ноласко, Роман Лукнар

Описание: Джон МакКлейн прибывает в Москву, чтобы вызволить из тюрьмы своего непредсказуемого сына, но холодная голова и железные мускулы вязнут в паутине российской действительности. Дело, в которое влип МакКлейн-младший, оказывается настолько «опасной трясиной», что отцу и сыну, чтобы выжить и в очередной раз спасти мир, приходится объединить свои усилия, забыв прежние, казалось бы, непреодолимые разногласия.


Исходник: Blu-Ray Remux 1080p
Видео: 1920x1040 (1.85:1), 10,2 Мбит/сек, HEVC (Main10@L.4.1@High)
Аудио1: AC3, 6 ch, 640 Kbps - РусскийРусский, Дублированный (Лицензия)
Аудио2: AC3, 6 ch, 448 Kbps - РусскийРусский, Авторский (Андрей Гаврилов)
Аудио3: AC3, 6 ch, 640 Kbps - EnglishEnglish, Original
Субтитры: Русские форсированные и полные (SRT), English full (SRT, SDH, colored)

Как за пару секунд удалить ненужные аудиодорожки и субтитры (Внимание! После удаления вы не сможете поддержать раздачу)

Лог (x265 info)
x265 [info]: frame I: 620, Avg QP:17.40 kb/s: 21304.70
x265 [info]: frame P: 31364, Avg QP:18.88 kb/s: 18048.40
x265 [info]: frame B: 113578, Avg QP:21.25 kb/s: 7976.34
x265 [info]: Weighted P-Frames: Y:9.5% UV:8.4%
x265 [info]: Weighted B-Frames: Y:9.0% UV:7.4%
x265 [info]: consecutive B-frames: 4.4% 5.0% 10.8% 36.1% 9.3% 28.3% 2.7% 2.2% 0.6% 0.6%
x265 [info]: encoded 145562 frames in 170211.79s (0.86 fps), 10203.32 kb/s, Avg QP:20.73
Медиаинфо
Общее
Уникальный идентификатор : 15988898094782541534517143009887664779 (0xC075989FE1A28EBF737E935FB263A8B)
Полное имя : \\..\05.Крепкий.орешек.Хороший.день.чтобы.умереть.A.Good.Day.to.Die.Hard.2013.Extended.Cut.BDRip-HEVC.1080p.mkv
Формат : Matroska
Версия формата : Version 4
Размер файла : 8,44 Гбайт
Продолжительность : 1 ч. 41 м.
Общий поток : 11,9 Мбит/сек
Название фильма : 05.Крепкий.орешек.Хороший.день.чтобы.умереть.A.Good.Day.to.Die.Hard.2013.Extended.Cut.BDRip-HEVC.1080p
Дата кодирования : UTC 2020-11-07 14:57:53
Программа кодирования : mkvmerge v51.0.0 ('I Wish') 64-bit
Библиотека кодирования : libebml v1.4.0 + libmatroska v1.6.2

Видео
Идентификатор : 1
Формат : HEVC
Формат/Информация : High Efficiency Video Coding
Профиль формата : Main 10@L4.1@High
Идентификатор кодека : V_MPEGH/ISO/HEVC
Продолжительность : 1 ч. 41 м.
Битрейт : 10,2 Мбит/сек
Ширина : 1 920 пикселей
Высота : 1 040 пикселей
Соотношение сторон : 1,85:1
Режим частоты кадров : Постоянный
Частота кадров : 23,976 (24000/1001) кадра/сек
Цветовое пространство : YUV
Субдискретизация насыщенности : 4:2:0
Битовая глубина : 10 бит
Бит/(Пиксели*Кадры) : 0.213
Размер потока : 7,21 Гбайт (85%)
Заголовок : A Good Day to Die Hard / Rip by OldGamer
Библиотека кодирования : x265 3.4+4-g3ae3d7116:[Windows][GCC 10.2.0][64 bit] 10bit
Настройки программы : cpuid=1111039 / frame-threads=3 / numa-pools=8 / wpp / no-pmode / no-pme / no-psnr / no-ssim / log-level=2 / input-csp=1 / input-res=1920x1040 / interlace=0 / total-frames=145562 / level-idc=41 / high-tier=1 / uhd-bd=0 / ref=5 / no-allow-non-conformance / no-repeat-headers / annexb / no-aud / no-hrd / info / hash=0 / no-temporal-layers / open-gop / min-keyint=23 / keyint=240 / gop-lookahead=0 / bframes=9 / b-adapt=2 / b-pyramid / bframe-bias=0 / rc-lookahead=40 / lookahead-slices=0 / scenecut=40 / hist-scenecut=0 / radl=0 / no-splice / no-intra-refresh / ctu=64 / min-cu-size=8 / rect / amp / max-tu-size=32 / tu-inter-depth=4 / tu-intra-depth=4 / limit-tu=1 / rdoq-level=2 / dynamic-rd=0.00 / no-ssim-rd / signhide / no-tskip / nr-intra=0 / nr-inter=0 / no-constrained-intra / no-strong-intra-smoothing / max-merge=5 / limit-refs=3 / no-limit-modes / me=3 / subme=7 / merange=57 / temporal-mvp / no-frame-dup / no-hme / weightp / weightb / no-analyze-src-pics / deblock=-3:-3 / no-sao / no-sao-non-deblock / rd=6 / selective-sao=0 / no-early-skip / rskip / no-fast-intra / no-tskip-fast / no-cu-lossless / b-intra / no-splitrd-skip / rdpenalty=0 / psy-rd=2.00 / psy-rdoq=1.00 / no-rd-refine / no-lossless / cbqpoffs=0 / crqpoffs=0 / rc=crf / crf=20.5 / qcomp=0.70 / qpstep=4 / stats-write=0 / stats-read=0 / vbv-maxrate=50000 / vbv-bufsize=50000 / vbv-init=0.9 / crf-max=0.0 / crf-min=0.0 / ipratio=1.40 / pbratio=1.30 / aq-mode=1 / aq-strength=1.00 / no-cutree / zone-count=1 / zones: / start-frame=137039 / end-frame=145548 / qp=36 / no-strict-cbr / qg-size=32 / no-rc-grain / qpmax=69 / qpmin=0 / no-const-vbv / sar=1 / overscan=0 / videoformat=5 / range=0 / colorprim=2 / transfer=2 / colormatrix=2 / chromaloc=0 / display-window=0 / cll=0,0 / min-luma=0 / max-luma=1023 / log2-max-poc-lsb=8 / vui-timing-info / vui-hrd-info / slices=1 / no-opt-qp-pps / no-opt-ref-list-length-pps / no-multi-pass-opt-rps / scenecut-bias=0.00 / hist-threshold=0.01 / no-opt-cu-delta-qp / no-aq-motion / no-hdr10 / no-hdr10-opt / no-dhdr10-opt / no-idr-recovery-sei / analysis-reuse-level=0 / analysis-save-reuse-level=0 / analysis-load-reuse-level=0 / scale-factor=0 / refine-intra=0 / refine-inter=0 / refine-mv=1 / refine-ctu-distortion=0 / no-limit-sao / ctu-info=0 / no-lowpass-dct / refine-analysis-type=0 / copy-pic=1 / max-ausize-factor=1.0 / no-dynamic-refine / no-single-sei / no-hevc-aq / no-svt / no-field / qp-adaptation-range=1.00 / no-scenecut-aware-qpconformance-window-offsets / right=0 / bottom=0 / decoder-max-rate=0
Язык : English
Default : Да
Forced : Нет

Аудио #1
Идентификатор : 2
Формат : AC-3
Формат/Информация : Audio Coding 3
Коммерческое название : Dolby Digital
Идентификатор кодека : A_AC3
Продолжительность : 1 ч. 41 м.
Вид битрейта : Постоянный
Битрейт : 640 Кбит/сек
Каналы : 6 каналов
Channel layout : L R C LFE Ls Rs
Частота : 48,0 КГц
Частота кадров : 31,250 кадров/сек (1536 SPF)
Метод сжатия : С потерями
Размер потока : 463 Мбайт (5%)
Заголовок : Dub
Язык : Russian
Service kind : Complete Main
Default : Да
Forced : Нет

Аудио #2
Идентификатор : 3
Формат : AC-3
Формат/Информация : Audio Coding 3
Коммерческое название : Dolby Digital
Идентификатор кодека : A_AC3
Продолжительность : 1 ч. 41 м.
Вид битрейта : Постоянный
Битрейт : 448 Кбит/сек
Каналы : 6 каналов
Channel layout : L R C LFE Ls Rs
Частота : 48,0 КГц
Частота кадров : 31,250 кадров/сек (1536 SPF)
Метод сжатия : С потерями
Размер потока : 324 Мбайт (4%)
Заголовок : AVO (Андрей Гаврилов)
Язык : Russian
Service kind : Complete Main
Default : Нет
Forced : Нет

Аудио #3
Идентификатор : 4
Формат : AC-3
Формат/Информация : Audio Coding 3
Коммерческое название : Dolby Digital
Идентификатор кодека : A_AC3
Продолжительность : 1 ч. 41 м.
Вид битрейта : Постоянный
Битрейт : 640 Кбит/сек
Каналы : 6 каналов
Channel layout : L R C LFE Ls Rs
Частота : 48,0 КГц
Частота кадров : 31,250 кадров/сек (1536 SPF)
Метод сжатия : С потерями
Размер потока : 463 Мбайт (5%)
Язык : English
Service kind : Complete Main
Default : Нет
Forced : Нет

Текст #1
Идентификатор : 5
Формат : UTF-8
Идентификатор кодека : S_TEXT/UTF8
Идентификатор кодека/Информация : UTF-8 Plain Text
Продолжительность : 22 с. 856 мс.
Битрейт : 39 бит/сек
Count of elements : 2
Размер потока : 113 байт (0%)
Заголовок : forced
Язык : Russian
Default : Нет
Forced : Нет

Текст #2
Идентификатор : 6
Формат : UTF-8
Идентификатор кодека : S_TEXT/UTF8
Идентификатор кодека/Информация : UTF-8 Plain Text
Продолжительность : 1 ч. 33 м.
Битрейт : 43 бит/сек
Count of elements : 762
Размер потока : 29,8 Кбайт (0%)
Язык : Russian
Default : Нет
Forced : Нет

Текст #3
Идентификатор : 7
Формат : UTF-8
Идентификатор кодека : S_TEXT/UTF8
Идентификатор кодека/Информация : UTF-8 Plain Text
Продолжительность : 1 ч. 38 м.
Битрейт : 36 бит/сек
Count of elements : 1011
Размер потока : 26,3 Кбайт (0%)
Язык : English
Default : Нет
Forced : Нет

Текст #4
Идентификатор : 8
Формат : UTF-8
Идентификатор кодека : S_TEXT/UTF8
Идентификатор кодека/Информация : UTF-8 Plain Text
Продолжительность : 1 ч. 38 м.
Битрейт : 39 бит/сек
Count of elements : 1129
Размер потока : 28,4 Кбайт (0%)
Заголовок : SDH
Язык : English
Default : Нет
Forced : Нет

Текст #5
Идентификатор : 9
Формат : UTF-8
Идентификатор кодека : S_TEXT/UTF8
Идентификатор кодека/Информация : UTF-8 Plain Text
Продолжительность : 1 ч. 38 м.
Битрейт : 51 бит/сек
Count of elements : 1129
Размер потока : 37,5 Кбайт (0%)
Заголовок : SDH colored
Язык : English
Default : Нет
Forced : Нет

Меню
00:00:00.000 : en:00:00:00.000
00:02:45.999 : en:00:02:45.999
00:05:02.135 : en:00:05:02.135
00:09:36.242 : en:00:09:36.242
00:12:13.900 : en:00:12:13.900
00:15:25.550 : en:00:15:25.550
00:18:02.999 : en:00:18:02.999
00:22:31.350 : en:00:22:31.350
00:28:31.376 : en:00:28:31.376
00:32:28.863 : en:00:32:28.863
00:36:05.914 : en:00:36:05.914
00:39:53.641 : en:00:39:53.641
00:42:20.621 : en:00:42:20.621
00:46:04.720 : en:00:46:04.720
00:50:30.986 : en:00:50:30.986
00:53:21.657 : en:00:53:21.657
00:57:05.547 : en:00:57:05.547
01:01:46.619 : en:01:01:46.619
01:05:03.650 : en:01:05:03.650
01:10:24.053 : en:01:10:24.053
01:14:04.982 : en:01:14:04.982
01:17:50.416 : en:01:17:50.416
01:20:18.021 : en:01:20:18.021
01:24:05.832 : en:01:24:05.832
01:26:17.923 : en:01:26:17.923
01:28:05.488 : en:01:28:05.488
01:32:37.802 : en:01:32:37.802
01:35:24.927 : en:01:35:24.927
Загрузка...Cкриншот1 Крепкий орешек: Хороший день, чтобы умереть / A Good Day to Die Hard (2013) [Extended Cut] BDRip 1080p [HEVC] 10 bit от OldGamerЗагрузка...Cкриншот2 Крепкий орешек: Хороший день, чтобы умереть / A Good Day to Die Hard (2013) [Extended Cut] BDRip 1080p [HEVC] 10 bit от OldGamerЗагрузка...Cкриншот3 Крепкий орешек: Хороший день, чтобы умереть / A Good Day to Die Hard (2013) [Extended Cut] BDRip 1080p [HEVC] 10 bit от OldGamerЗагрузка...Cкриншот4 Крепкий орешек: Хороший день, чтобы умереть / A Good Day to Die Hard (2013) [Extended Cut] BDRip 1080p [HEVC] 10 bit от OldGamer
Сэмпл
Релиз-группа: RIPS CLUB
Торрент🧲 Магнет

Рейтинги КП и IMDB, кнопки "Позвать в чате" и "Спасибо", а также мультитрекерная статистика доступны только зарегистрированным/авторизованным пользователям!

Файлы: 5
  • Крепкий.орешек.Пенталогия.Die.Hard.Pentalogy
    • 01.Крепкий.орешек.Die.Hard.1988.BDRip-HEVC.1080p.mkv   15.15 ГБ
    • 02.Крепкий.орешек.2.Die.Hard.2.1990.BDRip-HEVC.1080p.mkv   12.8 ГБ
    • 03.Крепкий.орешек.3.Возмездие.Die.Hard.With.a.Vengeance.1995.BDRip-HEVC.1080p.mkv   14.11 ГБ
    • 04.Крепкий.орешек.4.0.Live.Free.or.Die.Hard.2007.Unrated.Version.BDRip-HEVC.1080p.mkv   11.34 ГБ
    • 05.Крепкий.орешек.Хороший.день.чтобы.умереть.A.Good.Day.to.Die.Hard.2013.Extended.Cut.BDRip-HEVC.1080p.mkv   8.44 ГБ
Поблагодарили: 19
alexyak, AndresUA, bob512, Brooklyn, bs158250, donadar, garant3v, Giggalo, GIS88, InSpector, Kiran, makss333, michael90, porsche_carrera, Remontaz, Solee, solohin1006, Spartanec1308, StarLord
OldGamer
03600 (5)  61.84 ГБ

Добавление нового комментария

Добавление комментариев доступно только зарегистрированным/авторизованным пользователям.