Регистрация / Смена пароля

💬 Мини-чат

04.12.2020 с 11:15 до 12:30 (по мск) будут проводится технические работы на стороне хостинг-провайдера.
AlchemistРаздайте, пожалуйста, Самолет президента / Air Force One (1997) BDRip 1080p [HEVC] 10 bit от HANNIBAL
AdminOldGamer, пролистывать не будут, но зато через поиск найдут.
OldGamerвряд ли кто будет потом пролистывать 1700 постов в ВК
OldGamerда думаю не надо
AdminПопробую связаться с техподдержкой, объясню ситуацию, попрошу на несколько минут снять лимит, если технически возможно. Может пойдут на встречу.
OldGamerо, и на принца персии отдача пошла, не прошло и года :)
Admin46 перенеслись + 4 были.
OldGamerпрошло?
AdminПоходу лимит 50 постов в день. Мда. Это же больше месяца потребуется, чтобы переносить.
AdminПопробую кусками по 100.
OldGamer"Попытка - не пытка" (с) :)
AdminСкрипт уже написал. Но не знаю есть ли в ВК лимит на количество постов в сутки. А то 1700 постов полетит туда.
AdminМожет добавить все существующие раздачи в ВК пока там нет пользователей? Чтобы потом не заспамить им новостную ленту. А то группа как-то пуста.
OldGamerSpartanec1308, привет
OldGamerSpartanec1308, 😃 ну бывает
Spartanec1308OldGamer, Привет!По ходу на счет Бронкса не понятка была.😁😁😁
AdminТеперь при добавлении или обновлении раздач будет происходить моментальный автопостинг в ВК. Адрес группы - https://vk.com/rips.club Кнопку на ВК добавлю завтра. Решить бы куда лучше её добавить.
AdminElico, возможно у вас проблемы с провайдером и доступом к некоторым IP.
AdminElico, с ссылками всё в порядке, проблема не в них. Какой у вас клиент? Заскриньте вкладку трекеры и отправьте мне в ЛС.
OldGamerElico, я не уходил с раздачи этого фильма. Возможно у вас проблемы с подключением. Может быть настройки торрент-клиента нужно менять.
  • Admin
  • abtr
  • MPBD
  • Zorg
Отправка сообщений доступна только зарегистрированным/авторизованным пользователям.
Онлайн (за 10 мин.): 4

Очень странные дела / Stranger Things (2017) [2 сезон] BDRip 1080p [HEVC] 10 bit от OldGamer (RG RIPS CLUB)

HEVC
10 bit
Обложка Очень странные дела / Stranger Things (2017) [2 сезон] BDRip 1080p [HEVC] 10 bit от OldGamer (RG RIPS CLUB) Год: 2017
Страна: США
Студия: 21 Laps Entertainment, Monkey Massacre
Жанр: Ужасы, Фантастика, Фэнтези, Триллер
Продолжительность: 07:35:50

Режиссер: Мэтт Даффер, Росс Даффер, Шон Леви
В ролях: Вайнона Райдер, Дэвид Харбор, Финн Вулфард, Милли Бобби Браун, Гейтен Матараццо, Калеб Маклафлин, Наталия Дайер, Чарли Хитон, Джо Кири, Кара Буоно

Описание: Прошёл год со дня победы над чудовищем из параллельного измерения. Уилла мучают видения и перемещения на «обратную сторону», вызванные гигантским Теневым Монстром. Джим Хоппер прячет Одиннадцать от правительственных агентов в хижине посреди леса. Шериф Хоппер находит загадочно заражённые тыквы, недалёко от которых он находит слизь, вызванную «обратной стороной». Дастин находит загадочное животное, которое почти сразу узнает Уилл. В Хокинс переезжает ровесница друзей по имени Максин. Дастин и Лукас принимают её в компанию в отличие от Майка, тоскующего по Одиннадцать.


Исходник: BDRemux 1080p (EPSiLON)
Видео: 1920x960 (2.00:1), 3765-6508 Кбит/сек, HEVC (Main10@L.4.1@High)
Аудио1: AC3, 6 ch, 640 Kbps - РусскийРусский, Дублированный
Аудио2: AC3, 6 ch, 384 Kbps - РусскийРусский, Многоголосый (Good People)
Аудио3: AC3, 6 ch, 384 Kbps - РусскийРусский, Многоголосый (LostFilm)
Аудио4: AC3, 6 ch, 640 Kbps - EnglishEnglish, Original
Субтитры: Русские форсированные и полные (SRT), English full (SRT, SDH)

Как за пару секунд удалить ненужные аудиодорожки и субтитры (Внимание! После удаления вы не сможете поддержать раздачу)

Лог (x265 info)
x265 [info]: frame I: 312, Avg QP:18.10 kb/s: 15786.79
x265 [info]: frame P: 10988, Avg QP:19.30 kb/s: 11359.77
x265 [info]: frame B: 61511, Avg QP:21.56 kb/s: 4251.20
x265 [info]: Weighted P-Frames: Y:7.2% UV:6.1%
x265 [info]: Weighted B-Frames: Y:5.8% UV:4.6%
x265 [info]: consecutive B-frames: 2.6% 2.3% 5.8% 19.4% 11.1% 22.2% 7.1% 9.1% 5.0% 4.0% 3.2% 2.9% 1.5% 1.3% 1.0% 0.8% 0.6%
x265 [info]: encoded 72811 frames in 51155.71s (1.42 fps), 5373.40 kb/s, Avg QP:21.21
Медиаинфо
Общее
Уникальный идентификатор : 324822918985810737726736052468824288795 (0xF45E9E5E85D968B2F488FE8A468A2E1B)
Полное имя : \\..\Очень.странные.дела.Stranger.Things.S02.BDRip-HEVC.1080p\Stranger.Things.S02E06.Chapter.Six.The.Spy.mkv
Формат : Matroska
Версия формата : Version 4
Размер файла : 2,63 Гбайт
Продолжительность : 50 м. 36 с.
Общий поток : 7 425 Кбит/сек
Название фильма : Stranger.Things.S02E06.Chapter.Six.The.Spy
Дата кодирования : UTC 2020-11-16 17:24:14
Программа кодирования : mkvmerge v51.0.0 ('I Wish') 64-bit
Библиотека кодирования : libebml v1.4.0 + libmatroska v1.6.2

Видео
Идентификатор : 1
Формат : HEVC
Формат/Информация : High Efficiency Video Coding
Профиль формата : Main 10@L4.1@High
Идентификатор кодека : V_MPEGH/ISO/HEVC
Продолжительность : 50 м. 36 с.
Битрейт : 5 374 Кбит/сек
Ширина : 1 920 пикселей
Высота : 960 пикселей
Соотношение сторон : 2,000
Режим частоты кадров : Постоянный
Частота кадров : 23,976 (24000/1001) кадра/сек
Цветовое пространство : YUV
Субдискретизация насыщенности : 4:2:0
Битовая глубина : 10 бит
Бит/(Пиксели*Кадры) : 0.122
Размер потока : 1,90 Гбайт (72%)
Заголовок : Stranger.Things.S02E06.Chapter.Six.The.Spy / Rip by OldGamer
Библиотека кодирования : x265 3.4+4-g3ae3d7116:[Windows][GCC 10.2.0][64 bit] 10bit
Настройки программы : cpuid=1111039 / frame-threads=3 / numa-pools=8 / wpp / no-pmode / no-pme / no-psnr / no-ssim / log-level=2 / input-csp=1 / input-res=1920x960 / interlace=0 / total-frames=72811 / level-idc=41 / high-tier=1 / uhd-bd=0 / ref=5 / no-allow-non-conformance / no-repeat-headers / annexb / no-aud / no-hrd / info / hash=0 / no-temporal-layers / open-gop / min-keyint=23 / keyint=240 / gop-lookahead=0 / bframes=16 / b-adapt=2 / b-pyramid / bframe-bias=0 / rc-lookahead=40 / lookahead-slices=0 / scenecut=40 / hist-scenecut=0 / radl=0 / no-splice / no-intra-refresh / ctu=64 / min-cu-size=8 / rect / amp / max-tu-size=32 / tu-inter-depth=4 / tu-intra-depth=4 / limit-tu=1 / rdoq-level=2 / dynamic-rd=0.00 / no-ssim-rd / signhide / no-tskip / nr-intra=0 / nr-inter=0 / no-constrained-intra / no-strong-intra-smoothing / max-merge=5 / limit-refs=3 / no-limit-modes / me=3 / subme=7 / merange=57 / temporal-mvp / no-frame-dup / no-hme / weightp / weightb / no-analyze-src-pics / deblock=-3:-3 / no-sao / no-sao-non-deblock / rd=6 / selective-sao=0 / no-early-skip / rskip / no-fast-intra / no-tskip-fast / no-cu-lossless / b-intra / no-splitrd-skip / rdpenalty=0 / psy-rd=2.00 / psy-rdoq=1.00 / no-rd-refine / no-lossless / cbqpoffs=0 / crqpoffs=0 / rc=crf / crf=20.0 / qcomp=0.60 / qpstep=4 / stats-write=0 / stats-read=0 / vbv-maxrate=50000 / vbv-bufsize=50000 / vbv-init=0.9 / crf-max=0.0 / crf-min=0.0 / ipratio=1.40 / pbratio=1.30 / aq-mode=4 / aq-strength=0.80 / no-cutree / zone-count=1 / zones: / start-frame=69937 / end-frame=72788 / qp=36 / no-strict-cbr / qg-size=32 / no-rc-grain / qpmax=69 / qpmin=0 / no-const-vbv / sar=1 / overscan=0 / videoformat=5 / range=0 / colorprim=2 / transfer=2 / colormatrix=2 / chromaloc=0 / display-window=0 / cll=0,0 / min-luma=0 / max-luma=1023 / log2-max-poc-lsb=8 / vui-timing-info / vui-hrd-info / slices=1 / no-opt-qp-pps / no-opt-ref-list-length-pps / no-multi-pass-opt-rps / scenecut-bias=0.00 / hist-threshold=0.01 / no-opt-cu-delta-qp / no-aq-motion / no-hdr10 / no-hdr10-opt / no-dhdr10-opt / no-idr-recovery-sei / analysis-reuse-level=0 / analysis-save-reuse-level=0 / analysis-load-reuse-level=0 / scale-factor=0 / refine-intra=0 / refine-inter=0 / refine-mv=1 / refine-ctu-distortion=0 / no-limit-sao / ctu-info=0 / no-lowpass-dct / refine-analysis-type=0 / copy-pic=1 / max-ausize-factor=1.0 / no-dynamic-refine / no-single-sei / no-hevc-aq / no-svt / no-field / qp-adaptation-range=1.00 / no-scenecut-aware-qpconformance-window-offsets / right=0 / bottom=0 / decoder-max-rate=0
Язык : English
Default : Да
Forced : Нет

Аудио #1
Идентификатор : 2
Формат : AC-3
Формат/Информация : Audio Coding 3
Коммерческое название : Dolby Digital
Идентификатор кодека : A_AC3
Продолжительность : 50 м. 36 с.
Вид битрейта : Постоянный
Битрейт : 640 Кбит/сек
Каналы : 6 каналов
Channel layout : L R C LFE Ls Rs
Частота : 48,0 КГц
Частота кадров : 31,250 кадров/сек (1536 SPF)
Метод сжатия : С потерями
Размер потока : 232 Мбайт (9%)
Заголовок : Dub
Язык : Russian
Service kind : Complete Main
Default : Да
Forced : Нет

Аудио #2
Идентификатор : 3
Формат : AC-3
Формат/Информация : Audio Coding 3
Коммерческое название : Dolby Digital
Идентификатор кодека : A_AC3
Продолжительность : 50 м. 36 с.
Вид битрейта : Постоянный
Битрейт : 384 Кбит/сек
Каналы : 6 каналов
Channel layout : L R C LFE Ls Rs
Частота : 48,0 КГц
Частота кадров : 31,250 кадров/сек (1536 SPF)
Метод сжатия : С потерями
Размер потока : 139 Мбайт (5%)
Заголовок : Good People
Язык : Russian
Service kind : Complete Main
Default : Нет
Forced : Нет

Аудио #3
Идентификатор : 4
Формат : AC-3
Формат/Информация : Audio Coding 3
Коммерческое название : Dolby Digital
Идентификатор кодека : A_AC3
Продолжительность : 50 м. 36 с.
Вид битрейта : Постоянный
Битрейт : 384 Кбит/сек
Каналы : 6 каналов
Channel layout : L R C LFE Ls Rs
Частота : 48,0 КГц
Частота кадров : 31,250 кадров/сек (1536 SPF)
Метод сжатия : С потерями
Размер потока : 139 Мбайт (5%)
Заголовок : LostFilm
Язык : Russian
Service kind : Complete Main
Default : Нет
Forced : Нет

Аудио #4
Идентификатор : 5
Формат : AC-3
Формат/Информация : Audio Coding 3
Коммерческое название : Dolby Digital
Идентификатор кодека : A_AC3
Продолжительность : 50 м. 36 с.
Вид битрейта : Постоянный
Битрейт : 640 Кбит/сек
Каналы : 6 каналов
Channel layout : L R C LFE Ls Rs
Частота : 48,0 КГц
Частота кадров : 31,250 кадров/сек (1536 SPF)
Метод сжатия : С потерями
Размер потока : 232 Мбайт (9%)
Язык : English
Service kind : Complete Main
Default : Нет
Forced : Нет

Текст #1
Идентификатор : 6
Формат : UTF-8
Идентификатор кодека : S_TEXT/UTF8
Идентификатор кодека/Информация : UTF-8 Plain Text
Продолжительность : 1 с. 961 мс.
Битрейт : 261 бит/сек
Count of elements : 1
Размер потока : 64,0 байт (0%)
Заголовок : Forced
Язык : Russian
Default : Нет
Forced : Нет

Текст #2
Идентификатор : 7
Формат : UTF-8
Идентификатор кодека : S_TEXT/UTF8
Идентификатор кодека/Информация : UTF-8 Plain Text
Продолжительность : 50 м. 11 с.
Битрейт : 71 бит/сек
Count of elements : 533
Размер потока : 26,1 Кбайт (0%)
Заголовок : Full
Язык : Russian
Default : Нет
Forced : Нет

Текст #3
Идентификатор : 8
Формат : UTF-8
Идентификатор кодека : S_TEXT/UTF8
Идентификатор кодека/Информация : UTF-8 Plain Text
Продолжительность : 48 м. 10 с.
Битрейт : 49 бит/сек
Count of elements : 543
Размер потока : 17,5 Кбайт (0%)
Заголовок : Full
Язык : English
Default : Нет
Forced : Нет

Текст #4
Идентификатор : 9
Формат : UTF-8
Идентификатор кодека : S_TEXT/UTF8
Идентификатор кодека/Информация : UTF-8 Plain Text
Продолжительность : 48 м. 40 с.
Битрейт : 57 бит/сек
Count of elements : 658
Размер потока : 20,6 Кбайт (0%)
Заголовок : SDH
Язык : English
Default : Нет
Forced : Нет

Меню
00:00:00.000 : en:Chapter 1
00:10:05.980 : en:Chapter 2
00:20:06.080 : en:Chapter 3
00:30:04.553 : en:Chapter 4
00:40:04.819 : en:Chapter 5
00:48:36.997 : en:Chapter 6
Загрузка...Cкриншот1 Очень странные дела / Stranger Things (2017) [2 сезон] BDRip 1080p [HEVC] 10 bit от OldGamer (RG RIPS CLUB)Загрузка...Cкриншот2 Очень странные дела / Stranger Things (2017) [2 сезон] BDRip 1080p [HEVC] 10 bit от OldGamer (RG RIPS CLUB)Загрузка...Cкриншот3 Очень странные дела / Stranger Things (2017) [2 сезон] BDRip 1080p [HEVC] 10 bit от OldGamer (RG RIPS CLUB)Загрузка...Cкриншот4 Очень странные дела / Stranger Things (2017) [2 сезон] BDRip 1080p [HEVC] 10 bit от OldGamer (RG RIPS CLUB)
Сэмпл Торрент🧲 Магнет

Рейтинги КП и IMDB, кнопки "Позвать в чате" и "Спасибо", а также мультитрекерная статистика сидов и пиров доступны только зарегистрированным/авторизованным пользователям!

Файлы: 9
  • Очень.странные.дела.Stranger.Things.S02.BDRip-HEVC.1080p
    • Stranger.Things.S02E01.Chapter.One.MADMAX.mkv   2.4 ГБ
    • Stranger.Things.S02E02.Chapter.Two.Trick.or.Treat.Freak.mkv   2.55 ГБ
    • Stranger.Things.S02E03.Chapter.Three.The.Pollywog.mkv   2.97 ГБ
    • Stranger.Things.S02E04.Chapter.Four.Will.the.Wise.mkv   2.27 ГБ
    • Stranger.Things.S02E05.Chapter.Five.Dig.Dug.mkv   2.39 ГБ
    • Stranger.Things.S02E06.Chapter.Six.The.Spy.mkv   2.63 ГБ
    • Stranger.Things.S02E07.Chapter.Seven.The.Lost.Sister.mkv   1.8 ГБ
    • Stranger.Things.S02E08.Chapter.Eight.The.Mind.Flayer.mkv   2.15 ГБ
    • Stranger.Things.S02E09.Chapter.Nine.The.Gate.mkv   2.82 ГБ
Поблагодарили: 3
aquarius124, garant3v, joker63
OldGamer
01432 (9)  21.98 ГБ

Добавление нового комментария

Добавление комментариев доступно только зарегистрированным/авторизованным пользователям.