Регистрация / Смена пароля

💬 Мини-чат

04.12.2020 с 11:15 до 12:30 (по мск) будут проводится технические работы на стороне хостинг-провайдера.
AlchemistРаздайте, пожалуйста, Самолет президента / Air Force One (1997) BDRip 1080p [HEVC] 10 bit от HANNIBAL
AdminOldGamer, пролистывать не будут, но зато через поиск найдут.
OldGamerвряд ли кто будет потом пролистывать 1700 постов в ВК
OldGamerда думаю не надо
AdminПопробую связаться с техподдержкой, объясню ситуацию, попрошу на несколько минут снять лимит, если технически возможно. Может пойдут на встречу.
OldGamerо, и на принца персии отдача пошла, не прошло и года :)
Admin46 перенеслись + 4 были.
OldGamerпрошло?
AdminПоходу лимит 50 постов в день. Мда. Это же больше месяца потребуется, чтобы переносить.
AdminПопробую кусками по 100.
OldGamer"Попытка - не пытка" (с) :)
AdminСкрипт уже написал. Но не знаю есть ли в ВК лимит на количество постов в сутки. А то 1700 постов полетит туда.
AdminМожет добавить все существующие раздачи в ВК пока там нет пользователей? Чтобы потом не заспамить им новостную ленту. А то группа как-то пуста.
OldGamerSpartanec1308, привет
OldGamerSpartanec1308, 😃 ну бывает
Spartanec1308OldGamer, Привет!По ходу на счет Бронкса не понятка была.😁😁😁
AdminТеперь при добавлении или обновлении раздач будет происходить моментальный автопостинг в ВК. Адрес группы - https://vk.com/rips.club Кнопку на ВК добавлю завтра. Решить бы куда лучше её добавить.
AdminElico, возможно у вас проблемы с провайдером и доступом к некоторым IP.
AdminElico, с ссылками всё в порядке, проблема не в них. Какой у вас клиент? Заскриньте вкладку трекеры и отправьте мне в ЛС.
OldGamerElico, я не уходил с раздачи этого фильма. Возможно у вас проблемы с подключением. Может быть настройки торрент-клиента нужно менять.
  • Admin
  • joker63
  • alexyak
  • JackShredder
Отправка сообщений доступна только зарегистрированным/авторизованным пользователям.
Онлайн (за 10 мин.): 4

Космический джэм / Space Jam (1996) BDRip 1080p [HEVC] 10 bit от Мичман

HEVC
10 bit
Обложка Космический джэм / Space Jam (1996) BDRip 1080p [HEVC] 10 bit от Мичман Год: 1996
Страна: США
Студия: Warner Bros. Family Entertainment, Northern Lights Entertainment, Courtside Seats Productions
Жанр: Мультфильм, Фэнтези, Спорт, Фантастика
Продолжительность: 01:27:20

Режиссер: Джо Питка
В ролях: Майкл Джордан, Уэйн Найт, Тереза Рэндл, Билл Мюррей, Ларри Бёрд, Чарльз Баркли, Патрик Юинг, Тайрон "Магси" Богз, Ларри Джонсон, Шон Брэдли

Описание: Мультмонстры с планеты «Гора придурков» вторгаются на Землю, желая захватить персонажей популярного анимационного сериала «Looney Toons». Земные зверюшки во главе с кроликом Багзом Банни предлагают на спор сыграть в баскетбол, привлекая на свою сторону суперзвезду Майкла Джордана.


Видео: 1908x1080, ~9795 Kbps
Аудио1: AC3, 6 ch, 384 Kbps - Русский, дублированный (Мост Видео)
Аудио2: AC3, 2 ch, 192 Kbps - Украинский, MVO (ICTV)
Аудио3: AC3, 6 ch, 384 Kbps - Английский
Субтитры: Русские полные (SRT), English full (SRT)

Как за пару секунд удалить ненужные аудиодорожки и субтитры (Внимание! После удаления вы не сможете поддержать раздачу)

Лог (x265 info)
265 [info]: frame I: Avg QP:17.93 kb/s
x265 [info]: frame P: Avg QP:19.41 kb/s
x265 [info]: frame B: Avg QP:21.76 kb/s
Медиаинфо
Общее
Уникальный идентификатор : 126741103407576513213347333344005932689 (0x5F5972D90145C36BDFA8B56448F34691)
Полное имя : R:Space Jam (1996) BDRip-HEVC 1080p.mkv
Формат : Matroska
Версия формата : Version 4 / Version 2
Размер файла : 6,56 Гбайт
Продолжительность : 1 ч. 27 м.
Общий поток : 10,8 Мбит/сек
Название фильма : Space Jam (1996)
Дата кодирования : UTC 2020-10-31 22:05:57
Программа кодирования : mkvmerge v50.0.0 ('Awakenings') 64-bit
Библиотека кодирования : libebml v1.4.0 + libmatroska v1.6.2
Обложка : Yes
Attachments : cover

Видео
Идентификатор : 1
Формат : HEVC
Формат/Информация : High Efficiency Video Coding
Профиль формата : Main 10@L4.1@High
Идентификатор кодека : V_MPEGH/ISO/HEVC
Продолжительность : 1 ч. 27 м.
Битрейт : 9795 Кбит/сек
Ширина : 1908 пикселей
Высота : 1080 пикселей
Соотношение сторон : 16:9
Режим частоты кадров : Постоянный
Частота кадров : 23,976 (23976/1000) кадра/сек
Частота кадров в оригинале : 23,976 (24000/1001) кадра/сек
Цветовое пространство : YUV
Субдискретизация насыщенности : 4:2:0
Битовая глубина : 10 бит
Бит/(Пиксели*Кадры) : 0.198
Размер потока : 5,98 Гбайт (91%)
Библиотека кодирования : x265 3.4+10-g25b2c0703:[Windows][MSVC 1927][64 bit] 10bit
Настройки программы : cpuid=1111039 / frame-threads=4 / numa-pools=16 / wpp / no-pmode / no-pme / no-psnr / no-ssim / log-level=2 / input-csp=1 / input-res=1908x1080 / interlace=0 / total-frames=113519 / level-idc=41 / high-tier=1 / uhd-bd=0 / ref=5 / no-allow-non-conformance / no-repeat-headers / annexb / no-aud / no-hrd / info / hash=0 / no-temporal-layers / open-gop / min-keyint=23 / keyint=240 / gop-lookahead=0 / bframes=8 / b-adapt=2 / b-pyramid / bframe-bias=0 / rc-lookahead=60 / lookahead-slices=4 / scenecut=40 / hist-scenecut=0 / radl=0 / no-splice / no-intra-refresh / ctu=32 / min-cu-size=8 / rect / amp / max-tu-size=32 / tu-inter-depth=4 / tu-intra-depth=4 / limit-tu=1 / rdoq-level=2 / dynamic-rd=0.00 / no-ssim-rd / signhide / no-tskip / nr-intra=0 / nr-inter=0 / no-constrained-intra / no-strong-intra-smoothing / max-merge=4 / limit-refs=2 / limit-modes / me=3 / subme=7 / merange=57 / temporal-mvp / no-frame-dup / no-hme / weightp / weightb / no-analyze-src-pics / deblock=-3:-3 / no-sao / no-sao-non-deblock / rd=6 / selective-sao=0 / no-early-skip / no-rskip / no-fast-intra / no-tskip-fast / no-cu-lossless / no-b-intra / no-splitrd-skip / rdpenalty=0 / psy-rd=2.00 / psy-rdoq=1.00 / no-rd-refine / no-lossless / cbqpoffs=0 / crqpoffs=0 / rc=crf / crf=20.0 / qcomp=0.65 / qpstep=4 / stats-write=0 / stats-read=0 / vbv-maxrate=50000 / vbv-bufsize=50000 / vbv-init=0.9 / crf-max=0.0 / crf-min=0.0 / ipratio=1.40 / pbratio=1.30 / aq-mode=1 / aq-strength=1.00 / no-cutree / zone-count=0 / no-strict-cbr / qg-size=32 / no-rc-grain / qpmax=69 / qpmin=0 / no-const-vbv / sar=1 / overscan=0 / videoformat=5 / range=0 / colorprim=1 / transfer=1 / colormatrix=1 / chromaloc=0 / display-window=0 / cll=0,0 / min-luma=0 / max-luma=1023 / log2-max-poc-lsb=8 / vui-timing-info / vui-hrd-info / slices=1 / no-opt-qp-pps / no-opt-ref-list-length-pps / no-multi-pass-opt-rps / scenecut-bias=0.05 / hist-threshold=0.01 / no-opt-cu-delta-qp / no-aq-motion / no-hdr10 / no-hdr10-opt / no-dhdr10-opt / no-idr-recovery-sei / analysis-reuse-level=0 / analysis-save-reuse-level=0 / analysis-load-reuse-level=0 / scale-factor=0 / refine-intra=0 / refine-inter=0 / refine-mv=1 / refine-ctu-distortion=0 / no-limit-sao / ctu-info=0 / no-lowpass-dct / refine-analysis-type=0 / copy-pic=1 / max-ausize-factor=1.0 / no-dynamic-refine / no-single-sei / no-hevc-aq / no-svt / no-field / qp-adaptation-range=1.00 / no-scenecut-aware-qpconformance-window-offsets / right=0 / bottom=0 / decoder-max-rate=0
Default : Да
Forced : Нет
Цветовой диапазон : Limited
Основные цвета : BT.709
Характеристики трансфера : BT.709
Коэффициенты матрицы : BT.709

Аудио #1
Идентификатор : 2
Формат : AC-3
Формат/Информация : Audio Coding 3
Идентификатор кодека : A_AC3
Продолжительность : 1 ч. 27 м.
Вид битрейта : Постоянный
Битрейт : 384 Кбит/сек
Каналы : 6 каналов
Расположение каналов : Front: L C R, Side: L R, LFE
Частота : 48,0 КГц
Частота кадров : 31,250 кадров/сек (1536 SPF)
Битовая глубина : 16 бит
Метод сжатия : С потерями
Размер потока : 240 Мбайт (4%)
Заголовок : Профессиональный, дублированный - Мост Видео
Язык : Russian
ServiceKind/Strin : Complete Main
Default : Да
Forced : Нет

Аудио #2
Идентификатор : 3
Формат : AC-3
Формат/Информация : Audio Coding 3
Идентификатор кодека : A_AC3
Продолжительность : 1 ч. 27 м.
Вид битрейта : Постоянный
Битрейт : 192 Кбит/сек
Каналы : 2 канала
Расположение каналов : Front: L R
Частота : 48,0 КГц
Частота кадров : 31,250 кадров/сек (1536 SPF)
Битовая глубина : 16 бит
Метод сжатия : С потерями
Размер потока : 120 Мбайт (2%)
Заголовок : Профессиональный, многоголосый - ICTV
Язык : Ukrainian
ServiceKind/Strin : Complete Main
Default : Нет
Forced : Нет

Аудио #3
Идентификатор : 4
Формат : AC-3
Формат/Информация : Audio Coding 3
Идентификатор кодека : A_AC3
Продолжительность : 1 ч. 27 м.
Вид битрейта : Постоянный
Битрейт : 384 Кбит/сек
Каналы : 6 каналов
Расположение каналов : Front: L C R, Side: L R, LFE
Частота : 48,0 КГц
Частота кадров : 31,250 кадров/сек (1536 SPF)
Битовая глубина : 16 бит
Метод сжатия : С потерями
Размер потока : 240 Мбайт (4%)
Заголовок : Original
Язык : English
ServiceKind/Strin : Complete Main
Default : Нет
Forced : Нет

Текст #1
Идентификатор : 5
Формат : UTF-8
Идентификатор кодека : S_TEXT/UTF8
Идентификатор кодека/Информация : UTF-8 Plain Text
Продолжительность : 1 ч. 26 м.
Битрейт : 69 бит/сек
ElementCount : 1165
Размер потока : 43,7 Кбайт (0%)
Заголовок : Русские
Язык : Russian
Default : Нет
Forced : Нет

Текст #2
Идентификатор : 6
Формат : UTF-8
Идентификатор кодека : S_TEXT/UTF8
Идентификатор кодека/Информация : UTF-8 Plain Text
Продолжительность : 1 ч. 26 м.
Битрейт : 65 бит/сек
ElementCount : 1261
Размер потока : 41,4 Кбайт (0%)
Заголовок : Английские
Язык : English
Default : Нет
Forced : Нет

Меню
00:00:00.000 : en:00:00:00.000
00:02:22.642 : en:00:02:22.642
00:05:54.854 : en:00:05:54.854
00:09:01.124 : en:00:09:01.124
00:11:35.945 : en:00:11:35.945
00:14:09.140 : en:00:14:09.140
00:18:14.468 : en:00:18:14.468
00:21:36.629 : en:00:21:36.629
00:24:26.340 : en:00:24:26.340
00:25:47.087 : en:00:25:47.087
00:27:45.414 : en:00:27:45.414
00:30:26.533 : en:00:30:26.533
00:31:19.711 : en:00:31:19.711
00:34:05.001 : en:00:34:05.001
00:36:59.300 : en:00:36:59.300
00:38:11.915 : en:00:38:11.915
00:39:39.419 : en:00:39:39.419
00:42:11.070 : en:00:42:11.070
00:45:54.085 : en:00:45:54.085
00:46:39.755 : en:00:46:39.755
00:47:11.787 : en:00:47:11.787
00:48:05.800 : en:00:48:05.800
00:50:01.040 : en:00:50:01.040
00:53:40.884 : en:00:53:40.884
00:56:56.747 : en:00:56:56.747
00:57:56.973 : en:00:57:56.973
01:00:14.069 : en:01:00:14.069
01:02:27.577 : en:01:02:27.577
01:04:09.679 : en:01:04:09.679
01:06:06.421 : en:01:06:06.421
01:07:42.475 : en:01:07:42.475
01:09:32.794 : en:01:09:32.794
01:11:49.388 : en:01:11:49.388
01:12:30.304 : en:01:12:30.304
01:14:16.452 : en:01:14:16.452
01:15:25.896 : en:01:15:25.896
01:18:23.490 : en:01:18:23.490
01:26:53.208 : en:01:26:53.208
Загрузка...Cкриншот1 Космический джэм / Space Jam (1996) BDRip 1080p [HEVC] 10 bit от МичманЗагрузка...Cкриншот2 Космический джэм / Space Jam (1996) BDRip 1080p [HEVC] 10 bit от МичманЗагрузка...Cкриншот3 Космический джэм / Space Jam (1996) BDRip 1080p [HEVC] 10 bit от МичманЗагрузка...Cкриншот4 Космический джэм / Space Jam (1996) BDRip 1080p [HEVC] 10 bit от Мичман
Сэмпл Торрент🧲 Магнет

Рейтинги КП и IMDB, кнопки "Позвать в чате" и "Спасибо", а также мультитрекерная статистика сидов и пиров доступны только зарегистрированным/авторизованным пользователям!

Файлы: 1
  • Space Jam (1996) BDRip-HEVC 1080p.mkv   6.56 ГБ
Поблагодарили: 3
makss333, Rezident, sabretooth
OldGamer
010106.56 ГБ

Добавление нового комментария

Добавление комментариев доступно только зарегистрированным/авторизованным пользователям.