💬 Мини-чат

Для тех, кому интересен процесс переделки сайта - https://rips.club/changelog.html (обновлен 22.02.2024)
OldGamerz1M4p9i0, и этот релиз скачался
Adminatomicheart, встал, но у Вас в профиле не видно. Вам бы перекачать.
OldGamerz1M4p9i0, Хан Соло скачался, но релиз, который был на руторе, там аудиодорожек меньше, чем тут, а видеоряд тот же. Попробуйте оттуда, я пока что сидирую.
OldGamerХан Соло откуда-то по чайной ложке в час скачивается, за сутки 50%, наблюдаем-с дальше
Adminatomicheart, завтра посмотрю, он у меня должен быть.
atomicheartРаздайте, пожалуйста, Тихое место: Дилогия / A Quiet Place: Dilogy (2018-2020) UHD-BDRip 1080p [HEVC] 10 bit [HDR] от Mr. Fox
z1M4p9i0Раздайте, пожалуйста, Хан Соло: Звёздные войны. Истории / Solo: A Star Wars Story (2018) [Локализованная версия] BDRip 1080p [HEVC] 10 bit от Cthulhu
z1M4p9i0Раздайте, пожалуйста, Терминатор: Тёмные судьбы / Terminator: Dark Fate (2019) [iTunes] UHD-BDRip 1440p [HEVC] 10 bit от HANNIBAL
OldGamerKeynol, честно говоря, пока что не планировалось, так как у нас есть отличный рип этого фильма
KeynolПриветствую! А можно сделать HEVC 10 bit на Трон Наследие Hybrid ? там файл на 31 гиг :-( на рутрекере. Хороший, но очень массивный..
  • OldGamer
  • and50
  • bassoutta
  • bronsonw200
  • donadar
  • InSpector
Отправка сообщений доступна только зарегистрированным/авторизованным пользователям.
Онлайн (за 10 мин.): 6

Лунатики / Sleepwalkers (1992) BDRip 1080p [HEVC] 10 bit от Мичман

HEVC
10 bit
Обложка Лунатики / Sleepwalkers (1992) BDRip 1080p [HEVC] 10 bit от Мичман Год: 1992
Страна: США
Студия: Columbia Pictures, Victor & Grais Productions, Ion Pictures
Жанр: Ужасы, Фэнтези
Продолжительность: 01:29:11

Режиссер: Мик Гэррис
В ролях: Брайан Краузе, Мэдхен Амик, Элис Крайдж, Джим Хейни, Синди Пикетт, Рон Перлман, Лаймен Уорд, Дэн Мартин, Гленн Шэдикс, Синтия Гэррис

Описание: Чарльз Брэйди и его мать - оборотни. Их любимая добыча - молодые девственницы, дарующие им жизненную энергию. Но новая жертва оказывается сильнее и изобретательнее своих преследователей. Школьница Таня Робертсон находит оружие против кровавой семейки. Больше всего на свете они боятся кошачьих когтей.


Видео: 1920x1040, ~10,4 Мbps
Аудио1: AC3, 2 ch, 224 Kbps - РусскийРусский, MVO (Видеосервис)
Аудио2: AC3, 2 ch, 224 Kbps - РусскийРусский, AVO (Ю.Живов)
Аудио3: AC3, 2 ch, 224 Kbps - АнглийскийАнглийский
Субтитры: Русские полные (SRT), English full (SRT)

Как за пару секунд удалить ненужные аудиодорожки и субтитры (Внимание! После удаления вы не сможете поддержать раздачу)

Лог (x265 info)
x265 [info]: frame I: Avg QP:17.81 kb/s
x265 [info]: frame P: Avg QP:19.29 kb/s
x265 [info]: frame B: Avg QP:21.30 kb/s
Медиаинфо
Общее
Уникальный идентификатор : 157159431504933382563548080136687564832 (0x763BCE366A8064329F4041B29861B820)
Полное имя : R:Sleepwalkers (1992) BDRip-HEVC 1080p.mkv
Формат : Matroska
Версия формата : Version 4 / Version 2
Размер файла : 6,88 Гбайт
Продолжительность : 1 ч. 29 м.
Общий поток : 11,0 Мбит/сек
Название фильма : Sleepwalkers (1992)
Дата кодирования : UTC 2020-10-24 05:25:46
Программа кодирования : mkvmerge v50.0.0 ('Awakenings') 64-bit
Библиотека кодирования : libebml v1.4.0 + libmatroska v1.6.2
Обложка : Yes
Attachments : cover

Видео
Идентификатор : 1
Формат : HEVC
Формат/Информация : High Efficiency Video Coding
Профиль формата : Main 10@L4.1@High
Идентификатор кодека : V_MPEGH/ISO/HEVC
Продолжительность : 1 ч. 29 м.
Битрейт : 10,4 Мбит/сек
Ширина : 1920 пикселей
Высота : 1040 пикселей
Соотношение сторон : 1,85:1
Режим частоты кадров : Постоянный
Частота кадров : 23,976 (23976/1000) кадра/сек
Частота кадров в оригинале : 23,976 (24000/1001) кадра/сек
Цветовое пространство : YUV
Субдискретизация насыщенности : 4:2:0
Битовая глубина : 10 бит
Бит/(Пиксели*Кадры) : 0.217
Размер потока : 6,46 Гбайт (94%)
Библиотека кодирования : x265 3.4+10-g25b2c0703:[Windows][MSVC 1927][64 bit] 10bit
Настройки программы : cpuid=1111039 / frame-threads=4 / numa-pools=16 / wpp / no-pmode / no-pme / no-psnr / no-ssim / log-level=2 / input-csp=1 / input-res=1920x1040 / interlace=0 / total-frames=123436 / level-idc=41 / high-tier=1 / uhd-bd=0 / ref=5 / no-allow-non-conformance / no-repeat-headers / annexb / no-aud / no-hrd / info / hash=0 / no-temporal-layers / open-gop / min-keyint=23 / keyint=240 / gop-lookahead=0 / bframes=10 / b-adapt=2 / b-pyramid / bframe-bias=0 / rc-lookahead=60 / lookahead-slices=4 / scenecut=40 / hist-scenecut=0 / radl=0 / no-splice / no-intra-refresh / ctu=32 / min-cu-size=8 / rect / amp / max-tu-size=32 / tu-inter-depth=4 / tu-intra-depth=4 / limit-tu=1 / rdoq-level=2 / dynamic-rd=0.00 / no-ssim-rd / signhide / no-tskip / nr-intra=0 / nr-inter=0 / no-constrained-intra / no-strong-intra-smoothing / max-merge=4 / limit-refs=2 / limit-modes / me=3 / subme=7 / merange=57 / temporal-mvp / no-frame-dup / no-hme / weightp / weightb / no-analyze-src-pics / deblock=-3:-3 / no-sao / no-sao-non-deblock / rd=6 / selective-sao=0 / no-early-skip / no-rskip / no-fast-intra / no-tskip-fast / no-cu-lossless / no-b-intra / no-splitrd-skip / rdpenalty=0 / psy-rd=2.00 / psy-rdoq=1.00 / no-rd-refine / no-lossless / cbqpoffs=0 / crqpoffs=0 / rc=crf / crf=20.0 / qcomp=0.60 / qpstep=4 / stats-write=0 / stats-read=0 / vbv-maxrate=50000 / vbv-bufsize=50000 / vbv-init=0.9 / crf-max=0.0 / crf-min=0.0 / ipratio=1.40 / pbratio=1.30 / aq-mode=1 / aq-strength=1.00 / no-cutree / zone-count=0 / no-strict-cbr / qg-size=32 / no-rc-grain / qpmax=69 / qpmin=0 / no-const-vbv / sar=1 / overscan=0 / videoformat=5 / range=0 / colorprim=1 / transfer=1 / colormatrix=1 / chromaloc=0 / display-window=0 / cll=0,0 / min-luma=0 / max-luma=1023 / log2-max-poc-lsb=8 / vui-timing-info / vui-hrd-info / slices=1 / no-opt-qp-pps / no-opt-ref-list-length-pps / no-multi-pass-opt-rps / scenecut-bias=0.05 / hist-threshold=0.01 / no-opt-cu-delta-qp / no-aq-motion / no-hdr10 / no-hdr10-opt / no-dhdr10-opt / no-idr-recovery-sei / analysis-reuse-level=0 / analysis-save-reuse-level=0 / analysis-load-reuse-level=0 / scale-factor=0 / refine-intra=0 / refine-inter=0 / refine-mv=1 / refine-ctu-distortion=0 / no-limit-sao / ctu-info=0 / no-lowpass-dct / refine-analysis-type=0 / copy-pic=1 / max-ausize-factor=1.0 / no-dynamic-refine / no-single-sei / no-hevc-aq / no-svt / no-field / qp-adaptation-range=1.00 / no-scenecut-aware-qpconformance-window-offsets / right=0 / bottom=0 / decoder-max-rate=0
Default : Да
Forced : Нет
Цветовой диапазон : Limited
Основные цвета : BT.709
Характеристики трансфера : BT.709
Коэффициенты матрицы : BT.709

Аудио #1
Идентификатор : 2
Формат : AC-3
Формат/Информация : Audio Coding 3
Идентификатор кодека : A_AC3
Продолжительность : 1 ч. 29 м.
Вид битрейта : Постоянный
Битрейт : 224 Кбит/сек
Каналы : 2 канала
Расположение каналов : Front: L R
Частота : 48,0 КГц
Частота кадров : 31,250 кадров/сек (1536 SPF)
Битовая глубина : 16 бит
Метод сжатия : С потерями
Размер потока : 143 Мбайт (2%)
Заголовок : MVO (Russian) Видеосервис
Язык : Russian
ServiceKind/Strin : Complete Main
Default : Да
Forced : Нет

Аудио #2
Идентификатор : 3
Формат : AC-3
Формат/Информация : Audio Coding 3
Идентификатор кодека : A_AC3
Продолжительность : 1 ч. 29 м.
Вид битрейта : Постоянный
Битрейт : 224 Кбит/сек
Каналы : 2 канала
Расположение каналов : Front: L R
Частота : 48,0 КГц
Частота кадров : 31,250 кадров/сек (1536 SPF)
Битовая глубина : 16 бит
Метод сжатия : С потерями
Размер потока : 143 Мбайт (2%)
Заголовок : AVO (Ю.Живов)
Язык : Russian
ServiceKind/Strin : Complete Main
Default : Нет
Forced : Нет

Аудио #3
Идентификатор : 4
Формат : AC-3
Формат/Информация : Audio Coding 3
Идентификатор кодека : A_AC3
Продолжительность : 1 ч. 29 м.
Вид битрейта : Постоянный
Битрейт : 224 Кбит/сек
Каналы : 2 канала
Расположение каналов : Front: L R
Частота : 48,0 КГц
Частота кадров : 31,250 кадров/сек (1536 SPF)
Битовая глубина : 16 бит
Метод сжатия : С потерями
Размер потока : 143 Мбайт (2%)
Заголовок : Original (English)
Язык : English
ServiceKind/Strin : Complete Main
Default : Нет
Forced : Нет

Текст #1
Идентификатор : 5
Формат : UTF-8
Идентификатор кодека : S_TEXT/UTF8
Идентификатор кодека/Информация : UTF-8 Plain Text
Продолжительность : 1 ч. 25 м.
Битрейт : 69 бит/сек
ElementCount : 914
Размер потока : 43,6 Кбайт (0%)
Заголовок : Rus
Язык : Russian
Default : Нет
Forced : Нет

Текст #2
Идентификатор : 6
Формат : UTF-8
Идентификатор кодека : S_TEXT/UTF8
Идентификатор кодека/Информация : UTF-8 Plain Text
Продолжительность : 1 ч. 25 м.
Битрейт : 43 бит/сек
ElementCount : 1044
Размер потока : 27,1 Кбайт (0%)
Заголовок : Eng
Язык : English
Default : Нет
Forced : Нет

Меню
00:00:00.000 : en:00:00:00.000
00:05:36.836 : en:00:05:36.836
00:10:45.228 : en:00:10:45.228
00:16:34.160 : en:00:16:34.160
00:20:35.151 : en:00:20:35.151
00:27:05.582 : en:00:27:05.582
00:30:24.239 : en:00:30:24.239
00:36:44.160 : en:00:36:44.160
00:43:27.855 : en:00:43:27.855
00:49:09.238 : en:00:49:09.238
00:54:17.546 : en:00:54:17.546
01:00:03.308 : en:01:00:03.308
01:03:28.763 : en:01:03:28.763
01:09:49.811 : en:01:09:49.811
01:14:32.009 : en:01:14:32.009
01:18:29.872 : en:01:18:29.872
Загрузка...Cкриншот1 Лунатики / Sleepwalkers (1992) BDRip 1080p [HEVC] 10 bit от МичманЗагрузка...Cкриншот2 Лунатики / Sleepwalkers (1992) BDRip 1080p [HEVC] 10 bit от МичманЗагрузка...Cкриншот3 Лунатики / Sleepwalkers (1992) BDRip 1080p [HEVC] 10 bit от МичманЗагрузка...Cкриншот4 Лунатики / Sleepwalkers (1992) BDRip 1080p [HEVC] 10 bit от Мичман
Сэмпл Торрент🧲 Магнет

Рейтинги КП и IMDB, кнопки "Позвать в чате" и "Спасибо", а также мультитрекерная статистика доступны только зарегистрированным/авторизованным пользователям!

Файлы: 1
  • Sleepwalkers (1992) BDRip-HEVC 1080p.mkv   6.88 ГБ
Поблагодарили: 2
Giggalo, makss333
OldGamer
027006.88 ГБ

Добавление нового комментария

Добавление комментариев доступно только зарегистрированным/авторизованным пользователям.