💬 Мини-чат

Для тех, кому интересен процесс переделки сайта - https://rips.club/changelog.html (обновлен 20.04.2024)
  • z1M4p9i0
Отправка сообщений доступна только зарегистрированным/авторизованным пользователям.
Онлайн (за 10 мин.): 1

Хэппи / Happy! (2019) [2 сезон] BDRip 1080p [HEVC] 10 bit от OldGamer (RG RIPS CLUB)

HEVC
10 bit
Обложка Хэппи / Happy! (2019) [2 сезон] BDRip 1080p [HEVC] 10 bit от OldGamer (RG RIPS CLUB) Год: 2019
Страна: США
Студия: Original Film, Littleton Road, Universal Cable Productions
Жанр: Фэнтези, Боевик, Триллер, Комедия
Продолжительность: 07:24:37

Режиссер: Брайан Тейлор, Уэйн Йип, Марианна Пока
В ролях: Кристофер Мелони, Ричи Костер, Лили Мирожник, Пэттон Освальт, Брайс Лоренцо, Медина Сенгхоур, Патрик Фишлер, Кристофер Фицджералд, Антония Рей, Джозеф Д. Рейтман

Описание: Ник Сакс, вечно пьяный бывший полицейский, становится наёмным убийцей. Он плывёт по течению в мире случайных смертей, секса и предательства. Когда одно из его дел идёт наперекосяк, нетрезвая жизнь Сакса навсегда меняется с появлением крошечного, вечно положительного, воображаемого голубого крылатого единорога.


Исходник: Blu-Ray Remux 1080p
Видео: 1920x1080 (16:9), 3593-5710 Кбит/сек, HEVC (Main10@L.4.1@High)
Аудио1: AC3, 6 ch, 640 Kbps - РусскийРусский, Многоголосый (Кубик в Кубе, без цензуры)
Аудио2: AC3, 6 ch, 640 Kbps - EnglishEnglish, Original
Субтитры: Отсутствуют

Как за пару секунд удалить ненужные аудиодорожки и субтитры (Внимание! После удаления вы не сможете поддержать раздачу)

Лог (x265 info)
x265 [info]: frame I: 248, Avg QP:16.02 kb/s: 17307.28
x265 [info]: frame P: 11396, Avg QP:17.56 kb/s: 11499.00
x265 [info]: frame B: 45755, Avg QP:20.36 kb/s: 4111.17
x265 [info]: Weighted P-Frames: Y:4.8% UV:3.5%
x265 [info]: Weighted B-Frames: Y:3.2% UV:2.0%
x265 [info]: consecutive B-frames: 7.0% 5.7% 6.9% 20.6% 14.7% 33.5% 5.0% 3.8% 1.2% 0.5% 0.3% 0.2% 0.1% 0.1% 0.2% 0.3%
x265 [info]: encoded 57399 frames in 61013.73s (0.94 fps), 5634.97 kb/s, Avg QP:19.79
Медиаинфо
Общее
Уникальный идентификатор : 88858487570563869692189194573913767573 (0x42D985AF10529E20FC2D819CFDFFBE95)
Полное имя : \\..\Хэппи.Happy.S02.2019.BDRip-HEVC.1080p\Happy.S02E07.Arlo.and.Marie.mkv
Формат : Matroska
Версия формата : Version 4
Размер файла : 1,93 Гбайт
Продолжительность : 39 м. 54 с.
Общий поток : 6 917 Кбит/сек
Название фильма : Happy.S02E07.Arlo.and.Marie
Дата кодирования : UTC 2020-11-25 08:03:03
Программа кодирования : mkvmerge v51.0.0 ('I Wish') 64-bit
Библиотека кодирования : libebml v1.4.0 + libmatroska v1.6.2

Видео
Идентификатор : 1
Формат : HEVC
Формат/Информация : High Efficiency Video Coding
Профиль формата : Main 10@L4.1@High
Идентификатор кодека : V_MPEGH/ISO/HEVC
Продолжительность : 39 м. 54 с.
Битрейт : 5 636 Кбит/сек
Ширина : 1 920 пикселей
Высота : 1 080 пикселей
Соотношение сторон : 16:9
Режим частоты кадров : Постоянный
Частота кадров : 23,976 (24000/1001) кадра/сек
Цветовое пространство : YUV
Субдискретизация насыщенности : 4:2:0
Битовая глубина : 10 бит
Бит/(Пиксели*Кадры) : 0.113
Размер потока : 1,57 Гбайт (81%)
Заголовок : Happy.S02E07.Arlo.and.Marie / Rip by OldGamer
Библиотека кодирования : x265 3.4+4-g3ae3d7116:[Windows][GCC 10.2.0][64 bit] 10bit
Настройки программы : cpuid=1111039 / frame-threads=3 / numa-pools=12 / wpp / no-pmode / no-pme / no-psnr / no-ssim / log-level=2 / input-csp=1 / input-res=1920x1080 / interlace=0 / total-frames=57399 / level-idc=41 / high-tier=1 / uhd-bd=0 / ref=5 / no-allow-non-conformance / no-repeat-headers / annexb / no-aud / no-hrd / info / hash=0 / no-temporal-layers / open-gop / min-keyint=23 / keyint=240 / gop-lookahead=0 / bframes=15 / b-adapt=2 / b-pyramid / bframe-bias=0 / rc-lookahead=60 / lookahead-slices=0 / scenecut=40 / hist-scenecut=0 / radl=0 / no-splice / no-intra-refresh / ctu=64 / min-cu-size=8 / rect / amp / max-tu-size=32 / tu-inter-depth=4 / tu-intra-depth=4 / limit-tu=1 / rdoq-level=2 / dynamic-rd=0.00 / no-ssim-rd / signhide / no-tskip / nr-intra=0 / nr-inter=0 / no-constrained-intra / no-strong-intra-smoothing / max-merge=5 / limit-refs=3 / no-limit-modes / me=3 / subme=7 / merange=57 / temporal-mvp / no-frame-dup / no-hme / weightp / weightb / no-analyze-src-pics / deblock=-3:-3 / no-sao / no-sao-non-deblock / rd=6 / selective-sao=0 / no-early-skip / rskip / no-fast-intra / no-tskip-fast / no-cu-lossless / b-intra / no-splitrd-skip / rdpenalty=0 / psy-rd=2.00 / psy-rdoq=1.00 / no-rd-refine / no-lossless / cbqpoffs=0 / crqpoffs=0 / rc=crf / crf=20.0 / qcomp=0.60 / qpstep=4 / stats-write=0 / stats-read=0 / vbv-maxrate=50000 / vbv-bufsize=50000 / vbv-init=0.9 / crf-max=0.0 / crf-min=0.0 / ipratio=1.40 / pbratio=1.30 / aq-mode=1 / aq-strength=0.80 / no-cutree / zone-count=0 / no-strict-cbr / qg-size=32 / no-rc-grain / qpmax=69 / qpmin=0 / no-const-vbv / sar=1 / overscan=0 / videoformat=5 / range=0 / colorprim=2 / transfer=2 / colormatrix=2 / chromaloc=0 / display-window=0 / cll=0,0 / min-luma=0 / max-luma=1023 / log2-max-poc-lsb=8 / vui-timing-info / vui-hrd-info / slices=1 / no-opt-qp-pps / no-opt-ref-list-length-pps / no-multi-pass-opt-rps / scenecut-bias=0.00 / hist-threshold=0.01 / no-opt-cu-delta-qp / no-aq-motion / no-hdr10 / no-hdr10-opt / no-dhdr10-opt / no-idr-recovery-sei / analysis-reuse-level=0 / analysis-save-reuse-level=0 / analysis-load-reuse-level=0 / scale-factor=0 / refine-intra=0 / refine-inter=0 / refine-mv=1 / refine-ctu-distortion=0 / no-limit-sao / ctu-info=0 / no-lowpass-dct / refine-analysis-type=0 / copy-pic=1 / max-ausize-factor=1.0 / no-dynamic-refine / no-single-sei / no-hevc-aq / no-svt / no-field / qp-adaptation-range=1.00 / no-scenecut-aware-qpconformance-window-offsets / right=0 / bottom=0 / decoder-max-rate=0
Язык : English
Default : Да
Forced : Нет

Аудио #1
Идентификатор : 2
Формат : AC-3
Формат/Информация : Audio Coding 3
Коммерческое название : Dolby Digital
Идентификатор кодека : A_AC3
Продолжительность : 39 м. 53 с.
Вид битрейта : Постоянный
Битрейт : 640 Кбит/сек
Каналы : 6 каналов
Channel layout : L R C LFE Ls Rs
Частота : 48,0 КГц
Частота кадров : 31,250 кадров/сек (1536 SPF)
Метод сжатия : С потерями
Размер потока : 183 Мбайт (9%)
Заголовок : KVK
Язык : Russian
Service kind : Complete Main
Default : Да
Forced : Нет

Аудио #2
Идентификатор : 3
Формат : AC-3
Формат/Информация : Audio Coding 3
Коммерческое название : Dolby Digital
Идентификатор кодека : A_AC3
Продолжительность : 39 м. 53 с.
Вид битрейта : Постоянный
Битрейт : 640 Кбит/сек
Каналы : 6 каналов
Channel layout : L R C LFE Ls Rs
Частота : 48,0 КГц
Частота кадров : 31,250 кадров/сек (1536 SPF)
Метод сжатия : С потерями
Размер потока : 183 Мбайт (9%)
Заголовок : English
Язык : English
Service kind : Complete Main
Default : Нет
Forced : Нет

Меню
00:00:00.000 : en:Глава 01
00:15:10.910 : en:Глава 02
00:23:00.837 : en:Глава 03
00:33:57.660 : en:Глава 04
Загрузка...Cкриншот1 Хэппи / Happy! (2019) [2 сезон] BDRip 1080p [HEVC] 10 bit от OldGamer (RG RIPS CLUB)Загрузка...Cкриншот2 Хэппи / Happy! (2019) [2 сезон] BDRip 1080p [HEVC] 10 bit от OldGamer (RG RIPS CLUB)Загрузка...Cкриншот3 Хэппи / Happy! (2019) [2 сезон] BDRip 1080p [HEVC] 10 bit от OldGamer (RG RIPS CLUB)Загрузка...Cкриншот4 Хэппи / Happy! (2019) [2 сезон] BDRip 1080p [HEVC] 10 bit от OldGamer (RG RIPS CLUB)
Релиз-группа: RIPS CLUB
Сэмпл Торрент🧲 Магнет

Рейтинги КП и IMDB, кнопки "Позвать в чате" и "Спасибо", а также мультитрекерная статистика доступны только зарегистрированным/авторизованным пользователям!

Файлы: 10
  • Хэппи.Happy.S02.2019.BDRip-HEVC.1080p
    • Happy.S02E01.The.War.on.Easter.mkv   1.86 ГБ
    • Happy.S02E02.Tallahassee.mkv   1.6 ГБ
    • Happy.S02E03.Some.Girls.Need.a.Lot.of.Repenting.mkv   1.85 ГБ
    • Happy.S02E04.Blitzkrieg!!!.mkv   2.23 ГБ
    • Happy.S02E05.19.Hours.and.13.Minutes.mkv   1.92 ГБ
    • Happy.S02E06.Pervapalozza.mkv   1.65 ГБ
    • Happy.S02E07.Arlo.and.Marie.mkv   1.93 ГБ
    • Happy.S02E08.A.Friend.of.Death.mkv   1.83 ГБ
    • Happy.S02E09.Five.Chicken.Fingers.and.a.Gun.mkv   1.63 ГБ
    • Happy.S02E10.Resurrection.mkv   2.08 ГБ
Поблагодарили: 3
ancestor87, joker63, StarLord
OldGamer
028100 (10)  18.58 ГБ

Добавление нового комментария

Добавление комментариев доступно только зарегистрированным/авторизованным пользователям.