💬 Мини-чат

hunterА, да, и еще и люди, которые думают, что им все должны.
hunterrodina_45, Это все держится на энтузиазме и доброй воле делающих рипы и раздающих. Поэтому если хочется скачать, нужно ПРОСИТЬ, а не возмущатся. Так как либо много скачавших на раздаче, либо винты по 20ТБ . Однако многовато, как для хобби.
AdminПоздравляем всех девушек с международным женским днем! Берегите честь и достоинство. Именно они делают девушку красивой.
HANNIBALADVOKAT69, это не мой хам ))))
AdminПри том, что для нас всех это пока что хобби.
AdminADVOKAT69, некоторые думают, будто своими скачиваниями приносят нам пользу, вот и возмущаются.
ADVOKAT69и здесь хамы появились!с того сайта что-ли?
AdminПоддерживайте раздачи, раз не хотите, чтобы они были мертвы.
Adminrodina_45, зачем нам удалять? Вдруг оживут.
rodina_45какого хера половина torrent просто мертвы удалите их
rodina_45Раздайте, пожалуйста, Царевна-лягушка (1954) BDRip 1080p [HEVC] 10 bit от ADVOKAT69
joker63😪
HANNIBALС ГЛУБОЧАЙШИМИ СКОРБЬЮ И СОЖАЛЕНИЕМ СООБЩАЕМ ВАМ, ЧТО СЕГОДНЯ ОТ ОСЛОЖНЕНИЙ ВИРУСНОЙ ПНЕВМОНИИ, РАЗВИВШЕЙСЯ НА ФОНЕ ТЯЖЁЛОЙ ХРОНИЧЕСКОЙ ОБСТРУКТИВНОЙ БОЛЕЗНИ ЛЁГКИХ, УМЕР ИЗВЕСТНЫЙ АВТОР ВЫСОКО ЦЕНИМЫХ ИГРОВЫХ РЕПАКОВ, ИЗВЕСТНЫЙ В СЕТИ КАК XATAB.. МЫ ВСЕГДА БУДЕМ ПОМНИТЬ ЕГО И ЦЕНИТЬ ЕГО ТРУД.
StarLordAdmin, понял :)
AdminStarLord, можешь оставить. потом переоформишь.
AdminStarLord, либо переоформить на другой рип, либо залить левый торрент и сразу же удалить
StarLordAdmin, сломал систему :)) Как удалить один из анонсов?
XuMuKСообщение удалено (удалил: XuMuK)
Adminjustmkr, надо смотреть трассировку по IP
Adminjustmkr, возможно обрыв в пути.
  • ШУЗЕР
Отправка сообщений доступна только зарегистрированным/авторизованным пользователям.
Онлайн (за 10 мин.): 1

Мир Дикого Запада / Westworld (2020) [3 сезон] BDRip 1080p [HEVC] 10 bit от OldGamer (RG RIPS CLUB)

HEVC
10 bit
Обложка Мир Дикого Запада / Westworld (2020) [3 сезон] BDRip 1080p [HEVC] 10 bit от OldGamer (RG RIPS CLUB) Год: 2020
Страна: США
Студия: Warner Bros. Television, Bad Robot Productions
Жанр: Фантастика, Драма, Детектив
Продолжительность: 08:13:07

Режиссер: Ричард Дж. Льюис, Джонатан Нолан, Фред Туа
В ролях: Тэнди Ньютон, Джеффри Райт, Эд Харрис, Эван Рэйчел Вуд, Тесса Томпсон, Джеймс Марсден, Люк Хемсворт, Анджела Сарафян, Энтони Хопкинс, Саймон Куотерман

Описание: В футуристическом парке развлечений «Мир Дикого Запада» специально сконструированные андроиды выполняют любые прихоти посетителей, чтобы те чувствовали безнаказанность и полную свободу действий. Если робота убили - не беда, техники его починят, сотрут память и снова поставят в строй, навстречу новому дню и новым людским прихотям. Но оказывается, что далеко не все роботы теряют воспоминания.


Исходник: Blu-Ray Remux 1080p (BTN)
Видео: 1920x1080 (16:9), 4848-9926 Кбит/сек, HEVC (Main10@L.4.1@High)
Аудио1: AC3, 6 ch, 384 Kbps - РусскийРусский, Дублированный (Кравец-Рекордз по заказу Amedia)
Аудио2: AC3, 6 ch, 384 Kbps - РусскийРусский, Многоголосый (NewStudio, без цензуры)
Аудио3: AC3, 6 ch, 384 Kbps - РусскийРусский, Многоголосый (AlexFilm)
Аудио4: AC3, 6 ch, 448 Kbps - EnglishEnglish, Original
Субтитры: Русские форсированные и полные (SRT), English full (SRT)

Как за пару секунд удалить ненужные аудиодорожки и субтитры (Внимание! После удаления вы не сможете поддержать раздачу)

Лог (x265 info)
x265 [info]: frame I: 374, Avg QP:17.86 kb/s: 14692.93
x265 [info]: frame P: 11529, Avg QP:19.11 kb/s: 9177.80
x265 [info]: frame B: 71671, Avg QP:21.41 kb/s: 4309.04
x265 [info]: Weighted P-Frames: Y:5.2% UV:4.0%
x265 [info]: Weighted B-Frames: Y:4.6% UV:3.3%
x265 [info]: consecutive B-frames: 1.5% 1.5% 4.4% 13.4% 9.3% 28.8% 7.6% 8.3% 4.7% 3.0% 3.5% 9.5% 1.1% 0.5% 1.1% 0.7% 1.1%
x265 [info]: encoded 83574 frames in 59663.87s (1.40 fps), 5027.16 kb/s, Avg QP:21.07
Медиаинфо
Общее
Уникальный идентификатор : 291415262190520774330947958006434403245 (0xDB3C89B86DE823BB957A0CA4622A93AD)
Полное имя : \\..\Мир.Дикого.Запада.Westworld.S03.2020.BDRip-HEVC.1080p\Westworld.S03E03.The.Absence.of.Field.mkv
Формат : Matroska
Версия формата : Version 4
Размер файла : 2,70 Гбайт
Продолжительность : 58 м. 42 с.
Общий поток : 6 574 Кбит/сек
Название фильма : Westworld.S03E03.The.Absence.of.Field
Дата кодирования : UTC 2020-11-23 17:34:34
Программа кодирования : mkvmerge v51.0.0 ('I Wish') 64-bit
Библиотека кодирования : libebml v1.4.0 + libmatroska v1.6.2
Обложка : Yes
Attachments : small_cover.jpg / small_cover_land.jpg / cover.jpg / cover_land.jpg

Видео
Идентификатор : 1
Формат : HEVC
Формат/Информация : High Efficiency Video Coding
Профиль формата : Main 10@L4.1@High
Идентификатор кодека : V_MPEGH/ISO/HEVC
Продолжительность : 58 м. 5 с.
Битрейт : 5 028 Кбит/сек
Ширина : 1 920 пикселей
Высота : 1 080 пикселей
Соотношение сторон : 16:9
Режим частоты кадров : Постоянный
Частота кадров : 23,976 (24000/1001) кадра/сек
Цветовое пространство : YUV
Субдискретизация насыщенности : 4:2:0
Битовая глубина : 10 бит
Бит/(Пиксели*Кадры) : 0.101
Размер потока : 2,04 Гбайт (76%)
Заголовок : Westworld.S03E03.The.Absence.of.Field / Rip by OldGamer
Библиотека кодирования : x265 3.4+4-g3ae3d7116:[Windows][GCC 10.2.0][64 bit] 10bit
Настройки программы : cpuid=1111039 / frame-threads=3 / numa-pools=8 / wpp / no-pmode / no-pme / no-psnr / no-ssim / log-level=2 / input-csp=1 / input-res=1920x1080 / interlace=0 / total-frames=83574 / level-idc=41 / high-tier=1 / uhd-bd=0 / ref=5 / no-allow-non-conformance / no-repeat-headers / annexb / no-aud / no-hrd / info / hash=0 / no-temporal-layers / open-gop / min-keyint=23 / keyint=240 / gop-lookahead=0 / bframes=16 / b-adapt=2 / b-pyramid / bframe-bias=0 / rc-lookahead=40 / lookahead-slices=0 / scenecut=40 / hist-scenecut=0 / radl=0 / no-splice / no-intra-refresh / ctu=64 / min-cu-size=8 / rect / amp / max-tu-size=32 / tu-inter-depth=4 / tu-intra-depth=4 / limit-tu=1 / rdoq-level=2 / dynamic-rd=0.00 / no-ssim-rd / signhide / no-tskip / nr-intra=0 / nr-inter=0 / no-constrained-intra / no-strong-intra-smoothing / max-merge=5 / limit-refs=3 / no-limit-modes / me=3 / subme=7 / merange=57 / temporal-mvp / no-frame-dup / no-hme / weightp / weightb / no-analyze-src-pics / deblock=-3:-3 / no-sao / no-sao-non-deblock / rd=6 / selective-sao=0 / no-early-skip / rskip / no-fast-intra / no-tskip-fast / no-cu-lossless / b-intra / no-splitrd-skip / rdpenalty=0 / psy-rd=2.00 / psy-rdoq=1.00 / no-rd-refine / no-lossless / cbqpoffs=0 / crqpoffs=0 / rc=crf / crf=20.9 / qcomp=0.60 / qpstep=4 / stats-write=0 / stats-read=0 / vbv-maxrate=50000 / vbv-bufsize=50000 / vbv-init=0.9 / crf-max=0.0 / crf-min=0.0 / ipratio=1.40 / pbratio=1.30 / aq-mode=4 / aq-strength=0.80 / no-cutree / zone-count=1 / zones: / start-frame=81878 / end-frame=83561 / qp=36 / no-strict-cbr / qg-size=32 / no-rc-grain / qpmax=69 / qpmin=0 / no-const-vbv / sar=1 / overscan=0 / videoformat=5 / range=0 / colorprim=2 / transfer=2 / colormatrix=2 / chromaloc=0 / display-window=0 / cll=0,0 / min-luma=0 / max-luma=1023 / log2-max-poc-lsb=8 / vui-timing-info / vui-hrd-info / slices=1 / no-opt-qp-pps / no-opt-ref-list-length-pps / no-multi-pass-opt-rps / scenecut-bias=0.00 / hist-threshold=0.01 / no-opt-cu-delta-qp / no-aq-motion / no-hdr10 / no-hdr10-opt / no-dhdr10-opt / no-idr-recovery-sei / analysis-reuse-level=0 / analysis-save-reuse-level=0 / analysis-load-reuse-level=0 / scale-factor=0 / refine-intra=0 / refine-inter=0 / refine-mv=1 / refine-ctu-distortion=0 / no-limit-sao / ctu-info=0 / no-lowpass-dct / refine-analysis-type=0 / copy-pic=1 / max-ausize-factor=1.0 / no-dynamic-refine / no-single-sei / no-hevc-aq / no-svt / no-field / qp-adaptation-range=1.00 / no-scenecut-aware-qpconformance-window-offsets / right=0 / bottom=0 / decoder-max-rate=0
Язык : English
Default : Да
Forced : Нет

Аудио #1
Идентификатор : 2
Формат : AC-3
Формат/Информация : Audio Coding 3
Коммерческое название : Dolby Digital
Идентификатор кодека : A_AC3
Продолжительность : 58 м. 42 с.
Вид битрейта : Постоянный
Битрейт : 384 Кбит/сек
Каналы : 6 каналов
Channel layout : L R C LFE Ls Rs
Частота : 48,0 КГц
Частота кадров : 31,250 кадров/сек (1536 SPF)
Метод сжатия : С потерями
Задержка видео : 20 мс.
Размер потока : 161 Мбайт (6%)
Заголовок : Dub (Kravec)
Язык : Russian
Service kind : Complete Main
Default : Да
Forced : Нет

Аудио #2
Идентификатор : 3
Формат : AC-3
Формат/Информация : Audio Coding 3
Коммерческое название : Dolby Digital
Идентификатор кодека : A_AC3
Продолжительность : 58 м. 42 с.
Вид битрейта : Постоянный
Битрейт : 384 Кбит/сек
Каналы : 6 каналов
Channel layout : L R C LFE Ls Rs
Частота : 48,0 КГц
Частота кадров : 31,250 кадров/сек (1536 SPF)
Метод сжатия : С потерями
Задержка видео : 20 мс.
Размер потока : 161 Мбайт (6%)
Заголовок : NewStudio
Язык : Russian
Service kind : Complete Main
Default : Нет
Forced : Нет

Аудио #3
Идентификатор : 4
Формат : AC-3
Формат/Информация : Audio Coding 3
Коммерческое название : Dolby Digital
Идентификатор кодека : A_AC3
Продолжительность : 58 м. 42 с.
Вид битрейта : Постоянный
Битрейт : 384 Кбит/сек
Каналы : 6 каналов
Channel layout : L R C LFE Ls Rs
Частота : 48,0 КГц
Частота кадров : 31,250 кадров/сек (1536 SPF)
Метод сжатия : С потерями
Задержка видео : 20 мс.
Размер потока : 161 Мбайт (6%)
Заголовок : AlexFilm
Язык : Russian
Service kind : Complete Main
Default : Нет
Forced : Нет

Аудио #4
Идентификатор : 5
ID in the original source medium : 4352 (0x1100)
Формат : AC-3
Формат/Информация : Audio Coding 3
Коммерческое название : Dolby Digital
Идентификатор кодека : A_AC3
Продолжительность : 58 м. 5 с.
Вид битрейта : Постоянный
Битрейт : 448 Кбит/сек
Каналы : 6 каналов
Channel layout : L R C LFE Ls Rs
Частота : 48,0 КГц
Частота кадров : 31,250 кадров/сек (1536 SPF)
Метод сжатия : С потерями
Размер потока : 186 Мбайт (7%)
Заголовок : AC-3 Dolby Surround EX
Язык : English
Service kind : Complete Main
Default : Нет
Forced : Нет
Носитель оригинала : Blu-ray

Текст #1
Идентификатор : 6
Формат : UTF-8
Идентификатор кодека : S_TEXT/UTF8
Идентификатор кодека/Информация : UTF-8 Plain Text
Продолжительность : 48 м. 46 с.
Битрейт : 1 бит/сек
Count of elements : 10
Размер потока : 663 байт (0%)
Заголовок : Forced
Язык : Russian
Default : Нет
Forced : Нет

Текст #2
Идентификатор : 7
Формат : UTF-8
Идентификатор кодека : S_TEXT/UTF8
Идентификатор кодека/Информация : UTF-8 Plain Text
Продолжительность : 56 м. 27 с.
Битрейт : 68 бит/сек
Count of elements : 536
Размер потока : 28,2 Кбайт (0%)
Язык : Russian
Default : Нет
Forced : Нет

Текст #3
Идентификатор : 8
Формат : UTF-8
Идентификатор кодека : S_TEXT/UTF8
Идентификатор кодека/Информация : UTF-8 Plain Text
Продолжительность : 57 м. 52 с.
Битрейт : 45 бит/сек
Count of elements : 651
Размер потока : 19,1 Кбайт (0%)
Заголовок : English-SRT
Язык : English
Default : Нет
Forced : Нет

Меню
00:00:00.000 : en:Chapter 1
00:04:02.868 : en:Chapter 2
00:12:55.608 : en:Chapter 3
00:21:53.187 : en:Chapter 4
00:28:40.260 : en:Chapter 5
00:35:17.949 : en:Chapter 6
00:40:50.990 : en:Chapter 7
00:50:12.718 : en:Chapter 8
00:56:57.497 : en:Chapter 9
Загрузка...Cкриншот1 Мир Дикого Запада / Westworld (2020) [3 сезон] BDRip 1080p [HEVC] 10 bit от OldGamer (RG RIPS CLUB)Загрузка...Cкриншот2 Мир Дикого Запада / Westworld (2020) [3 сезон] BDRip 1080p [HEVC] 10 bit от OldGamer (RG RIPS CLUB)Загрузка...Cкриншот3 Мир Дикого Запада / Westworld (2020) [3 сезон] BDRip 1080p [HEVC] 10 bit от OldGamer (RG RIPS CLUB)Загрузка...Cкриншот4 Мир Дикого Запада / Westworld (2020) [3 сезон] BDRip 1080p [HEVC] 10 bit от OldGamer (RG RIPS CLUB)
Релиз-группа: RIPS CLUB
Сэмпл Торрент🧲 Магнет

Рейтинги КП и IMDB, кнопки "Позвать в чате" и "Спасибо", а также мультитрекерная статистика сидов и пиров доступны только зарегистрированным/авторизованным пользователям!

Файлы: 8
  • Мир.Дикого.Запада.Westworld.S03.2020.BDRip-HEVC.1080p
    • Westworld.S03E01.Parce.Domine.mkv   3.1 ГБ
    • Westworld.S03E02.The.Winter.Line.mkv   3.18 ГБ
    • Westworld.S03E03.The.Absence.of.Field.mkv   2.7 ГБ
    • Westworld.S03E04.The.Mother.of.Exiles.mkv   2.69 ГБ
    • Westworld.S03E05.Genre.mkv   4.14 ГБ
    • Westworld.S03E06.Decoherence.mkv   4.67 ГБ
    • Westworld.S03E07.Passed.Pawn.mkv   4.02 ГБ
    • Westworld.S03E08.Crisis.Theory.mkv   5.03 ГБ
Поблагодарили: 8
A1eksandr1, Andrey_alex, Brooklyn, bs158250, GIS88, InSpector, ivan_1965, Zorg
OldGamer
02650 (8)  29.52 ГБ

Добавление нового комментария

Добавление комментариев доступно только зарегистрированным/авторизованным пользователям.