💬 Мини-чат

OldGamerну и акустические излучатели собрать хорошие, типа Penaudio Legato Signature или похожие, тут надо тщательно собирать систему для прослушивания
OldGamerне помешает ещё посетить отоларинголога для промывки слухового аппарата от серных пробок специализированным сертифицированным раствором, это (промывка) имеет немаловажное значение
OldGamer😆🤐🤐
OldGamerи всё же лучше hi-end, с подключением кабелями типа Analysis-Plus Oval 9 из бескислородной меди и с их предварительным прогревом системой типа Nordost Vidar, иначе всё теряет смысл
XuMuKManson_Fan, не надо hi-end акустики, достаточно hi-fi. "Кристольность" на высоких частотах другая, в DTS кажется более "живым" звук. Но самая большая разница, когда сравниваешь АС3 с каким-нибудь DTS-HD MA
IRITРаздайте, пожалуйста, Байки из склепа: Демон ночи / Tales from the Crypt: Demon Knight (1995) BDRip 1080p [HEVC] 10 bit от druidblack
OldGamerManson_Fan, у меня нет hi-end акустики, поэтому не слушал, не знаю, может и есть разница. За других говорить не буду. В любом случае, продвинутым слухачам будет несложно найти, скачать и прикрепить дорожки требуемого им качества.
mafo2Manson_Fan, не все телевизоры поддерживают DTS. например, мой через встроенный плеер его не воспроизводит. можно конечно смотреть через ПК, но порой хочется и через ТВ.
Manson_FanOldGamer, "Скажите зачем релизёры звук DTS 768 kbps переделывают в AC3 640 kbps" Интересно, а разницу в качестве в фильмах кому то удавалось услышать?😕 мне вот нет
Manson_Fanникто еще не сравнивал HEVC и новый AV1?
IRITРаздайте, пожалуйста, Маньяк-полицейский 3: Знак молчания / Maniac Cop 3: Badge of Silence (1993) BDRip 1080p [HEVC] 10 bit от HANNIBAL
Spartanec1308С Днём Великой Победы!
BrooklynВсех с праздником! С Днем Великой Победы! Ура-Ура-Урааааааа
BrooklynADVOKAT69, Спасибо большое!
ADVOKAT69Операция «Ы» и другие приключения Шурика (1965) раздаю
mafo2С Днем Победы!
joker63Поздравляю всех с Днем Победы!
ADVOKAT69Admin, Спасибо деду за победу!Тебе за поздравление!
AdminADVOKAT69, Дедам спасибо.
ADVOKAT69Admin, спасибо большое!✋
  • Rezident
Отправка сообщений доступна только зарегистрированным/авторизованным пользователям.
Онлайн (за 10 мин.): 1

Последний бойскаут / The Last Boy Scout (1991) BDRip 1080p [HEVC] 10 bit от OldGamer (RG RIPS CLUB)

HEVC
10 bit
Обложка Последний бойскаут / The Last Boy Scout (1991) BDRip 1080p [HEVC] 10 bit от OldGamer (RG RIPS CLUB) Год: 1991
Страна: США
Студия: Geffen Pictures, Silver Pictures, Warner Bros. Pictures Co.
Жанр: Боевик, Триллер, Комедия, Криминал
Продолжительность: 01:45:25

Режиссер: Тони Скотт
В ролях: Брюс Уиллис, Дэймон Уайанс, Челси Филд, Ноубл Уиллингэм, Тейлор Негрон, Даниэль Харрис, Холли Берри, Брюс МакГилл, Баджа Джола, Ким Коутс

Описание: Джо был американским героем - человеком, спасшим президента, а теперь он частный детектив, проснувшийся после очередной попойки в своей старенькой машине с больной головой и семейными проблемами. Весьма кстати подворачивается непыльная работёнка - охрана звезды захудалого стриптиз-клуба. Однако события выходят из-под контроля - сначала убивают его друга, а потом и стриптизёршу, которую Джо должен охранять. Её парень Джимми Дикс - футболист, списанный из-за наркотиков, не меньше Джо хочет разобраться в этом деле, тем более что прямо перед смертью она обещала ему подарок ко дню рождения - возвращение в большой спорт.


Исходник: Blu-Ray Remux 1080p (HDclub)
Видео: 1920x800 (2.40:1), 7944 Кбит/сек, HEVC (Main10@L.4.1@High)
Аудио1: AC3, 6 ch, 640 Kbps - РусскийРусский, Дублированный (Мост-Видео)
Аудио2: AC3, 2 ch, 192 Kbps - РусскийРусский, Дублированный (Варус Видео)
Аудио3: AC3, 2 ch, 192 Kbps - РусскийРусский, Многоголосый (НТВ)
Аудио4: AC3, 6 ch, 640 Kbps - РусскийРусский, Авторский (Юрий Сербин)
Аудио5: AC3, 6 ch, 640 Kbps - РусскийРусский, Авторский (Михаил Яроцкий)
Аудио6: AC3, 6 ch, 640 Kbps - РусскийРусский, Авторский (Василий Горчаков)
Аудио7: AC3, 6 ch, 640 Kbps - РусскийРусский, Авторский (Андрей Гаврилов) ранний
Аудио8: AC3, 6 ch, 448 Kbps - РусскийРусский, Авторский (Андрей Гаврилов) поздний
Аудио9: AC3, 2 ch, 192 Kbps - РусскийРусский, Авторский (Виктор Махонько)
Аудио10: AC3, 6 ch, 448 Kbps - УкраинскийУкраинский, Многоголосый (K1)
Аудио11: AC3, 6 ch, 448 Kbps - УкраинскийУкраинский, Двухголосый (1+1)
Аудио12: AC3, 6 ch, 640 Kbps - EnglishEnglish, Original
Субтитры: Русские полные (SRT), English full (SRT)

Как за пару секунд удалить ненужные аудиодорожки и субтитры (Внимание! После удаления вы не сможете поддержать раздачу)

Лог (x265 info)
x265 [info]: frame I: 652, Avg QP:16.19 kb/s: 18517.32
x265 [info]: frame P: 34247, Avg QP:17.60 kb/s: 14886.79
x265 [info]: frame B: 116748, Avg QP:19.88 kb/s: 5847.17
x265 [info]: Weighted P-Frames: Y:10.4% UV:8.1%
x265 [info]: Weighted B-Frames: Y:8.2% UV:5.8%
x265 [info]: consecutive B-frames: 4.6% 5.9% 7.1% 46.9% 9.0% 22.9% 1.9% 1.4% 0.1% 0.1% 0.0% 0.0% 0.0%
x265 [info]: encoded 151647 frames in 134066.48s (1.13 fps), 7943.10 kb/s, Avg QP:19.35
Медиаинфо
Общее
Уникальный идентификатор : 208823804500585996136675776702976848934 (0x9D1A007733506BF4C67EDC6CD50B7426)
Полное имя : \\.\Последний.бойскаут.The.Last.Boy.Scout.1991.BDRip-HEVC.1080p.mkv
Формат : Matroska
Версия формата : Version 4
Размер файла : 10,1 Гбайт
Продолжительность : 1 ч. 45 м.
Общий поток : 13,7 Мбит/сек
Название фильма : Последний.бойскаут.The.Last.Boy.Scout.1991.BDRip-HEVC.1080p
Дата кодирования : UTC 2020-12-11 03:31:57
Программа кодирования : mkvmerge v51.0.0 ('I Wish') 64-bit
Библиотека кодирования : libebml v1.4.0 + libmatroska v1.6.2

Видео
Идентификатор : 1
Формат : HEVC
Формат/Информация : High Efficiency Video Coding
Профиль формата : Main 10@L4.1@High
Идентификатор кодека : V_MPEGH/ISO/HEVC
Продолжительность : 1 ч. 45 м.
Битрейт : 7 944 Кбит/сек
Ширина : 1 920 пикселей
Высота : 800 пикселей
Соотношение сторон : 2,40:1
Режим частоты кадров : Постоянный
Частота кадров : 23,976 (24000/1001) кадра/сек
Цветовое пространство : YUV
Субдискретизация насыщенности : 4:2:0
Битовая глубина : 10 бит
Бит/(Пиксели*Кадры) : 0.216
Размер потока : 5,85 Гбайт (58%)
Заголовок : The Last Boy Scout / Rip by OldGamer
Библиотека кодирования : x265 3.4+4-g3ae3d7116:[Windows][GCC 10.2.0][64 bit] 10bit
Настройки программы : cpuid=1111039 / frame-threads=3 / numa-pools=8 / wpp / no-pmode / no-pme / no-psnr / no-ssim / log-level=2 / input-csp=1 / input-res=1920x800 / interlace=0 / total-frames=151647 / level-idc=41 / high-tier=1 / uhd-bd=0 / ref=5 / no-allow-non-conformance / no-repeat-headers / annexb / no-aud / no-hrd / info / hash=0 / no-temporal-layers / open-gop / min-keyint=23 / keyint=240 / gop-lookahead=0 / bframes=12 / b-adapt=2 / b-pyramid / bframe-bias=0 / rc-lookahead=40 / lookahead-slices=0 / scenecut=40 / hist-scenecut=0 / radl=0 / no-splice / no-intra-refresh / ctu=64 / min-cu-size=8 / rect / amp / max-tu-size=32 / tu-inter-depth=4 / tu-intra-depth=4 / limit-tu=1 / rdoq-level=2 / dynamic-rd=0.00 / no-ssim-rd / signhide / no-tskip / nr-intra=0 / nr-inter=0 / no-constrained-intra / no-strong-intra-smoothing / max-merge=5 / limit-refs=3 / no-limit-modes / me=3 / subme=7 / merange=57 / temporal-mvp / no-frame-dup / no-hme / weightp / weightb / no-analyze-src-pics / deblock=-3:-3 / no-sao / no-sao-non-deblock / rd=6 / selective-sao=0 / no-early-skip / rskip / no-fast-intra / no-tskip-fast / no-cu-lossless / b-intra / no-splitrd-skip / rdpenalty=0 / psy-rd=2.00 / psy-rdoq=1.00 / no-rd-refine / no-lossless / cbqpoffs=0 / crqpoffs=0 / rc=crf / crf=18.9 / qcomp=0.60 / qpstep=4 / stats-write=0 / stats-read=0 / vbv-maxrate=50000 / vbv-bufsize=50000 / vbv-init=0.9 / crf-max=0.0 / crf-min=0.0 / ipratio=1.40 / pbratio=1.30 / aq-mode=1 / aq-strength=1.00 / no-cutree / zone-count=1 / zones: / start-frame=146052 / end-frame=151635 / qp=36 / no-strict-cbr / qg-size=32 / no-rc-grain / qpmax=69 / qpmin=0 / no-const-vbv / sar=1 / overscan=0 / videoformat=5 / range=0 / colorprim=2 / transfer=2 / colormatrix=2 / chromaloc=0 / display-window=0 / cll=0,0 / min-luma=0 / max-luma=1023 / log2-max-poc-lsb=8 / vui-timing-info / vui-hrd-info / slices=1 / no-opt-qp-pps / no-opt-ref-list-length-pps / no-multi-pass-opt-rps / scenecut-bias=0.00 / hist-threshold=0.01 / no-opt-cu-delta-qp / no-aq-motion / no-hdr10 / no-hdr10-opt / no-dhdr10-opt / no-idr-recovery-sei / analysis-reuse-level=0 / analysis-save-reuse-level=0 / analysis-load-reuse-level=0 / scale-factor=0 / refine-intra=0 / refine-inter=0 / refine-mv=1 / refine-ctu-distortion=0 / no-limit-sao / ctu-info=0 / no-lowpass-dct / refine-analysis-type=0 / copy-pic=1 / max-ausize-factor=1.0 / no-dynamic-refine / no-single-sei / no-hevc-aq / no-svt / no-field / qp-adaptation-range=1.00 / no-scenecut-aware-qpconformance-window-offsets / right=0 / bottom=0 / decoder-max-rate=0
Язык : English
Default : Да
Forced : Нет

Аудио #1
Идентификатор : 2
Формат : AC-3
Формат/Информация : Audio Coding 3
Коммерческое название : Dolby Digital
Идентификатор кодека : A_AC3
Продолжительность : 1 ч. 45 м.
Вид битрейта : Постоянный
Битрейт : 640 Кбит/сек
Каналы : 6 каналов
Channel layout : L R C LFE Ls Rs
Частота : 48,0 КГц
Частота кадров : 31,250 кадров/сек (1536 SPF)
Метод сжатия : С потерями
Размер потока : 483 Мбайт (5%)
Заголовок : Dub (Мост-Видео)
Язык : Russian
Service kind : Complete Main
Default : Да
Forced : Нет

Аудио #2
Идентификатор : 3
Формат : AC-3
Формат/Информация : Audio Coding 3
Коммерческое название : Dolby Digital
Идентификатор кодека : A_AC3
Продолжительность : 1 ч. 45 м.
Вид битрейта : Постоянный
Битрейт : 192 Кбит/сек
Каналы : 2 канала
Channel layout : L R
Частота : 48,0 КГц
Частота кадров : 31,250 кадров/сек (1536 SPF)
Метод сжатия : С потерями
Размер потока : 145 Мбайт (1%)
Заголовок : Dub (Варус Видео)
Язык : Russian
Service kind : Complete Main
Default : Нет
Forced : Нет

Аудио #3
Идентификатор : 4
Формат : AC-3
Формат/Информация : Audio Coding 3
Коммерческое название : Dolby Digital
Идентификатор кодека : A_AC3
Продолжительность : 1 ч. 45 м.
Вид битрейта : Постоянный
Битрейт : 192 Кбит/сек
Каналы : 2 канала
Channel layout : L R
Частота : 48,0 КГц
Частота кадров : 31,250 кадров/сек (1536 SPF)
Метод сжатия : С потерями
Размер потока : 145 Мбайт (1%)
Заголовок : MVO (НТВ)
Язык : Russian
Service kind : Complete Main
Default : Нет
Forced : Нет

Аудио #4
Идентификатор : 5
Формат : AC-3
Формат/Информация : Audio Coding 3
Коммерческое название : Dolby Digital
Идентификатор кодека : A_AC3
Продолжительность : 1 ч. 45 м.
Вид битрейта : Постоянный
Битрейт : 640 Кбит/сек
Каналы : 6 каналов
Channel layout : L R C LFE Ls Rs
Частота : 48,0 КГц
Частота кадров : 31,250 кадров/сек (1536 SPF)
Метод сжатия : С потерями
Размер потока : 483 Мбайт (5%)
Заголовок : AVO (Юрий Сербин)
Язык : Russian
Service kind : Complete Main
Default : Нет
Forced : Нет

Аудио #5
Идентификатор : 6
Формат : AC-3
Формат/Информация : Audio Coding 3
Коммерческое название : Dolby Digital
Идентификатор кодека : A_AC3
Продолжительность : 1 ч. 45 м.
Вид битрейта : Постоянный
Битрейт : 640 Кбит/сек
Каналы : 6 каналов
Channel layout : L R C LFE Ls Rs
Частота : 48,0 КГц
Частота кадров : 31,250 кадров/сек (1536 SPF)
Метод сжатия : С потерями
Размер потока : 483 Мбайт (5%)
Заголовок : AVO (Михаил Яроцкий)
Язык : Russian
Service kind : Complete Main
Default : Нет
Forced : Нет

Аудио #6
Идентификатор : 7
Формат : AC-3
Формат/Информация : Audio Coding 3
Коммерческое название : Dolby Digital
Идентификатор кодека : A_AC3
Продолжительность : 1 ч. 45 м.
Вид битрейта : Постоянный
Битрейт : 640 Кбит/сек
Каналы : 6 каналов
Channel layout : L R C LFE Ls Rs
Частота : 48,0 КГц
Частота кадров : 31,250 кадров/сек (1536 SPF)
Метод сжатия : С потерями
Размер потока : 483 Мбайт (5%)
Заголовок : AVO (Василий Горчаков)
Язык : Russian
Service kind : Complete Main
Default : Нет
Forced : Нет

Аудио #7
Идентификатор : 8
Формат : AC-3
Формат/Информация : Audio Coding 3
Коммерческое название : Dolby Digital
Идентификатор кодека : A_AC3
Продолжительность : 1 ч. 45 м.
Вид битрейта : Постоянный
Битрейт : 640 Кбит/сек
Каналы : 6 каналов
Channel layout : L R C LFE Ls Rs
Частота : 48,0 КГц
Частота кадров : 31,250 кадров/сек (1536 SPF)
Метод сжатия : С потерями
Размер потока : 483 Мбайт (5%)
Заголовок : AVO (Андрей Гаврилов) ранний
Язык : Russian
Service kind : Complete Main
Default : Нет
Forced : Нет

Аудио #8
Идентификатор : 9
Формат : AC-3
Формат/Информация : Audio Coding 3
Коммерческое название : Dolby Digital
Идентификатор кодека : A_AC3
Продолжительность : 1 ч. 45 м.
Вид битрейта : Постоянный
Битрейт : 448 Кбит/сек
Каналы : 6 каналов
Channel layout : L R C LFE Ls Rs
Частота : 48,0 КГц
Частота кадров : 31,250 кадров/сек (1536 SPF)
Метод сжатия : С потерями
Размер потока : 338 Мбайт (3%)
Заголовок : AVO (Андрей Гаврилов) поздний
Язык : Russian
Service kind : Complete Main
Default : Нет
Forced : Нет

Аудио #9
Идентификатор : 10
Формат : AC-3
Формат/Информация : Audio Coding 3
Коммерческое название : Dolby Digital
Идентификатор кодека : A_AC3
Продолжительность : 1 ч. 45 м.
Вид битрейта : Постоянный
Битрейт : 192 Кбит/сек
Каналы : 2 канала
Channel layout : L R
Частота : 48,0 КГц
Частота кадров : 31,250 кадров/сек (1536 SPF)
Метод сжатия : С потерями
Размер потока : 145 Мбайт (1%)
Заголовок : AVO (Виктор Махонько)
Язык : Russian
Service kind : Complete Main
Default : Нет
Forced : Нет

Аудио #10
Идентификатор : 11
Формат : AC-3
Формат/Информация : Audio Coding 3
Коммерческое название : Dolby Digital
Идентификатор кодека : A_AC3
Продолжительность : 1 ч. 45 м.
Вид битрейта : Постоянный
Битрейт : 448 Кбит/сек
Каналы : 6 каналов
Channel layout : L R C LFE Ls Rs
Частота : 48,0 КГц
Частота кадров : 31,250 кадров/сек (1536 SPF)
Метод сжатия : С потерями
Размер потока : 338 Мбайт (3%)
Заголовок : MVO (K1)
Язык : Ukrainian
Service kind : Complete Main
Default : Нет
Forced : Нет

Аудио #11
Идентификатор : 12
Формат : AC-3
Формат/Информация : Audio Coding 3
Коммерческое название : Dolby Digital
Идентификатор кодека : A_AC3
Продолжительность : 1 ч. 45 м.
Вид битрейта : Постоянный
Битрейт : 448 Кбит/сек
Каналы : 6 каналов
Channel layout : L R C LFE Ls Rs
Частота : 48,0 КГц
Частота кадров : 31,250 кадров/сек (1536 SPF)
Метод сжатия : С потерями
Размер потока : 338 Мбайт (3%)
Заголовок : DVO (1+1)
Язык : Ukrainian
Service kind : Complete Main
Default : Нет
Forced : Нет

Аудио #12
Идентификатор : 13
Формат : AC-3
Формат/Информация : Audio Coding 3
Коммерческое название : Dolby Digital
Идентификатор кодека : A_AC3
Продолжительность : 1 ч. 45 м.
Вид битрейта : Постоянный
Битрейт : 640 Кбит/сек
Каналы : 6 каналов
Channel layout : L R C LFE Ls Rs
Частота : 48,0 КГц
Частота кадров : 31,250 кадров/сек (1536 SPF)
Метод сжатия : С потерями
Размер потока : 483 Мбайт (5%)
Язык : English
Service kind : Complete Main
Default : Нет
Forced : Нет

Текст #1
Идентификатор : 14
Формат : UTF-8
Идентификатор кодека : S_TEXT/UTF8
Идентификатор кодека/Информация : UTF-8 Plain Text
Продолжительность : 1 ч. 40 м.
Битрейт : 100 бит/сек
Count of elements : 1470
Размер потока : 74,6 Кбайт (0%)
Заголовок : #1
Язык : Russian
Default : Нет
Forced : Нет

Текст #2
Идентификатор : 15
Формат : UTF-8
Идентификатор кодека : S_TEXT/UTF8
Идентификатор кодека/Информация : UTF-8 Plain Text
Продолжительность : 1 ч. 40 м.
Битрейт : 92 бит/сек
Count of elements : 1277
Размер потока : 68,2 Кбайт (0%)
Заголовок : #2
Язык : Russian
Default : Нет
Forced : Нет

Текст #3
Идентификатор : 16
Формат : UTF-8
Идентификатор кодека : S_TEXT/UTF8
Идентификатор кодека/Информация : UTF-8 Plain Text
Продолжительность : 1 ч. 40 м.
Битрейт : 88 бит/сек
Count of elements : 1268
Размер потока : 65,1 Кбайт (0%)
Заголовок : #3
Язык : Russian
Default : Нет
Forced : Нет

Текст #4
Идентификатор : 17
Формат : UTF-8
Идентификатор кодека : S_TEXT/UTF8
Идентификатор кодека/Информация : UTF-8 Plain Text
Продолжительность : 1 ч. 42 м.
Битрейт : 66 бит/сек
Count of elements : 1395
Размер потока : 49,9 Кбайт (0%)
Язык : English
Default : Нет
Forced : Нет

Меню
00:00:00.000 : :Chapter 01
00:03:00.471 : :Chapter 02
00:07:28.865 : :Chapter 03
00:10:59.533 : :Chapter 04
00:12:24.408 : :Chapter 05
00:16:45.086 : :Chapter 06
00:19:54.732 : :Chapter 07
00:25:16.346 : :Chapter 08
00:29:32.434 : :Chapter 09
00:31:48.403 : :Chapter 10
00:35:08.648 : :Chapter 11
00:39:31.452 : :Chapter 12
00:46:17.608 : :Chapter 13
00:48:36.413 : :Chapter 14
00:51:59.324 : :Chapter 15
00:55:27.864 : :Chapter 16
00:58:37.889 : :Chapter 17
01:00:55.275 : :Chapter 18
01:02:39.880 : :Chapter 19
01:06:41.746 : :Chapter 20
01:08:17.635 : :Chapter 21
01:10:05.951 : :Chapter 22
01:17:05.243 : :Chapter 23
01:20:06.134 : :Chapter 24
01:24:10.170 : :Chapter 25
01:31:38.408 : :Chapter 26
01:34:26.993 : :Chapter 27
01:36:32.703 : :Chapter 28
01:40:09.420 : :Chapter 29
Загрузка...Cкриншот1 Последний бойскаут / The Last Boy Scout (1991) BDRip 1080p [HEVC] 10 bit от OldGamer (RG RIPS CLUB)Загрузка...Cкриншот2 Последний бойскаут / The Last Boy Scout (1991) BDRip 1080p [HEVC] 10 bit от OldGamer (RG RIPS CLUB)Загрузка...Cкриншот3 Последний бойскаут / The Last Boy Scout (1991) BDRip 1080p [HEVC] 10 bit от OldGamer (RG RIPS CLUB)Загрузка...Cкриншот4 Последний бойскаут / The Last Boy Scout (1991) BDRip 1080p [HEVC] 10 bit от OldGamer (RG RIPS CLUB)
Релиз-группа: RIPS CLUB
Сэмпл Торрент🧲 Магнет

Рейтинги КП и IMDB, кнопки "Позвать в чате" и "Спасибо", а также мультитрекерная статистика доступны только зарегистрированным/авторизованным пользователям!

Файлы: 1
  • Последний.бойскаут.The.Last.Boy.Scout.1991.BDRip-HEVC.1080p.mkv   10.09 ГБ
Поблагодарили: 17
alexyak, and50, Andrey_alex, bob512, Brooklyn, bs158250, donadar, Giggalo, GIS88, joker63, Kiran, makss333, michael90, mr_nikitin, NoMaD, Rezident, Spartanec1308
OldGamer
0481010.09 ГБ

Добавление нового комментария

Добавление комментариев доступно только зарегистрированным/авторизованным пользователям.