💬 Мини-чат

Убедительная просьба не обсуждать тут политику.
AdminЛёшикоБэст, вроде потихоньку идёт. Подождем, если не докачается, то встану.
AdminЛёшикоБэст, перекачайте торрент, а то в профиле не отображается ждете или уже нет
ЛёшикоБэстРаздайте, пожалуйста, Неудержимые / The Expendables (2010) [Theatrical Cut] BDRip 1080p [HEVC] 10 bit от Spartanec1308
OldGamerДа, есть.
ЛёшикоБэстДоброго вечера) Скажите пожалуйста, есть ли в планах сделать релиз дилогии "Зорро" с Антонио Бандерасом?
HANNIBALAdmin, 👍
AdminГоро, встал
ГороРаздайте, пожалуйста, Хищники / Predators (2010) BDRip 1080p [HEVC] 10 bit от HANNIBAL
AdminHANNIBAL, привет. Не помню за сколько брал, но продление в этот раз обошлось примерно в $14 со всякими комиссиями. А аренда VDS обходится примерно в $30-35 за год. Не исключено, что всё это подорожает. Пока что пожертвования с трудом покрывают расходы. Иногда если требуется и со своего кармана оплачиваю, не страшно. Прорвемся.
HANNIBALсколько сейчас стоит
HANNIBALAdmin, ПРИВЕТ
AdminНаконец-то получил банковскую карту. Продлил доменное имя (адрес сайта) на год.
  • demons22
  • ivan_1965
  • sergey678
Отправка сообщений доступна только зарегистрированным/авторизованным пользователям.
Онлайн (за 10 мин.): 3

Поцелуй на удачу / Just My Luck (2006) BDRip 1080p [HEVC] 10 bit от OldGamer (RG RIPS CLUB)

HEVC
10 bit
Обложка Поцелуй на удачу / Just My Luck (2006) BDRip 1080p [HEVC] 10 bit от OldGamer (RG RIPS CLUB) Год: 2006
Страна: США
Студия: Cheyenne Enterprises, New Regency Pictures, Regency Enterprises
Жанр: Фэнтези, Мелодрама, Комедия
Продолжительность: 01:41:40

Режиссер: Дональд Питри
В ролях: Линдси Лохан, Крис Пайн, Самира Армстронг, Бри Тёрнер, Фэйзон Лав, Мисси Пайл, Макензи Вега, Карлос Понсе, Том Флетчер, Дэнни Джонс

Описание: Сексуальная жительница Манхеттена Эшли слывёт самой удачливой девчонкой в округе. Однако после случайного поцелуя с одним неудачником Эшли понимает, что её удача повернулась к ней спиной и уплыла к тому парню. И как теперь отъявленной неудачнице вернуть свой «счастливый поцелуй»?


Исходник: Blu-Ray Remux 1080p
Видео: 1920x1040 (1.85:1), 9878 Кбит/сек, HEVC (Main10@L.4.1@High)
Аудио1: AC3, 6 ch, 640 Kbps - РусскийРусский, Дублированный
Аудио2: AC3, 6 ch, 640 Kbps - РусскийРусский, Двухголосый (DDV)
Аудио3: AC3, 6 ch, 448 Kbps - РусскийРусский, Двухголосый (Tycoon)
Аудио4: AC3, 6 ch, 640 Kbps - EnglishEnglish, Original
Субтитры: Русские полные (SRT), English full (SRT)

Как за пару секунд удалить ненужные аудиодорожки и субтитры (Внимание! После удаления вы не сможете поддержать раздачу)

Лог (x265 info)
x265 [info]: frame I: 620, Avg QP:18.58 kb/s: 20953.48
x265 [info]: frame P: 29449, Avg QP:19.95 kb/s: 16712.41
x265 [info]: frame B: 116194, Avg QP:21.88 kb/s: 8085.67
x265 [info]: Weighted P-Frames: Y:11.0% UV:9.7%
x265 [info]: Weighted B-Frames: Y:12.8% UV:10.7%
x265 [info]: consecutive B-frames: 1.3% 2.9% 6.9% 33.7% 15.0% 35.6% 2.5% 1.3% 0.5% 0.3%
x265 [info]: encoded 146263 frames in 173652.68s (0.84 fps), 9877.15 kb/s, Avg QP:21.48
Медиаинфо
Общее
Уникальный идентификатор : 164594036779972801396284509047260430520 (0x7BD3A88D925977FA21C705775EA7C0B8)
Полное имя : \\.\Поцелуй.на.удачу.Just.My.Luck.2006.BDRip-HEVC.1080p.mkv
Формат : Matroska
Версия формата : Version 4
Размер файла : 8,70 Гбайт
Продолжительность : 1 ч. 42 м.
Общий поток : 12,1 Мбит/сек
Название фильма : Поцелуй.на.удачу.Just.My.Luck.2006.BDRip-HEVC.1080p
Дата кодирования : UTC 2020-12-26 06:24:12
Программа кодирования : mkvmerge v51.0.0 ('I Wish') 64-bit
Библиотека кодирования : libebml v1.4.0 + libmatroska v1.6.2
Attachments : Poster.jpg

Видео
Идентификатор : 1
Формат : HEVC
Формат/Информация : High Efficiency Video Coding
Профиль формата : Main 10@L4.1@High
Идентификатор кодека : V_MPEGH/ISO/HEVC
Продолжительность : 1 ч. 41 м.
Битрейт : 9 878 Кбит/сек
Ширина : 1 920 пикселей
Высота : 1 040 пикселей
Соотношение сторон : 1,85:1
Режим частоты кадров : Постоянный
Частота кадров : 23,976 (24000/1001) кадра/сек
Цветовое пространство : YUV
Субдискретизация насыщенности : 4:2:0
Битовая глубина : 10 бит
Бит/(Пиксели*Кадры) : 0.206
Размер потока : 7,02 Гбайт (81%)
Заголовок : Just My Luck / Rip by OldGamer
Библиотека кодирования : x265 3.4+4-g3ae3d7116:[Windows][GCC 10.2.0][64 bit] 10bit
Настройки программы : cpuid=1111039 / frame-threads=3 / numa-pools=8 / wpp / no-pmode / no-pme / no-psnr / no-ssim / log-level=2 / input-csp=1 / input-res=1920x1040 / interlace=0 / total-frames=146263 / level-idc=41 / high-tier=1 / uhd-bd=0 / ref=5 / no-allow-non-conformance / no-repeat-headers / annexb / no-aud / no-hrd / info / hash=0 / no-temporal-layers / open-gop / min-keyint=23 / keyint=240 / gop-lookahead=0 / bframes=9 / b-adapt=2 / b-pyramid / bframe-bias=0 / rc-lookahead=40 / lookahead-slices=0 / scenecut=40 / hist-scenecut=0 / radl=0 / no-splice / no-intra-refresh / ctu=64 / min-cu-size=8 / rect / amp / max-tu-size=32 / tu-inter-depth=4 / tu-intra-depth=4 / limit-tu=1 / rdoq-level=2 / dynamic-rd=0.00 / no-ssim-rd / signhide / no-tskip / nr-intra=0 / nr-inter=0 / no-constrained-intra / no-strong-intra-smoothing / max-merge=5 / limit-refs=3 / no-limit-modes / me=3 / subme=7 / merange=57 / temporal-mvp / no-frame-dup / no-hme / weightp / weightb / no-analyze-src-pics / deblock=-3:-3 / no-sao / no-sao-non-deblock / rd=6 / selective-sao=0 / no-early-skip / rskip / no-fast-intra / no-tskip-fast / no-cu-lossless / b-intra / no-splitrd-skip / rdpenalty=0 / psy-rd=2.00 / psy-rdoq=1.00 / no-rd-refine / no-lossless / cbqpoffs=0 / crqpoffs=0 / rc=crf / crf=20.4 / qcomp=0.60 / qpstep=4 / stats-write=0 / stats-read=0 / vbv-maxrate=50000 / vbv-bufsize=50000 / vbv-init=0.9 / crf-max=0.0 / crf-min=0.0 / ipratio=1.40 / pbratio=1.30 / aq-mode=3 / aq-strength=1.00 / no-cutree / zone-count=1 / zones: / start-frame=139090 / end-frame=146252 / qp=36 / no-strict-cbr / qg-size=32 / no-rc-grain / qpmax=69 / qpmin=0 / no-const-vbv / sar=1 / overscan=0 / videoformat=5 / range=0 / colorprim=2 / transfer=2 / colormatrix=2 / chromaloc=0 / display-window=0 / cll=0,0 / min-luma=0 / max-luma=1023 / log2-max-poc-lsb=8 / vui-timing-info / vui-hrd-info / slices=1 / no-opt-qp-pps / no-opt-ref-list-length-pps / no-multi-pass-opt-rps / scenecut-bias=0.00 / hist-threshold=0.01 / no-opt-cu-delta-qp / no-aq-motion / no-hdr10 / no-hdr10-opt / no-dhdr10-opt / no-idr-recovery-sei / analysis-reuse-level=0 / analysis-save-reuse-level=0 / analysis-load-reuse-level=0 / scale-factor=0 / refine-intra=0 / refine-inter=0 / refine-mv=1 / refine-ctu-distortion=0 / no-limit-sao / ctu-info=0 / no-lowpass-dct / refine-analysis-type=0 / copy-pic=1 / max-ausize-factor=1.0 / no-dynamic-refine / no-single-sei / no-hevc-aq / no-svt / no-field / qp-adaptation-range=1.00 / no-scenecut-aware-qpconformance-window-offsets / right=0 / bottom=0 / decoder-max-rate=0
Язык : English
Default : Да
Forced : Нет

Аудио #1
Идентификатор : 2
Формат : AC-3
Формат/Информация : Audio Coding 3
Коммерческое название : Dolby Digital
Идентификатор кодека : A_AC3
Продолжительность : 1 ч. 41 м.
Вид битрейта : Постоянный
Битрейт : 640 Кбит/сек
Каналы : 6 каналов
Channel layout : L R C LFE Ls Rs
Частота : 48,0 КГц
Частота кадров : 31,250 кадров/сек (1536 SPF)
Метод сжатия : С потерями
Размер потока : 465 Мбайт (5%)
Заголовок : DUB
Язык : Russian
Service kind : Complete Main
Default : Да
Forced : Нет

Аудио #2
Идентификатор : 3
Формат : AC-3
Формат/Информация : Audio Coding 3
Коммерческое название : Dolby Digital
Идентификатор кодека : A_AC3
Продолжительность : 1 ч. 41 м.
Вид битрейта : Постоянный
Битрейт : 640 Кбит/сек
Каналы : 6 каналов
Channel layout : L R C LFE Ls Rs
Частота : 48,0 КГц
Частота кадров : 31,250 кадров/сек (1536 SPF)
Метод сжатия : С потерями
Размер потока : 465 Мбайт (5%)
Заголовок : DVO (DDV)
Язык : Russian
Service kind : Complete Main
Default : Нет
Forced : Нет

Аудио #3
Идентификатор : 4
Формат : AC-3
Формат/Информация : Audio Coding 3
Коммерческое название : Dolby Digital
Идентификатор кодека : A_AC3
Продолжительность : 1 ч. 41 м.
Вид битрейта : Постоянный
Битрейт : 448 Кбит/сек
Каналы : 6 каналов
Channel layout : L R C LFE Ls Rs
Частота : 48,0 КГц
Частота кадров : 31,250 кадров/сек (1536 SPF)
Метод сжатия : С потерями
Размер потока : 326 Мбайт (4%)
Заголовок : DVO (Tycoon)
Язык : Russian
Service kind : Complete Main
Default : Нет
Forced : Нет

Аудио #4
Идентификатор : 5
Формат : AC-3
Формат/Информация : Audio Coding 3
Коммерческое название : Dolby Digital
Идентификатор кодека : A_AC3
Продолжительность : 1 ч. 41 м.
Вид битрейта : Постоянный
Битрейт : 640 Кбит/сек
Каналы : 6 каналов
Channel layout : L R C LFE Ls Rs
Частота : 48,0 КГц
Частота кадров : 31,250 кадров/сек (1536 SPF)
Метод сжатия : С потерями
Размер потока : 465 Мбайт (5%)
Язык : English
Service kind : Complete Main
Default : Нет
Forced : Нет

Текст #1
Идентификатор : 6
Формат : UTF-8
Идентификатор кодека : S_TEXT/UTF8
Идентификатор кодека/Информация : UTF-8 Plain Text
Продолжительность : 1 ч. 41 м.
Битрейт : 101 бит/сек
Count of elements : 1276
Размер потока : 75,5 Кбайт (0%)
Заголовок : Full
Язык : Russian
Default : Нет
Forced : Нет

Текст #2
Идентификатор : 7
Формат : UTF-8
Идентификатор кодека : S_TEXT/UTF8
Идентификатор кодека/Информация : UTF-8 Plain Text
Продолжительность : 1 ч. 41 м.
Битрейт : 73 бит/сек
Count of elements : 1503
Размер потока : 54,9 Кбайт (0%)
Заголовок : Full
Язык : English
Default : Нет
Forced : Нет

Меню
00:00:00.000 : :01. Good Luck, Bad Luck (Main Titles)
00:08:01.773 : :02. The Big Pitch
00:13:47.535 : :03. A Date for the Dragon Lady
00:16:05.256 : :04. The Janitor's Band
00:18:46.834 : :05. One Week
00:20:50.207 : :06. I'm Not Lucky
00:23:13.142 : :07.The Perfect Party
00:26:20.829 : :08. It's In the Cards
00:27:57.801 : :09. The Dancing Fool
00:30:35.167 : :10. Kiss of Fate
00:32:12.430 : :11. Change of Luck
00:36:51.960 : :12. Eight Minutes
00:38:34.145 : :13. The Bad-Luck Girl
00:40:42.732 : :14. New Digs
00:44:05.017 : :15. Stolen Luck
00:46:04.553 : :16. It's All About a Kiss
00:52:00.951 : :17. Lucky Me
00:55:34.289 : :18. S.O.L
00:59:15.469 : :19. The New Job
01:02:12.437 : :20. Unlucky People
01:05:28.424 : :21. Too Close for Comfort
01:11:19.567 : :22. The Loser & the Laundry
01:14:51.404 : :23. Maggie's Song
01:17:11.544 : :24. Hello, Fabulous Life
01:22:30.779 : :25. Mcfly's Misfortunes
01:27:17.607 : :26. A Kiss for Good Luck
01:32:00.265 : :27. For Your Own Good
01:35:55.541 : :28. Luck & Karma / End Titles
Загрузка...Cкриншот1 Поцелуй на удачу / Just My Luck (2006) BDRip 1080p [HEVC] 10 bit от OldGamer (RG RIPS CLUB)Загрузка...Cкриншот2 Поцелуй на удачу / Just My Luck (2006) BDRip 1080p [HEVC] 10 bit от OldGamer (RG RIPS CLUB)Загрузка...Cкриншот3 Поцелуй на удачу / Just My Luck (2006) BDRip 1080p [HEVC] 10 bit от OldGamer (RG RIPS CLUB)Загрузка...Cкриншот4 Поцелуй на удачу / Just My Luck (2006) BDRip 1080p [HEVC] 10 bit от OldGamer (RG RIPS CLUB)
Релиз-группа: RIPS CLUB
Сэмпл Торрент🧲 Магнет

Рейтинги КП и IMDB, кнопки "Позвать в чате" и "Спасибо", а также мультитрекерная статистика доступны только зарегистрированным/авторизованным пользователям!

Файлы: 1
  • Поцелуй.на.удачу.Just.My.Luck.2006.BDRip-HEVC.1080p.mkv   8.7 ГБ
Поблагодарили: 7
Andrey_alex, donadar, FijiMAX, makss333, NoMaD, Nuclear70, StarLord
OldGamer
144008.7 ГБ

Добавление нового комментария

Добавление комментариев доступно только зарегистрированным/авторизованным пользователям.
Аватар не указан
  donadar  (Отредактировал donadar)    
Хороший фильм!