Чат

⚫︎
Список изменений сайта - https://rips.club/changelog.html (обновлен 24.05.2024)
  • arwis
Онлайн (за 10 мин.): 1
Отправка сообщений доступна только зарегистрированным/авторизованным пользователям.

🎥︎Миссисипи в огне / Mississippi Burning (1988) [US The Limited Edition Series] BDRip 1080p [HEVC] 10 bit от OldGamer (RG RIPS CLUB)


Обложка Миссисипи в огне / Mississippi Burning (1988) [US The Limited Edition Series] BDRip 1080p [HEVC] 10 bit от OldGamer (RG RIPS CLUB)
HEVC
10 bit
✂︎Сэмпл⤓︎Торрент🧲︎Магнет$Пожертвования

При перезаливке на другие сайты просьба указать автора и релиз-группу.


Год: 1988
Страна: США
Студия: Orion Pictures Corporation
Жанр: Триллер, Драма, Криминал, Детектив
Длительность: 02:06:51

Режиссер: Алан Паркер
В ролях: Джин Хэкмен, Уиллем Дефо, Фрэнсис МакДорманд, Брэд Дуриф, Р. Ли Эрми, Гейлард Сартейн, Стивен Тоболовски, Майкл Рукер, Прюитт Тэйлор Винс, Баджа Джола

Описание: Миссисипи, 1964 год. Убийство трёх борцов за права человека поднимает волну массовых беспорядков. Найти преступников должны агенты ФБР Андерсон и Уорд. Жена местного шерифа, помогающая расследовать дело, открывает секрет, бросающий тень на главных людей в городе, делая тех участниками кровавого заговора. Но это не останавливает Андерсона, агента с многолетним опытом. Он знает, что иногда для достижения цели необходимо преступить закон, иначе убийцы останутся на свободе.


Релиз-группа: RIPS CLUB
Исходник: Blu-Ray Remux 1080p (rutracker)
Видео: 1920x1040 (1,85:1), 10,8 Мбит/сек, HEVC (Main10@L.4.1@High)
Аудио1: AC3, 2 ch, 192 Kbps - РусскийРусский, DUB (Советский дубляж)
Аудио2: AC3, 2 ch, 192 Kbps - РусскийРусский, DUB (Варус Видео)
Аудио3: AC3, 2 ch, 192 Kbps - РусскийРусский, MVO (Paramount Channel)
Аудио4: AC3, 2 ch, 192 Kbps - РусскийРусский, DVO
Аудио5: AC3, 2 ch, 192 Kbps - РусскийРусский, AVO (Юрий Сербин)
Аудио6: AC3, 2 ch, 640 Kbps - АнглийскийАнглийский
Субтитры: английские

Как за несколько секунд удалить ненужные аудиодорожки и субтитры (Внимание! После удаления вы не сможете поддержать раздачу)


Лог (x265 info)x265 [info]: frame I: 764, Avg QP:17.33 kb/s: 23506.38
x265 [info]: frame P: 31752, Avg QP:18.43 kb/s: 19129.67
x265 [info]: frame B: 149985, Avg QP:20.57 kb/s: 9020.81
x265 [info]: Weighted P-Frames: Y:9.2% UV:6.7%
x265 [info]: Weighted B-Frames: Y:11.9% UV:6.2%
x265 [info]: consecutive B-frames: 1.7% 3.0% 6.1% 22.7% 11.5% 28.5% 8.3% 11.9% 3.8% 0.9% 0.6% 0.8% 0.4%
x265 [info]: encoded 182501 frames in 199768.69s (0.91 fps), 10840.22 kb/s, Avg QP:20.18
МедиаинфоОбщее
Уникальный идентификатор : 104621070125835598751254968651086916798 (0x4EB549015AC1F469E2EE468228016CBE)
Полное имя : \\.\Миссисипи.в.огне.Mississippi.Burning.1988.BDRip-HEVC.1080p.mkv
Формат : Matroska
Версия формата : Version 4
Размер файла : 11,0 Гбайт
Продолжительность : 2 ч. 6 м.
Общий поток : 12,4 Мбит/сек
Частота кадров : 23,976 кадра/сек
Дата кодирования : 2023-09-17 06:53:35 UTC
Программа кодирования : mkvmerge v79.0 ('Funeral Pyres') 64-bit
Библиотека кодирования : libebml v1.4.4 + libmatroska v1.7.1

Видео
Идентификатор : 1
Формат : HEVC
Формат/Информация : High Efficiency Video Coding
Профиль формата : Main 10@L4.1@High
Идентификатор кодека : V_MPEGH/ISO/HEVC
Продолжительность : 2 ч. 6 м.
Битрейт : 10,8 Мбит/сек
Ширина : 1 920 пикселей
Высота : 1 040 пикселей
Соотношение сторон : 1,85:1
Режим частоты кадров : Постоянный
Частота кадров : 23,976 (24000/1001) кадра/сек
Цветовое пространство : YUV
Субдискретизация насыщенности : 4:2:0
Битовая глубина : 10 бит
Бит/(Пиксели*Кадры) : 0.226
Размер потока : 9,61 Гбайт (87%)
Заголовок : Mississippi Burning / Rip by OldGamer
Библиотека кодирования : x265 3.4+4-g3ae3d7116:[Windows][GCC 10.2.0][64 bit] 10bit
Настройки программы : cpuid=1111039 / frame-threads=3 / numa-pools=8 / wpp / no-pmode / no-pme / no-psnr / no-ssim / log-level=2 / input-csp=1 / input-res=1920x1040 / interlace=0 / total-frames=182501 / level-idc=41 / high-tier=1 / uhd-bd=0 / ref=5 / no-allow-non-conformance / no-repeat-headers / annexb / no-aud / no-hrd / info / hash=0 / no-temporal-layers / open-gop / min-keyint=23 / keyint=240 / gop-lookahead=0 / bframes=12 / b-adapt=2 / b-pyramid / bframe-bias=0 / rc-lookahead=40 / lookahead-slices=0 / scenecut=40 / hist-scenecut=0 / radl=0 / no-splice / no-intra-refresh / ctu=64 / min-cu-size=8 / rect / amp / max-tu-size=32 / tu-inter-depth=4 / tu-intra-depth=4 / limit-tu=1 / rdoq-level=2 / dynamic-rd=0.00 / no-ssim-rd / signhide / no-tskip / nr-intra=0 / nr-inter=0 / no-constrained-intra / no-strong-intra-smoothing / max-merge=5 / limit-refs=3 / no-limit-modes / me=3 / subme=7 / merange=57 / temporal-mvp / no-frame-dup / no-hme / weightp / weightb / no-analyze-src-pics / deblock=-3:-3 / no-sao / no-sao-non-deblock / rd=6 / selective-sao=0 / no-early-skip / rskip / no-fast-intra / no-tskip-fast / no-cu-lossless / b-intra / no-splitrd-skip / rdpenalty=0 / psy-rd=2.00 / psy-rdoq=1.00 / no-rd-refine / no-lossless / cbqpoffs=0 / crqpoffs=0 / rc=crf / crf=18.8 / qcomp=0.60 / qpstep=4 / stats-write=0 / stats-read=0 / vbv-maxrate=50000 / vbv-bufsize=50000 / vbv-init=0.9 / crf-max=0.0 / crf-min=0.0 / ipratio=1.40 / pbratio=1.30 / aq-mode=1 / aq-strength=1.00 / no-cutree / zone-count=1 / zones: / start-frame=176800 / end-frame=182489 / qp=36 / no-strict-cbr / qg-size=32 / no-rc-grain / qpmax=69 / qpmin=0 / no-const-vbv / sar=1 / overscan=0 / videoformat=5 / range=0 / colorprim=2 / transfer=2 / colormatrix=2 / chromaloc=0 / display-window=0 / cll=0,0 / min-luma=0 / max-luma=1023 / log2-max-poc-lsb=8 / vui-timing-info / vui-hrd-info / slices=1 / no-opt-qp-pps / no-opt-ref-list-length-pps / no-multi-pass-opt-rps / scenecut-bias=0.00 / hist-threshold=0.01 / no-opt-cu-delta-qp / no-aq-motion / no-hdr10 / no-hdr10-opt / no-dhdr10-opt / no-idr-recovery-sei / analysis-reuse-level=0 / analysis-save-reuse-level=0 / analysis-load-reuse-level=0 / scale-factor=0 / refine-intra=0 / refine-inter=0 / refine-mv=1 / refine-ctu-distortion=0 / no-limit-sao / ctu-info=0 / no-lowpass-dct / refine-analysis-type=0 / copy-pic=1 / max-ausize-factor=1.0 / no-dynamic-refine / no-single-sei / no-hevc-aq / no-svt / no-field / qp-adaptation-range=1.00 / no-scenecut-aware-qpconformance-window-offsets / right=0 / bottom=0 / decoder-max-rate=0
Язык : English
Default : Да
Forced : Нет

Аудио #1
Идентификатор : 2
ID in the original source medium : 4352 (0x1100)
Формат : AC-3
Формат/Информация : Audio Coding 3
Коммерческое название : Dolby Digital
Идентификатор кодека : A_AC3
Продолжительность : 2 ч. 6 м.
Вид битрейта : Постоянный
Битрейт : 192 Кбит/сек
Каналы : 2 канала
Channel layout : L R
Частота : 48,0 КГц
Частота кадров : 31,250 кадров/сек (1536 SPF)
Метод сжатия : С потерями
Размер потока : 174 Мбайт (2%)
Заголовок : DUB (Советский дубляж)
Язык : Russian
Service kind : Complete Main
Default : Да
Forced : Нет
Носитель оригинала : Blu-ray

Аудио #2
Идентификатор : 3
Формат : AC-3
Формат/Информация : Audio Coding 3
Коммерческое название : Dolby Digital
Идентификатор кодека : A_AC3
Продолжительность : 2 ч. 6 м.
Вид битрейта : Постоянный
Битрейт : 192 Кбит/сек
Каналы : 2 канала
Channel layout : L R
Частота : 48,0 КГц
Частота кадров : 31,250 кадров/сек (1536 SPF)
Метод сжатия : С потерями
Размер потока : 174 Мбайт (2%)
Заголовок : DUB (Варус Видео)
Язык : Russian
Service kind : Complete Main
Default : Нет
Forced : Нет

Аудио #3
Идентификатор : 4
Формат : AC-3
Формат/Информация : Audio Coding 3
Коммерческое название : Dolby Digital
Идентификатор кодека : A_AC3
Продолжительность : 2 ч. 6 м.
Вид битрейта : Постоянный
Битрейт : 192 Кбит/сек
Каналы : 2 канала
Channel layout : L R
Частота : 48,0 КГц
Частота кадров : 31,250 кадров/сек (1536 SPF)
Метод сжатия : С потерями
Размер потока : 174 Мбайт (2%)
Заголовок : MVO (Paramount Channel)
Язык : Russian
Service kind : Complete Main
Default : Нет
Forced : Нет

Аудио #4
Идентификатор : 5
ID in the original source medium : 4353 (0x1101)
Формат : AC-3
Формат/Информация : Audio Coding 3
Коммерческое название : Dolby Digital
Идентификатор кодека : A_AC3
Продолжительность : 2 ч. 6 м.
Вид битрейта : Постоянный
Битрейт : 192 Кбит/сек
Каналы : 2 канала
Channel layout : L R
Частота : 48,0 КГц
Частота кадров : 31,250 кадров/сек (1536 SPF)
Метод сжатия : С потерями
Размер потока : 174 Мбайт (2%)
Заголовок : DVO
Язык : Russian
Service kind : Complete Main
Default : Нет
Forced : Нет
Носитель оригинала : Blu-ray

Аудио #5
Идентификатор : 6
ID in the original source medium : 4354 (0x1102)
Формат : AC-3
Формат/Информация : Audio Coding 3
Коммерческое название : Dolby Digital
Идентификатор кодека : A_AC3
Продолжительность : 2 ч. 6 м.
Вид битрейта : Постоянный
Битрейт : 192 Кбит/сек
Каналы : 2 канала
Channel layout : L R
Частота : 48,0 КГц
Частота кадров : 31,250 кадров/сек (1536 SPF)
Метод сжатия : С потерями
Размер потока : 174 Мбайт (2%)
Заголовок : AVO (Юрий Сербин)
Язык : Russian
Service kind : Complete Main
Default : Нет
Forced : Нет
Носитель оригинала : Blu-ray

Аудио #6
Идентификатор : 7
Формат : AC-3
Формат/Информация : Audio Coding 3
Коммерческое название : Dolby Digital
Идентификатор кодека : A_AC3
Продолжительность : 2 ч. 6 м.
Вид битрейта : Постоянный
Битрейт : 640 Кбит/сек
Каналы : 2 канала
Channel layout : L R
Частота : 48,0 КГц
Частота кадров : 31,250 кадров/сек (1536 SPF)
Метод сжатия : С потерями
Размер потока : 581 Мбайт (5%)
Язык : English
Service kind : Complete Main
Default : Нет
Forced : Нет

Текст
Идентификатор : 8
Формат : UTF-8
Идентификатор кодека : S_TEXT/UTF8
Идентификатор кодека/Информация : UTF-8 Plain Text
Продолжительность : 2 ч. 2 м.
Битрейт : 53 бит/сек
Частота кадров : 0,154 кадр/сек
Count of elements : 1126
Размер потока : 47,6 Кбайт (0%)
Язык : English
Default : Нет
Forced : Нет

Меню
00:00:00.000 : en:Chapter 01
00:04:51.416 : en:Chapter 02
00:10:32.506 : en:Chapter 03
00:16:34.827 : en:Chapter 04
00:19:36.425 : en:Chapter 05
00:26:15.699 : en:Chapter 06
00:32:59.060 : en:Chapter 07
00:37:17.777 : en:Chapter 08
00:42:06.649 : en:Chapter 09
00:46:51.058 : en:Chapter 10
00:54:09.788 : en:Chapter 11
00:57:52.760 : en:Chapter 12
01:04:45.506 : en:Chapter 13
01:09:38.215 : en:Chapter 14
01:15:06.543 : en:Chapter 15
01:19:34.686 : en:Chapter 16
01:25:52.981 : en:Chapter 17
01:31:10.673 : en:Chapter 18
01:37:06.237 : en:Chapter 19
01:42:33.689 : en:Chapter 20
01:46:27.589 : en:Chapter 21
01:51:16.294 : en:Chapter 22
01:57:44.223 : en:Chapter 23
02:02:55.368 : en:Chapter 24
Загрузка...Cкриншот1 Миссисипи в огне / Mississippi Burning (1988) [US The Limited Edition Series] BDRip 1080p [HEVC] 10 bit от OldGamer (RG RIPS CLUB)Загрузка...Cкриншот2 Миссисипи в огне / Mississippi Burning (1988) [US The Limited Edition Series] BDRip 1080p [HEVC] 10 bit от OldGamer (RG RIPS CLUB)Загрузка...Cкриншот3 Миссисипи в огне / Mississippi Burning (1988) [US The Limited Edition Series] BDRip 1080p [HEVC] 10 bit от OldGamer (RG RIPS CLUB)Загрузка...Cкриншот4 Миссисипи в огне / Mississippi Burning (1988) [US The Limited Edition Series] BDRip 1080p [HEVC] 10 bit от OldGamer (RG RIPS CLUB)
История обновленийВидеоряд без изменений, добавлены переводы (Варус Видео, Paramount Channel).
Поблагодарили: 14and50, AndresUA, bassoutta, Brooklyn, HANNIBAL, InSpector, ivan_1965, Kiran, kisa1980, makss333, michael90, mr_nikitin, StarLord, torrentzulu
Файлы: 1
  • Миссисипи.в.огне.Mississippi.Burning.1988.BDRip-HEVC.1080p.mkv

Рейтинги КП и IMDB, кнопки "Раздайте, пожалуйста" и "Спасибо", а также мультитрекерная статистика доступны только зарегистрированным/авторизованным пользователям!

OldGamer
40164211.03 ГБ

💬︎ Комментарии

Добавление комментариев доступно только зарегистрированным/авторизованным пользователям.

Всего: 2
Аватар OldGamer
OldGamer
StarLord писал(а):
Спасибо за фильм. Это ремастер?
Добавил версию в описание
Аватар StarLord
StarLord
Спасибо за фильм. Это ремастер?