💬 Мини-чат

BrooklynOldGamer, Ок, спасибо, качаю.
OldGamerBrooklyn, они все на раздаче пока что
BrooklynOldGamer, Пораздавайте, пожалуйста, все сезоны сериала "Гримм" ближайшие 3 дня, очень хочу их забрать. Качество отличное. Заранее Благодарен.
StarLordСообщение удалено (удалил: StarLord)
OldGamerвыводить
mafo2Admin, можно вывести, наглядно будет
StarLordAdmin, +
AdminНадпись HDR выводить на обложку?
OldGamerGiggalo, но лучше всего вообще не затрагивайте этот ключ, по умолчанию будет установлено оптимальное значение
OldGamerGiggalo, но если уж очень хочется то пишите --frame-threads 3
OldGamerGiggalo, а зачем его менять?) нужное значение устанавливается автоматически
GiggaloДобрый вечер всем! OldGamer Покажи пожалуйста почему когда пишу в командной строке frame-threads=3 он не меняется. Какой там стоит 13 он его и держит, а ругие установки спокойно меняет?
AdminStarLord, спасибо. Пока сойдет.
StarLordAdmin, ага, вижу
StarLordAdmin, а как должно брать?
AdminStarLord, ты шаришь?
AdminStarLord, у меня сейчас такая, но с точками беда. Доработать бы (https?://([-\w\.]+)+(:\d+)?(/([-\w/_:%]*(\.\w+)*(\?\S+)?)?)?)
AdminStarLord, скрины в bb некорректно берет
StarLordwww, ftp(s), http(s), #, :, &
StarLordAdmin, все мои кейсы покрыла
  • DKV
  • InSpector
  • ivan_1965
  • moonson
  • Rezident
Отправка сообщений доступна только зарегистрированным/авторизованным пользователям.
Онлайн (за 10 мин.): 5

13-й район: Ультиматум / Banlieue 13 Ultimatum (2009) BDRip 1080p [HEVC] 10 bit от OldGamer (RG RIPS CLUB)

HEVC
10 bit
Обложка 13-й район: Ультиматум / Banlieue 13 Ultimatum (2009) BDRip 1080p [HEVC] 10 bit от OldGamer (RG RIPS CLUB) Год: 2009
Страна: Франция
Студия: Canal+, CiBy 2000, Ciné Cinémas
Жанр: Боевик, Триллер, Криминал
Продолжительность: 01:40:57

Режиссер: Патрик Алессандрен
В ролях: Сирил Раффаэлли, Давид Белль, Филипп Торретон, Даниэль Дюваль, Элоди Юнг, МС Жан Габен, Джеймс Диано, Лауни Муид, Фабрис Флетцингер, Пьер-Мари Москони

Описание: 13-й район, три года спустя. Стена, отделяющая неблагополучный пригород от столицы, стала больше, выше и отгородила от цивилизации еще больше кварталов. По эту сторону стены правят пять банд, контролирующих этнические районы. Правительство как никогда заинтересовано в «урегулировании проблемы», и разведывательные службы охотно инициируют беспорядки. Лейто и Дамьену снова приходится объединить усилия, чтобы спасти Париж от хаоса.


Исходник: Blu-Ray Remux 1080p (rutracker)
Видео: 1920x816 (2.35:1), 8260 Кбит/сек, HEVC (Main10@L.4.1@High)
Аудио1: AC3, 6 ch, 448 Kbps - РусскийРусский, Дублированный
Аудио2: AC3, 6 ch, 448 Kbps - РусскийРусский, Многоголосый (Киномания)
Аудио3: AC3, 6 ch, 448 Kbps - РусскийРусский, Авторский (Денис Строев)
Аудио4: AC3, 6 ch, 448 Kbps - РусскийРусский, Авторский (Борис Лизнёв)
Аудио5: AC3, 2 ch, 192 Kbps - УкраинскийУкраинский, Дублированный
Аудио6: AC3, 2 ch, 192 Kbps - УкраинскийУкраинский, Многоголосый (ICTV)
Аудио7: AC3, 6 ch, 448 Kbps - EnglishEnglish
Аудио8: AC3, 6 ch, 448 Kbps - FrenchFrench
Субтитры: Русские полные (SRT), English forced and full (SRT)

Как за пару секунд удалить ненужные аудиодорожки и субтитры (Внимание! После удаления вы не сможете поддержать раздачу)

Лог (x265 info)
x265 [info]: frame I: 614, Avg QP:17.05 kb/s: 20509.84
x265 [info]: frame P: 32553, Avg QP:18.68 kb/s: 15364.74
x265 [info]: frame B: 112200, Avg QP:20.49 kb/s: 6130.49
x265 [info]: Weighted P-Frames: Y:5.1% UV:4.3%
x265 [info]: Weighted B-Frames: Y:5.1% UV:3.8%
x265 [info]: consecutive B-frames: 6.1% 8.5% 12.4% 29.6% 9.6% 29.8% 1.9% 1.0% 0.5% 0.3% 0.1% 0.1% 0.1%
x265 [info]: encoded 145367 frames in 114740.96s (1.27 fps), 8259.11 kb/s, Avg QP:20.07
Медиаинфо
Общее
Уникальный идентификатор : 40764133033931496322423908832572934885 (0x1EAAE2EE2BD090CB6BD87743E3710AE5)
Полное имя : \\.\13-й.район.Ультиматум.Banlieue.13.Ultimatum.2009.BDRip-HEVC.1080p.mkv
Формат : Matroska
Версия формата : Version 4
Размер файла : 7,99 Гбайт
Продолжительность : 1 ч. 40 м.
Общий поток : 11,3 Мбит/сек
Название фильма : 13-й.район.Ультиматум.Banlieue.13.Ultimatum.2009.BDRip-HEVC.1080p
Дата кодирования : UTC 2021-02-03 13:02:59
Программа кодирования : mkvmerge v51.0.0 ('I Wish') 64-bit
Библиотека кодирования : libebml v1.4.0 + libmatroska v1.6.2
Обложка : Yes
Attachments : cover.jpg

Видео
Идентификатор : 1
Формат : HEVC
Формат/Информация : High Efficiency Video Coding
Профиль формата : Main 10@L4.1@High
Идентификатор кодека : V_MPEGH/ISO/HEVC
Продолжительность : 1 ч. 40 м.
Битрейт : 8 260 Кбит/сек
Ширина : 1 920 пикселей
Высота : 816 пикселей
Соотношение сторон : 2,35:1
Режим частоты кадров : Постоянный
Частота кадров : 24,000 кадра/сек
Цветовое пространство : YUV
Субдискретизация насыщенности : 4:2:0
Битовая глубина : 10 бит
Бит/(Пиксели*Кадры) : 0.220
Размер потока : 5,82 Гбайт (73%)
Заголовок : Banlieue 13 Ultimatum / Rip by OldGamer
Библиотека кодирования : x265 3.4+12-g9103319fc:[Windows][GCC 10.2.0][64 bit] 10bit
Настройки программы : cpuid=1111039 / frame-threads=3 / numa-pools=8 / wpp / no-pmode / no-pme / no-psnr / no-ssim / log-level=2 / input-csp=1 / input-res=1920x816 / interlace=0 / total-frames=145367 / level-idc=41 / high-tier=1 / uhd-bd=0 / ref=5 / no-allow-non-conformance / no-repeat-headers / annexb / no-aud / no-hrd / info / hash=0 / no-temporal-layers / open-gop / min-keyint=23 / keyint=240 / gop-lookahead=0 / bframes=12 / b-adapt=2 / b-pyramid / bframe-bias=0 / rc-lookahead=40 / lookahead-slices=0 / scenecut=40 / hist-scenecut=0 / radl=0 / no-splice / no-intra-refresh / ctu=32 / min-cu-size=8 / rect / amp / max-tu-size=32 / tu-inter-depth=4 / tu-intra-depth=4 / limit-tu=1 / rdoq-level=2 / dynamic-rd=0.00 / no-ssim-rd / signhide / no-tskip / nr-intra=0 / nr-inter=0 / no-constrained-intra / no-strong-intra-smoothing / max-merge=5 / limit-refs=3 / no-limit-modes / me=3 / subme=7 / merange=57 / temporal-mvp / no-frame-dup / no-hme / weightp / weightb / no-analyze-src-pics / deblock=-3:-2 / no-sao / no-sao-non-deblock / rd=6 / selective-sao=0 / no-early-skip / rskip / no-fast-intra / no-tskip-fast / no-cu-lossless / b-intra / no-splitrd-skip / rdpenalty=0 / psy-rd=2.00 / psy-rdoq=1.00 / no-rd-refine / no-lossless / cbqpoffs=0 / crqpoffs=0 / rc=crf / crf=19.5 / qcomp=0.70 / qpstep=4 / stats-write=0 / stats-read=0 / vbv-maxrate=50000 / vbv-bufsize=50000 / vbv-init=0.9 / crf-max=0.0 / crf-min=0.0 / ipratio=1.40 / pbratio=1.30 / aq-mode=1 / aq-strength=1.00 / no-cutree / zone-count=1 / zones: / start-frame=138400 / end-frame=145367 / qp=36 / no-strict-cbr / qg-size=32 / no-rc-grain / qpmax=69 / qpmin=0 / no-const-vbv / sar=1 / overscan=0 / videoformat=5 / range=0 / colorprim=2 / transfer=2 / colormatrix=2 / chromaloc=0 / display-window=0 / cll=0,0 / min-luma=0 / max-luma=1023 / log2-max-poc-lsb=8 / vui-timing-info / vui-hrd-info / slices=1 / no-opt-qp-pps / no-opt-ref-list-length-pps / no-multi-pass-opt-rps / scenecut-bias=0.00 / hist-threshold=0.01 / no-opt-cu-delta-qp / no-aq-motion / no-hdr10 / no-hdr10-opt / no-dhdr10-opt / no-idr-recovery-sei / analysis-reuse-level=0 / analysis-save-reuse-level=0 / analysis-load-reuse-level=0 / scale-factor=0 / refine-intra=0 / refine-inter=0 / refine-mv=1 / refine-ctu-distortion=0 / no-limit-sao / ctu-info=0 / no-lowpass-dct / refine-analysis-type=0 / copy-pic=1 / max-ausize-factor=1.0 / no-dynamic-refine / no-single-sei / no-hevc-aq / no-svt / no-field / qp-adaptation-range=1.00 / no-scenecut-aware-qpconformance-window-offsets / right=0 / bottom=0 / decoder-max-rate=0
Язык : English
Default : Да
Forced : Нет

Аудио #1
Идентификатор : 2
Формат : AC-3
Формат/Информация : Audio Coding 3
Коммерческое название : Dolby Digital
Идентификатор кодека : A_AC3
Продолжительность : 1 ч. 40 м.
Вид битрейта : Постоянный
Битрейт : 448 Кбит/сек
Каналы : 6 каналов
Channel layout : L R C LFE Ls Rs
Частота : 48,0 КГц
Частота кадров : 31,250 кадров/сек (1536 SPF)
Метод сжатия : С потерями
Размер потока : 323 Мбайт (4%)
Заголовок : DUB
Язык : Russian
Service kind : Complete Main
Default : Да
Forced : Нет

Аудио #2
Идентификатор : 3
Формат : AC-3
Формат/Информация : Audio Coding 3
Коммерческое название : Dolby Digital
Идентификатор кодека : A_AC3
Продолжительность : 1 ч. 40 м.
Вид битрейта : Постоянный
Битрейт : 448 Кбит/сек
Каналы : 6 каналов
Channel layout : L R C LFE Ls Rs
Частота : 48,0 КГц
Частота кадров : 31,250 кадров/сек (1536 SPF)
Метод сжатия : С потерями
Размер потока : 323 Мбайт (4%)
Заголовок : MVO (Киномания)
Язык : Russian
Service kind : Complete Main
Default : Нет
Forced : Нет

Аудио #3
Идентификатор : 4
Формат : AC-3
Формат/Информация : Audio Coding 3
Коммерческое название : Dolby Digital
Идентификатор кодека : A_AC3
Продолжительность : 1 ч. 40 м.
Вид битрейта : Постоянный
Битрейт : 448 Кбит/сек
Каналы : 6 каналов
Channel layout : L R C LFE Ls Rs
Частота : 48,0 КГц
Частота кадров : 31,250 кадров/сек (1536 SPF)
Метод сжатия : С потерями
Размер потока : 323 Мбайт (4%)
Заголовок : AVO (Денис Строев)
Язык : Russian
Service kind : Complete Main
Default : Нет
Forced : Нет

Аудио #4
Идентификатор : 5
Формат : AC-3
Формат/Информация : Audio Coding 3
Коммерческое название : Dolby Digital
Идентификатор кодека : A_AC3
Продолжительность : 1 ч. 40 м.
Вид битрейта : Постоянный
Битрейт : 448 Кбит/сек
Каналы : 6 каналов
Channel layout : L R C LFE Ls Rs
Частота : 48,0 КГц
Частота кадров : 31,250 кадров/сек (1536 SPF)
Метод сжатия : С потерями
Размер потока : 323 Мбайт (4%)
Заголовок : AVO (Борис Лизнёв)
Язык : Russian
Service kind : Complete Main
Default : Нет
Forced : Нет

Аудио #5
Идентификатор : 6
Формат : AC-3
Формат/Информация : Audio Coding 3
Коммерческое название : Dolby Digital
Идентификатор кодека : A_AC3
Продолжительность : 1 ч. 40 м.
Вид битрейта : Постоянный
Битрейт : 192 Кбит/сек
Каналы : 2 канала
Channel layout : L R
Частота : 48,0 КГц
Частота кадров : 31,250 кадров/сек (1536 SPF)
Метод сжатия : С потерями
Размер потока : 139 Мбайт (2%)
Заголовок : DUB
Язык : Ukrainian
Service kind : Music and Effects
Default : Нет
Forced : Нет

Аудио #6
Идентификатор : 7
Формат : AC-3
Формат/Информация : Audio Coding 3
Коммерческое название : Dolby Digital
Идентификатор кодека : A_AC3
Продолжительность : 1 ч. 40 м.
Вид битрейта : Постоянный
Битрейт : 192 Кбит/сек
Каналы : 2 канала
Channel layout : L R
Частота : 48,0 КГц
Частота кадров : 31,250 кадров/сек (1536 SPF)
Метод сжатия : С потерями
Размер потока : 139 Мбайт (2%)
Заголовок : MVO (ICTV)
Язык : Ukrainian
Service kind : Complete Main
Default : Нет
Forced : Нет

Аудио #7
Идентификатор : 8
Формат : AC-3
Формат/Информация : Audio Coding 3
Коммерческое название : Dolby Digital
Идентификатор кодека : A_AC3
Продолжительность : 1 ч. 40 м.
Вид битрейта : Постоянный
Битрейт : 448 Кбит/сек
Каналы : 6 каналов
Channel layout : L R C LFE Ls Rs
Частота : 48,0 КГц
Частота кадров : 31,250 кадров/сек (1536 SPF)
Метод сжатия : С потерями
Размер потока : 323 Мбайт (4%)
Заголовок : DUB
Язык : English
Service kind : Complete Main
Default : Нет
Forced : Нет

Аудио #8
Идентификатор : 9
Формат : AC-3
Формат/Информация : Audio Coding 3
Коммерческое название : Dolby Digital
Идентификатор кодека : A_AC3
Продолжительность : 1 ч. 40 м.
Вид битрейта : Постоянный
Битрейт : 448 Кбит/сек
Каналы : 6 каналов
Channel layout : L R C LFE Ls Rs
Частота : 48,0 КГц
Частота кадров : 31,250 кадров/сек (1536 SPF)
Метод сжатия : С потерями
Размер потока : 323 Мбайт (4%)
Язык : French
Service kind : Complete Main
Default : Нет
Forced : Нет

Текст #1
Идентификатор : 10
Формат : UTF-8
Идентификатор кодека : S_TEXT/UTF8
Идентификатор кодека/Информация : UTF-8 Plain Text
Продолжительность : 1 ч. 32 м.
Битрейт : 74 бит/сек
Count of elements : 925
Размер потока : 50,4 Кбайт (0%)
Заголовок : RUS Stroev SRT/UTF8
Язык : Russian
Default : Нет
Forced : Нет

Текст #2
Идентификатор : 11
Формат : UTF-8
Идентификатор кодека : S_TEXT/UTF8
Идентификатор кодека/Информация : UTF-8 Plain Text
Продолжительность : 20 с. 167 мс.
Битрейт : 34 бит/сек
Count of elements : 4
Размер потока : 88,0 байт (0%)
Заголовок : ENG forced SRT/UTF8
Язык : English
Default : Нет
Forced : Нет

Текст #3
Идентификатор : 12
Формат : UTF-8
Идентификатор кодека : S_TEXT/UTF8
Идентификатор кодека/Информация : UTF-8 Plain Text
Продолжительность : 1 ч. 39 м.
Битрейт : 35 бит/сек
Count of elements : 1004
Размер потока : 25,9 Кбайт (0%)
Заголовок : ENG SRT/UTF8
Язык : English
Default : Нет
Forced : Нет

Меню
00:00:00.000 : en:Police
00:08:17.250 : en:Mr Woo's Ready
00:13:15.208 : en:Freeze!
00:25:04.167 : en:The Operation Starts Tonight
00:34:50.500 : en:You Got the Wrong Man
00:43:22.458 : en:Drop the Phone
00:51:24.083 : en:Grab Him!
00:59:23.667 : en:Proceed With Evacuation
01:08:00.625 : en:Let's Go
01:14:30.458 : en:Where's the Party?
01:23:01.333 : en:He is Mine
01:33:33.250 : en:Credits
Загрузка...Cкриншот1 13-й район: Ультиматум / Banlieue 13 Ultimatum (2009) BDRip 1080p [HEVC] 10 bit от OldGamer (RG RIPS CLUB)Загрузка...Cкриншот2 13-й район: Ультиматум / Banlieue 13 Ultimatum (2009) BDRip 1080p [HEVC] 10 bit от OldGamer (RG RIPS CLUB)Загрузка...Cкриншот3 13-й район: Ультиматум / Banlieue 13 Ultimatum (2009) BDRip 1080p [HEVC] 10 bit от OldGamer (RG RIPS CLUB)Загрузка...Cкриншот4 13-й район: Ультиматум / Banlieue 13 Ultimatum (2009) BDRip 1080p [HEVC] 10 bit от OldGamer (RG RIPS CLUB)
Релиз-группа: RIPS CLUB
Сэмпл Торрент🧲 Магнет

Рейтинги КП и IMDB, кнопки "Позвать в чате" и "Спасибо", а также мультитрекерная статистика сидов и пиров доступны только зарегистрированным/авторизованным пользователям!

Файлы: 1
  • 13-й.район.Ультиматум.Banlieue.13.Ultimatum.2009.BDRip-HEVC.1080p.mkv   7.99 ГБ
Поблагодарили: 9
alexyak, D16T, donadar, Godspeed, Kiran, makss333, Nuclear70, Rezident, StarLord
OldGamer
130507.99 ГБ

Добавление нового комментария

Добавление комментариев доступно только зарегистрированным/авторизованным пользователям.
Аватар не указан
  donadar  
Спасибо за украинские дорожки!