💬 Мини-чат

BrooklynOldGamer, Ок, спасибо, качаю.
OldGamerBrooklyn, они все на раздаче пока что
BrooklynOldGamer, Пораздавайте, пожалуйста, все сезоны сериала "Гримм" ближайшие 3 дня, очень хочу их забрать. Качество отличное. Заранее Благодарен.
StarLordСообщение удалено (удалил: StarLord)
OldGamerвыводить
mafo2Admin, можно вывести, наглядно будет
StarLordAdmin, +
AdminНадпись HDR выводить на обложку?
OldGamerGiggalo, но лучше всего вообще не затрагивайте этот ключ, по умолчанию будет установлено оптимальное значение
OldGamerGiggalo, но если уж очень хочется то пишите --frame-threads 3
OldGamerGiggalo, а зачем его менять?) нужное значение устанавливается автоматически
GiggaloДобрый вечер всем! OldGamer Покажи пожалуйста почему когда пишу в командной строке frame-threads=3 он не меняется. Какой там стоит 13 он его и держит, а ругие установки спокойно меняет?
AdminStarLord, спасибо. Пока сойдет.
StarLordAdmin, ага, вижу
StarLordAdmin, а как должно брать?
AdminStarLord, ты шаришь?
AdminStarLord, у меня сейчас такая, но с точками беда. Доработать бы (https?://([-\w\.]+)+(:\d+)?(/([-\w/_:%]*(\.\w+)*(\?\S+)?)?)?)
AdminStarLord, скрины в bb некорректно берет
StarLordwww, ftp(s), http(s), #, :, &
StarLordAdmin, все мои кейсы покрыла
  • OldGamer
  • DKV
  • InSpector
  • moonson
Отправка сообщений доступна только зарегистрированным/авторизованным пользователям.
Онлайн (за 10 мин.): 4

Битва за планету обезьян / Battle for the Planet of the Apes (1973) [Theatrical Cut] BDRip 1080p [HEVC] 10 bit от -Star-Lord- (RG RIPS CLUB)

HEVC
10 bit
Обложка Битва за планету обезьян / Battle for the Planet of the Apes (1973) [Theatrical Cut] BDRip 1080p [HEVC] 10 bit от -Star-Lord- (RG RIPS CLUB) Год: 1973
Страна: США
Студия: 20th Century Fox Film Corporation, Apjac International
Жанр: Фантастика, Боевик
Продолжительность: 01:26:32

Режиссер: Дж. Ли Томпсон
В ролях: Родди МакДауэлл, Клод Экинс, Натали Транди, Северн Дарден, Лью Эйрз, Джон Хьюстон, Пол Уильямс, Остин Стокер, Ной Кин, Ричард Истхэм

Описание: Все новые и новые опасности приносит как людям, так и обезьянам будущее. На карту поставлена сама возможность существования этих биологических видов. И уже всем становится понятно, что только совместные усилия и выход на новый уровень взаимодействия дадут шанс планете в надвигающейся череде катастроф...


Видео: 1920x812, ~8327 Кбит/сек
Аудио1: AC3, 6 ch, 448 Kbps - РусскийРусский, Многоголосый (Омикрон)
Аудио2: AC3, 6 ch, 448 Kbps - УкраинскийУкраинский, Двухголосый (КІНО)
Аудио3: AC3, 6 ch, 640 Kbps - АнглийскийАнглийский, Оригинал
Субтитры: Английские

Как за пару секунд удалить ненужные аудиодорожки и субтитры (Внимание! После удаления вы не сможете поддержать раздачу)

Лог (x265 info)
x265 [info]: frame I: 1032, Avg QP:17.68 kb/s: 19414.65
x265 [info]: frame P: 20030, Avg QP:18.96 kb/s: 13613.42
x265 [info]: frame B: 103424, Avg QP:20.84 kb/s: 7191.63
x265 [info]: Weighted P-Frames: Y:19.0% UV:15.6%
x265 [info]: Weighted B-Frames: Y:18.0% UV:12.1%
x265 [info]: consecutive B-frames: 6.4% 1.7% 3.1% 25.0% 8.7% 19.8% 6.3% 18.3% 3.3% 1.8% 0.9% 3.0% 0.4% 0.2% 0.1% 0.8% 0.2%

encoded 124486 frames in 257135.28s (0.48 fps), 8326.24 kb/s, Avg QP:20.52
Медиаинфо
General
Unique ID : 217358827011979632236313567241019955096 (0xA385C9908D18E3E6C4725D7FE4619798)
Complete name : Battle for the Planet of the Apes (1973) [Theatrical Cut] BDRip 1080p H.265 [RUS_UKR_ENG] [RIPS-CLUB].mkv
Format : Matroska
Format version : Version 4
File size : 5.97 GiB
Duration : 1 h 26 min
Overall bit rate : 9 870 kb/s
Movie name : Битва за планету обезьян / Битва за планету Мавп / Battle for the Planet of the Apes (1973) [Theatrical Cut]
Encoded date : UTC 2021-02-05 11:05:39
Writing application : mkvmerge v20.0.0 ('I Am The Sun') 64-bit
Writing library : libebml v1.3.5 + libmatroska v1.4.8
Cover : Yes
Attachments : Cover.png

Video
ID : 1
Format : HEVC
Format/Info : High Efficiency Video Coding
Format profile : Main 10@L4.1@High
Codec ID : V_MPEGH/ISO/HEVC
Duration : 1 h 26 min
Bit rate : 8 327 kb/s
Width : 1 920 pixels
Height : 812 pixels
Display aspect ratio : 2.35:1
Frame rate mode : Constant
Frame rate : 23.976 (24000/1001) FPS
Color space : YUV
Chroma subsampling : 4:2:0
Bit depth : 10 bits
Bits/(Pixel*Frame) : 0.223
Stream size : 5.03 GiB (84%)
Title : Битва за планету обезьян / Битва за планету Мавп / Battle for the Planet of the Apes (1973) [Theatrical Cut]
Writing library : x265 3.4+12-g9103319fc:[Windows][GCC 10.2.0][64 bit] 10bit
Encoding settings : cpuid=1111039 / frame-threads=3 / numa-pools=12 / wpp / no-pmode / no-pme / no-psnr / no-ssim / log-level=2 / input-csp=1 / input-res=1920x812 / interlace=0 / total-frames=124486 / level-idc=41 / high-tier=1 / uhd-bd=0 / ref=5 / no-allow-non-conformance / no-repeat-headers / annexb / no-aud / no-hrd / info / hash=0 / no-temporal-layers / open-gop / min-keyint=23 / keyint=240 / gop-lookahead=0 / bframes=16 / b-adapt=2 / b-pyramid / bframe-bias=0 / rc-lookahead=60 / lookahead-slices=0 / scenecut=40 / hist-scenecut=0 / radl=0 / no-splice / no-intra-refresh / ctu=32 / min-cu-size=8 / rect / amp / max-tu-size=32 / tu-inter-depth=4 / tu-intra-depth=4 / limit-tu=0 / rdoq-level=2 / dynamic-rd=0.00 / no-ssim-rd / signhide / tskip / nr-intra=0 / nr-inter=0 / no-constrained-intra / no-strong-intra-smoothing / max-merge=5 / limit-refs=0 / no-limit-modes / me=3 / subme=7 / merange=57 / temporal-mvp / no-frame-dup / no-hme / weightp / weightb / no-analyze-src-pics / deblock=-3:-3 / no-sao / no-sao-non-deblock / rd=6 / selective-sao=0 / no-early-skip / no-rskip / no-fast-intra / no-tskip-fast / no-cu-lossless / no-b-intra / no-splitrd-skip / rdpenalty=0 / psy-rd=2.00 / psy-rdoq=1.00 / no-rd-refine / no-lossless / cbqpoffs=0 / crqpoffs=0 / rc=crf / crf=20.0 / qcomp=0.65 / qpstep=4 / stats-write=0 / stats-read=0 / vbv-maxrate=50000 / vbv-bufsize=50000 / vbv-init=0.9 / crf-max=0.0 / crf-min=0.0 / ipratio=1.40 / pbratio=1.30 / aq-mode=1 / aq-strength=1.00 / no-cutree / zone-count=0 / no-strict-cbr / qg-size=32 / no-rc-grain / qpmax=69 / qpmin=0 / no-const-vbv / sar=1 / overscan=0 / videoformat=5 / range=0 / colorprim=1 / transfer=1 / colormatrix=1 / chromaloc=0 / display-window=0 / cll=0,0 / min-luma=0 / max-luma=1023 / log2-max-poc-lsb=8 / vui-timing-info / vui-hrd-info / slices=1 / no-opt-qp-pps / no-opt-ref-list-length-pps / no-multi-pass-opt-rps / scenecut-bias=0.05 / hist-threshold=0.01 / no-opt-cu-delta-qp / no-aq-motion / no-hdr10 / no-hdr10-opt / no-dhdr10-opt / no-idr-recovery-sei / analysis-reuse-level=0 / analysis-save-reuse-level=0 / analysis-load-reuse-level=0 / scale-factor=0 / refine-intra=0 / refine-inter=0 / refine-mv=1 / refine-ctu-distortion=0 / no-limit-sao / ctu-info=0 / no-lowpass-dct / refine-analysis-type=0 / copy-pic=1 / max-ausize-factor=1.0 / no-dynamic-refine / no-single-sei / no-hevc-aq / no-svt / no-field / qp-adaptation-range=1.00 / no-scenecut-aware-qpconformance-window-offsets / right=0 / bottom=0 / decoder-max-rate=0
Default : Yes
Forced : No
Color range : Limited
Color primaries : BT.709
Transfer characteristics : BT.709
Matrix coefficients : BT.709

Audio #1
ID : 2
Format : AC-3
Format/Info : Audio Coding 3
Commercial name : Dolby Digital
Codec ID : A_AC3
Duration : 1 h 26 min
Bit rate mode : Constant
Bit rate : 448 kb/s
Channel(s) : 6 channels
Channel layout : L R C LFE Ls Rs
Sampling rate : 48.0 kHz
Frame rate : 31.250 FPS (1536 SPF)
Compression mode : Lossy
Stream size : 277 MiB (5%)
Title : AC-3 / 5.1 Ch / 448 kbps / MVO / Омикрон
Language : Russian
Service kind : Complete Main
Default : Yes
Forced : Yes

Audio #2
ID : 3
Format : AC-3
Format/Info : Audio Coding 3
Commercial name : Dolby Digital
Codec ID : A_AC3
Duration : 1 h 26 min
Bit rate mode : Constant
Bit rate : 448 kb/s
Channel(s) : 6 channels
Channel layout : L R C LFE Ls Rs
Sampling rate : 48.0 kHz
Frame rate : 31.250 FPS (1536 SPF)
Compression mode : Lossy
Stream size : 277 MiB (5%)
Title : AC-3 / 5.1 Ch / 448 kbps / DVO / KINO
Language : Ukrainian
Service kind : Complete Main
Default : No
Forced : No

Audio #3
ID : 4
Format : AC-3
Format/Info : Audio Coding 3
Commercial name : Dolby Digital
Codec ID : A_AC3
Duration : 1 h 26 min
Bit rate mode : Constant
Bit rate : 640 kb/s
Channel(s) : 6 channels
Channel layout : L R C LFE Ls Rs
Sampling rate : 48.0 kHz
Frame rate : 31.250 FPS (1536 SPF)
Compression mode : Lossy
Stream size : 396 MiB (6%)
Title : AC-3 / 5.1 Ch / 640 kbps / Original
Language : English
Service kind : Complete Main
Default : No
Forced : No

Text
ID : 5
Format : UTF-8
Codec ID : S_TEXT/UTF8
Codec ID/Info : UTF-8 Plain Text
Duration : 1 h 25 min
Bit rate : 42 b/s
Count of elements : 1039
Stream size : 26.7 KiB (0%)
Title : Full
Language : English
Default : No
Forced : No

Menu
00:00:00.000 : en:The Lawgiver
00:04:47.453 : en:Main Titles
00:08:57.703 : en:Ape Shall Never Kill Ape
00:10:52.068 : en:The Unspeakable
00:15:46.695 : en:Pessimist or Prophet?
00:20:45.577 : en:Self-Protection
00:23:40.585 : en:Joiurney to the Dead City
00:26:48.982 : en:Intruder Alert
00:30:15.438 : en:The Archives
00:35:37.426 : en:Under Fire
00:38:24.635 : en:Narrow Escape
00:42:51.610 : en:Spies in the City
00:44:06.769 : en:Meeting of the Council
00:48:15.809 : en:Preparing for War
00:49:25.295 : en:The Plot Against Ceasar
00:53:54.481 : en:Mutants on the March
00:58:15.742 : en:Aldo's Orders
01:03:03.654 : en:As Tall As a King
01:04:42.211 : en:The Mutants Attack
01:12:24.298 : en:"Now, Fight Like Apes!"
01:15:57.135 : en:No Prisoners
01:16:45.642 : en:"Ape Has Killed Ape"
01:22:34.908 : en:Building the Future
01:25:34.921 : en:End Titles
Загрузка...Cкриншот1 Битва за планету обезьян / Battle for the Planet of the Apes (1973) [Theatrical Cut] BDRip 1080p [HEVC] 10 bit от -Star-Lord- (RG RIPS CLUB)Загрузка...Cкриншот2 Битва за планету обезьян / Battle for the Planet of the Apes (1973) [Theatrical Cut] BDRip 1080p [HEVC] 10 bit от -Star-Lord- (RG RIPS CLUB)Загрузка...Cкриншот3 Битва за планету обезьян / Battle for the Planet of the Apes (1973) [Theatrical Cut] BDRip 1080p [HEVC] 10 bit от -Star-Lord- (RG RIPS CLUB)Загрузка...Cкриншот4 Битва за планету обезьян / Battle for the Planet of the Apes (1973) [Theatrical Cut] BDRip 1080p [HEVC] 10 bit от -Star-Lord- (RG RIPS CLUB)
Релиз-группа: RIPS CLUB
Сэмпл Торрент🧲 Магнет

Рейтинги КП и IMDB, кнопки "Позвать в чате" и "Спасибо", а также мультитрекерная статистика сидов и пиров доступны только зарегистрированным/авторизованным пользователям!

Файлы: 1
  • Battle for the Planet of the Apes (1973) [Theatrical Cut] BDRip 1080p H.265 [RUS_UKR_ENG] [RIPS-CLUB].mkv   5.97 ГБ
Поблагодарили: 3
donadar, HANNIBAL, NoMaD
StarLord
213505.97 ГБ

Добавление нового комментария

Добавление комментариев доступно только зарегистрированным/авторизованным пользователям.
Аватар StarLord
  StarLord  (Отредактировал StarLord)    
OldGamer писал(а):
Информация в оформлении на руторе не всегда правильная, особенно на древних раздачах, где уже и картинки то не прогружаются. В любом случае лучше брать с нуля с кинопоиска.
Смотрю, ты уже поправил. Спасибо. Замечание понял
Аватар OldGamer
  OldGamer  
Информация в оформлении на руторе не всегда правильная, особенно на древних раздачах, где уже и картинки то не прогружаются. В любом случае лучше брать с нуля с кинопоиска.