💬 Мини-чат

ADVOKAT69michael90, 👍без проблем!пожалуйста!
michael90ADVOKAT69, большое спасибо😎
ADVOKAT69michael90, раздаю
michael90Раздайте, пожалуйста, Джентльмены удачи (1971) BDRip 1080p [HEVC] 10 bit от ADVOKAT69
StarLordOldGamer, немного уменьшил список :)
OldGamerСкоро вся первая страница будет состоять из публикаций "Скоро" 😂
Adminzzzlayasss, сделайте скриншоты вкладок с хэш-суммой и трекерами и мне в приват или в ЛС
Adminzzzlayasss, в Вашем профиле я вообще не вижу, чтобы Вы это качали, так что мы даже не уверены, что Вы скачивали торрент-файл именно у нас.
OldGamerох уж в 2022 то году думать, что торренты скачиваются с сайта...
zzzlayasssСообщение удалено (удалил: zzzlayasss)
zzzlayasssOldGamer, у меня потери - 0, что тут разбирать?
OldGamerс моей стороны трассировка до пользователей саркор-телеком проходит успешно, так что разберитесь с принципом работы торрентов и ищите решение на своей стороне
OldGamerzzzlayasss, дело хозяйское
zzzlayasssOldGamer, Ни с железом, ни со скоростью интернета у меня нет проблем. Сейчас поставил на закачку релиз от ктулху, он в два раза меньше, но уже половина скачано, если докачаю быстрее 16-ти ваших мегабайт, то буду избавляться от вашего 11,66 гигового вашего, всё настроение испоганено такой долгой закачкой.
OldGamerzzzlayasss, у меня нет никаких проблем
zzzlayasssЛюди добрые, обьясните мне, я реально не понимаю, вчера поставил на закачку два фильма, РЭД и РЭД-2, второй фильм скачался буквально за каких-то пол часа, но вот с фильмом РЭД у меня какие-то немыслимые качели, или у релизера проблемы с файлом и он мне не может раздать последние 16 мегабайт, или он просто издевается, объясните мне пожалуйста, что тут реально происходит.
zzzlayasssСообщение удалено (удалил: zzzlayasss)
zzzlayasssОсталось докачать 16 мегабайт, но я уже почти сутки сижу и жду.
zzzlayasssРаздайте, пожалуйста, РЭД / RED (2010) BDRip 1080p [HEVC] 10 bit от OldGamer (RG RIPS CLUB)
zzzlayasssРаздайте, пожалуйста, РЭД / RED (2010) BDRip 1080p [HEVC] 10 bit от OldGamer (RG RIPS CLUB)
  • Brooklyn
  • KEYS
Отправка сообщений доступна только зарегистрированным/авторизованным пользователям.
Онлайн (за 10 мин.): 2

Бременские музыканты (1969-1973) BDRip 1080p [HEVC] 10 bit от ADVOKAT69

HEVC
10 bit
Обложка Бременские музыканты (1969-1973) BDRip 1080p [HEVC] 10 bit от ADVOKAT69 Год: 1969-1973
Страна: СССР
Студия: Союзмультфильм
Жанр: Мультфильм, Короткометражка, Детский, Семейный

1. Бременские музыканты (1969) BDRip 1080p [HEVC] 10 bit от ADVOKAT69
HEVC
10 bit
Обложка Бременские музыканты (1969) BDRip 1080p [HEVC] 10 bit от ADVOKAT69 Год: 1969
Страна: СССР
Жанр: Мультфильм, Короткометражка, Семейный
Продолжительность: 00:20:32

Режиссер: Инесса Ковалевская
В ролях: Олег Анофриев, Эльмира Жерздева, Анатолий Горохов

Описание: Музыкальная фантазия, любимая не одним поколением зрителей, о необыкновенных, очень опасных и веселых приключениях бременских музыкантов: Трубадура, кота, собаки, петуха и осла. Музыканты путешествуют по Германии времен братьев Гримм и поют вполне современные песни. Время от времени совершают подвиги. Все было хорошо, но во время одного циркового представления приглянулась нашему герою принцесса…


Исходник: Blu-Ray
Видео: 1440x1080, 10,6 Мбит/сек
Аудио: АС3, 6 ch, 448 Kbps - РусскийРусский, Оригинал (Лицензия)
Субтитры: нет

Лог (x265 info)
x265 [info]: frame I: 224, Avg QP:18.12 kb/s: 43606.73
x265 [info]: frame P: 9191, Avg QP:19.92 kb/s: 23884.75
x265 [info]: frame B: 21392, Avg QP:21.93 kb/s: 4615.68
x265 [info]: Weighted P-Frames: Y:44.2% UV:37.3%
x265 [info]: Weighted B-Frames: Y:33.0% UV:23.2%
x265 [info]: consecutive B-frames: 15.5% 15.1% 14.6% 43.5% 6.2% 4.1% 0.6% 0.3% 0.1% 0.1%

encoded 30807 frames in 19679.74s (1.57 fps), 10647.95 kb/s, Avg QP:21.30
Медиаинфо
Общее
Уникальный идентификатор : 214662297872363624653294307947458686470 (0xA17E7469DCD63B7EB530FE7F41ED6E06)
Полное имя : D:\Бременские музыканты\Бременские музыканты (1969).mkv
Формат : Matroska
Версия формата : Version 4
Размер файла : 1,59 Гбайт
Продолжительность : 20 м. 32 с.
Общий поток : 11,1 Мбит/сек
Дата кодирования : UTC 2021-02-10 06:54:42
Программа кодирования : mkvmerge v9.2.0 ('Photograph') 64bit
Библиотека кодирования : libebml v1.3.3 + libmatroska v1.4.4

Видео
Идентификатор : 1
Формат : HEVC
Формат/Информация : High Efficiency Video Coding
Профиль формата : Main 10@L4.1@High
Идентификатор кодека : V_MPEGH/ISO/HEVC
Продолжительность : 20 м. 32 с.
Битрейт : 10,6 Мбит/сек
Ширина : 1 440 пикселей
Высота : 1 080 пикселей
Соотношение сторон : 4:3
Режим частоты кадров : Постоянный
Частота кадров : 25,000 кадров/сек
Цветовое пространство : YUV
Субдискретизация насыщенности : 4:2:0
Битовая глубина : 10 бит
Бит/(Пиксели*Кадры) : 0.274
Размер потока : 1,53 Гбайт (96%)
Библиотека кодирования : x265 3.4+12-g9103319fc:[Windows][MSVC 1927][64 bit] 10bit
Настройки программы : cpuid=1049583 / frame-threads=3 / numa-pools=8 / wpp / no-pmode / no-pme / no-psnr / no-ssim / log-level=2 / input-csp=1 / input-res=1440x1080 / interlace=0 / total-frames=30807 / level-idc=41 / high-tier=1 / uhd-bd=0 / ref=5 / no-allow-non-conformance / no-repeat-headers / annexb / no-aud / no-hrd / info / hash=0 / no-temporal-layers / open-gop / min-keyint=24 / keyint=240 / gop-lookahead=0 / bframes=9 / b-adapt=2 / b-pyramid / bframe-bias=0 / rc-lookahead=40 / lookahead-slices=4 / scenecut=40 / hist-scenecut=0 / radl=0 / no-splice / no-intra-refresh / ctu=32 / min-cu-size=8 / rect / no-amp / max-tu-size=32 / tu-inter-depth=1 / tu-intra-depth=1 / limit-tu=0 / rdoq-level=2 / dynamic-rd=0.00 / no-ssim-rd / signhide / no-tskip / nr-intra=0 / nr-inter=0 / constrained-intra / strong-intra-smoothing / max-merge=3 / limit-refs=3 / limit-modes / me=3 / subme=7 / merange=57 / temporal-mvp / no-frame-dup / no-hme / weightp / weightb / no-analyze-src-pics / deblock=0:0 / no-sao / no-sao-non-deblock / rd=4 / selective-sao=0 / no-early-skip / rskip / no-fast-intra / no-tskip-fast / no-cu-lossless / b-intra / no-splitrd-skip / rdpenalty=0 / psy-rd=1.50 / psy-rdoq=0.70 / no-rd-refine / no-lossless / cbqpoffs=0 / crqpoffs=0 / rc=crf / crf=18.0 / qcomp=0.60 / qpstep=4 / stats-write=0 / stats-read=0 / vbv-maxrate=50000 / vbv-bufsize=50000 / vbv-init=0.9 / crf-max=0.0 / crf-min=0.0 / ipratio=1.40 / pbratio=1.30 / aq-mode=2 / aq-strength=0.80 / no-cutree / zone-count=0 / no-strict-cbr / qg-size=32 / no-rc-grain / qpmax=69 / qpmin=0 / no-const-vbv / sar=1 / overscan=0 / videoformat=5 / range=0 / colorprim=1 / transfer=1 / colormatrix=1 / chromaloc=0 / display-window=0 / cll=0,0 / min-luma=0 / max-luma=1023 / log2-max-poc-lsb=8 / vui-timing-info / vui-hrd-info / slices=1 / no-opt-qp-pps / no-opt-ref-list-length-pps / no-multi-pass-opt-rps / scenecut-bias=0.05 / hist-threshold=0.01 / no-opt-cu-delta-qp / no-aq-motion / no-hdr10 / no-hdr10-opt / no-dhdr10-opt / no-idr-recovery-sei / analysis-reuse-level=0 / analysis-save-reuse-level=0 / analysis-load-reuse-level=0 / scale-factor=0 / refine-intra=0 / refine-inter=0 / refine-mv=1 / refine-ctu-distortion=0 / no-limit-sao / ctu-info=0 / no-lowpass-dct / refine-analysis-type=0 / copy-pic=1 / max-ausize-factor=1.0 / no-dynamic-refine / no-single-sei / no-hevc-aq / no-svt / no-field / qp-adaptation-range=1.00 / no-scenecut-aware-qpconformance-window-offsets / right=0 / bottom=0 / decoder-max-rate=0
Default : Да
Forced : Нет
Цветовой диапазон : Limited
Основные цвета : BT.709
Характеристики трансфера : BT.709
Коэффициенты матрицы : BT.709

Аудио
Идентификатор : 2
Формат : AC-3
Формат/Информация : Audio Coding 3
Коммерческое название : Dolby Digital
Идентификатор кодека : A_AC3
Продолжительность : 20 м. 32 с.
Вид битрейта : Постоянный
Битрейт : 448 Кбит/сек
Каналы : 6 каналов
Channel layout : L R C LFE Ls Rs
Частота : 48,0 КГц
Частота кадров : 31,250 кадров/сек (1536 SPF)
Метод сжатия : С потерями
Размер потока : 65,8 Мбайт (4%)
Заголовок : Русский BD
Service kind : Complete Main
Default : Да
Forced : Нет
Загрузка...Cкриншот1 Бременские музыканты (1969) BDRip 1080p [HEVC] 10 bit от ADVOKAT69Загрузка...Cкриншот2 Бременские музыканты (1969) BDRip 1080p [HEVC] 10 bit от ADVOKAT69Загрузка...Cкриншот3 Бременские музыканты (1969) BDRip 1080p [HEVC] 10 bit от ADVOKAT69Загрузка...Cкриншот4 Бременские музыканты (1969) BDRip 1080p [HEVC] 10 bit от ADVOKAT69
Сэмпл
2. По следам Бременских музыкантов (1973) BDRip 1080p [HEVC] 10 bit от ADVOKAT69
HEVC
10 bit
Обложка По следам Бременских музыкантов (1973) BDRip 1080p [HEVC] 10 bit от ADVOKAT69 Год: 1973
Страна: СССР
Жанр: Мультфильм, Короткометражка, Семейный
Продолжительность: 00:18:37

Режиссер: Инесса Ковалевская
В ролях: Олег Анофриев, Муслим Магомаев, Эльмира Жерздева, Анатолий Горохов

Описание: Король, желая вернуть во дворец свою дочь, нанимает опытного сыщика, который успешно выполняет задание. Но Трубадур и его верные друзья — осёл, пёс, кот и петух — спешат вызволить принцессу из золотой клетки.


Исходник: Blu-Ray
Видео: 1440x1080, 6 733 Kbps
Аудио: АС3, 6 ch, 448 Kbps - РусскийРусский, Оригинал (Лицензия)
Субтитры: нет

Лог (x265 info)
x265 [info]: frame I: 215, Avg QP:17.10 kb/s: 26562.44
x265 [info]: frame P: 8136, Avg QP:18.83 kb/s: 15679.11
x265 [info]: frame B: 19599, Avg QP:21.46 kb/s: 2800.93
x265 [info]: Weighted P-Frames: Y:10.1% UV:7.6%
x265 [info]: Weighted B-Frames: Y:2.7% UV:1.9%
x265 [info]: consecutive B-frames: 12.6% 14.2% 13.2% 49.9% 6.8% 2.7% 0.2% 0.3%

encoded 27950 frames in 15520.46s (1.80 fps), 6732.44 kb/s, Avg QP:20.66
Медиаинфо
Общее
Уникальный идентификатор : 186258893796937415432189437023556847244 (0x8C2028790ED0049A91B211DF6789C68C)
Полное имя : D:\Бременские музыканты\По следам Бременских музыкантов (1973).mkv
Формат : Matroska
Версия формата : Version 4
Размер файла : 957 Мбайт
Продолжительность : 18 м. 38 с.
Общий поток : 7 183 Кбит/сек
Дата кодирования : UTC 2021-02-10 12:18:08
Программа кодирования : mkvmerge v9.2.0 ('Photograph') 64bit
Библиотека кодирования : libebml v1.3.3 + libmatroska v1.4.4

Видео
Идентификатор : 1
Формат : HEVC
Формат/Информация : High Efficiency Video Coding
Профиль формата : Main 10@L4.1@High
Идентификатор кодека : V_MPEGH/ISO/HEVC
Продолжительность : 18 м. 38 с.
Битрейт : 6 733 Кбит/сек
Ширина : 1 440 пикселей
Высота : 1 080 пикселей
Соотношение сторон : 4:3
Режим частоты кадров : Постоянный
Частота кадров : 25,000 кадров/сек
Цветовое пространство : YUV
Субдискретизация насыщенности : 4:2:0
Битовая глубина : 10 бит
Бит/(Пиксели*Кадры) : 0.173
Размер потока : 897 Мбайт (94%)
Библиотека кодирования : x265 3.4+12-g9103319fc:[Windows][MSVC 1927][64 bit] 10bit
Настройки программы : cpuid=1049583 / frame-threads=3 / numa-pools=8 / wpp / no-pmode / no-pme / no-psnr / no-ssim / log-level=2 / input-csp=1 / input-res=1440x1080 / interlace=0 / total-frames=27950 / level-idc=41 / high-tier=1 / uhd-bd=0 / ref=5 / no-allow-non-conformance / no-repeat-headers / annexb / no-aud / no-hrd / info / hash=0 / no-temporal-layers / open-gop / min-keyint=24 / keyint=240 / gop-lookahead=0 / bframes=7 / b-adapt=2 / b-pyramid / bframe-bias=0 / rc-lookahead=40 / lookahead-slices=4 / scenecut=40 / hist-scenecut=0 / radl=0 / no-splice / no-intra-refresh / ctu=32 / min-cu-size=8 / rect / no-amp / max-tu-size=32 / tu-inter-depth=1 / tu-intra-depth=1 / limit-tu=0 / rdoq-level=2 / dynamic-rd=0.00 / no-ssim-rd / signhide / no-tskip / nr-intra=0 / nr-inter=0 / constrained-intra / strong-intra-smoothing / max-merge=3 / limit-refs=3 / limit-modes / me=3 / subme=7 / merange=57 / temporal-mvp / no-frame-dup / no-hme / weightp / weightb / no-analyze-src-pics / deblock=0:0 / no-sao / no-sao-non-deblock / rd=4 / selective-sao=0 / no-early-skip / rskip / no-fast-intra / no-tskip-fast / no-cu-lossless / b-intra / no-splitrd-skip / rdpenalty=0 / psy-rd=1.50 / psy-rdoq=0.70 / no-rd-refine / no-lossless / cbqpoffs=0 / crqpoffs=0 / rc=crf / crf=18.5 / qcomp=0.60 / qpstep=4 / stats-write=0 / stats-read=0 / vbv-maxrate=50000 / vbv-bufsize=50000 / vbv-init=0.9 / crf-max=0.0 / crf-min=0.0 / ipratio=1.40 / pbratio=1.30 / aq-mode=2 / aq-strength=0.80 / no-cutree / zone-count=0 / no-strict-cbr / qg-size=32 / no-rc-grain / qpmax=69 / qpmin=0 / no-const-vbv / sar=1 / overscan=0 / videoformat=5 / range=0 / colorprim=1 / transfer=1 / colormatrix=1 / chromaloc=0 / display-window=0 / cll=0,0 / min-luma=0 / max-luma=1023 / log2-max-poc-lsb=8 / vui-timing-info / vui-hrd-info / slices=1 / no-opt-qp-pps / no-opt-ref-list-length-pps / no-multi-pass-opt-rps / scenecut-bias=0.05 / hist-threshold=0.01 / no-opt-cu-delta-qp / no-aq-motion / no-hdr10 / no-hdr10-opt / no-dhdr10-opt / no-idr-recovery-sei / analysis-reuse-level=0 / analysis-save-reuse-level=0 / analysis-load-reuse-level=0 / scale-factor=0 / refine-intra=0 / refine-inter=0 / refine-mv=1 / refine-ctu-distortion=0 / no-limit-sao / ctu-info=0 / no-lowpass-dct / refine-analysis-type=0 / copy-pic=1 / max-ausize-factor=1.0 / no-dynamic-refine / no-single-sei / no-hevc-aq / no-svt / no-field / qp-adaptation-range=1.00 / no-scenecut-aware-qpconformance-window-offsets / right=0 / bottom=0 / decoder-max-rate=0
Default : Да
Forced : Нет
Цветовой диапазон : Limited
Основные цвета : BT.709
Характеристики трансфера : BT.709
Коэффициенты матрицы : BT.709

Аудио
Идентификатор : 2
Формат : AC-3
Формат/Информация : Audio Coding 3
Коммерческое название : Dolby Digital
Идентификатор кодека : A_AC3
Продолжительность : 18 м. 38 с.
Вид битрейта : Постоянный
Битрейт : 448 Кбит/сек
Каналы : 6 каналов
Channel layout : L R C LFE Ls Rs
Частота : 48,0 КГц
Частота кадров : 31,250 кадров/сек (1536 SPF)
Метод сжатия : С потерями
Задержка видео : 8 мс.
Размер потока : 59,7 Мбайт (6%)
Заголовок : Русский BD
Service kind : Complete Main
Default : Да
Forced : Нет
Загрузка...Cкриншот1 По следам Бременских музыкантов (1973) BDRip 1080p [HEVC] 10 bit от ADVOKAT69Загрузка...Cкриншот2 По следам Бременских музыкантов (1973) BDRip 1080p [HEVC] 10 bit от ADVOKAT69Загрузка...Cкриншот3 По следам Бременских музыкантов (1973) BDRip 1080p [HEVC] 10 bit от ADVOKAT69Загрузка...Cкриншот4 По следам Бременских музыкантов (1973) BDRip 1080p [HEVC] 10 bit от ADVOKAT69
Сэмпл
Торрент🧲 Магнет

Рейтинги КП и IMDB, кнопки "Позвать в чате" и "Спасибо", а также мультитрекерная статистика доступны только зарегистрированным/авторизованным пользователям!

Файлы: 2
  • Бременские музыканты
    • Бременские музыканты (1969).mkv   1.59 ГБ
    • По следам Бременских музыкантов (1973).mkv   957.35 МБ
Поблагодарили: 10
77carlsson77, Andrey_alex, animen67, antaures, Brooklyn, donadar, makss333, nata, Nuclear70, Temperest
ADVOKAT69
05700 (2)  2.53 ГБ

Добавление нового комментария

Добавление комментариев доступно только зарегистрированным/авторизованным пользователям.