💬 Мини-чат

hunterА, да, и еще и люди, которые думают, что им все должны.
hunterrodina_45, Это все держится на энтузиазме и доброй воле делающих рипы и раздающих. Поэтому если хочется скачать, нужно ПРОСИТЬ, а не возмущатся. Так как либо много скачавших на раздаче, либо винты по 20ТБ . Однако многовато, как для хобби.
AdminПоздравляем всех девушек с международным женским днем! Берегите честь и достоинство. Именно они делают девушку красивой.
HANNIBALADVOKAT69, это не мой хам ))))
AdminПри том, что для нас всех это пока что хобби.
AdminADVOKAT69, некоторые думают, будто своими скачиваниями приносят нам пользу, вот и возмущаются.
ADVOKAT69и здесь хамы появились!с того сайта что-ли?
AdminПоддерживайте раздачи, раз не хотите, чтобы они были мертвы.
Adminrodina_45, зачем нам удалять? Вдруг оживут.
rodina_45какого хера половина torrent просто мертвы удалите их
rodina_45Раздайте, пожалуйста, Царевна-лягушка (1954) BDRip 1080p [HEVC] 10 bit от ADVOKAT69
joker63😪
HANNIBALС ГЛУБОЧАЙШИМИ СКОРБЬЮ И СОЖАЛЕНИЕМ СООБЩАЕМ ВАМ, ЧТО СЕГОДНЯ ОТ ОСЛОЖНЕНИЙ ВИРУСНОЙ ПНЕВМОНИИ, РАЗВИВШЕЙСЯ НА ФОНЕ ТЯЖЁЛОЙ ХРОНИЧЕСКОЙ ОБСТРУКТИВНОЙ БОЛЕЗНИ ЛЁГКИХ, УМЕР ИЗВЕСТНЫЙ АВТОР ВЫСОКО ЦЕНИМЫХ ИГРОВЫХ РЕПАКОВ, ИЗВЕСТНЫЙ В СЕТИ КАК XATAB.. МЫ ВСЕГДА БУДЕМ ПОМНИТЬ ЕГО И ЦЕНИТЬ ЕГО ТРУД.
StarLordAdmin, понял :)
AdminStarLord, можешь оставить. потом переоформишь.
AdminStarLord, либо переоформить на другой рип, либо залить левый торрент и сразу же удалить
StarLordAdmin, сломал систему :)) Как удалить один из анонсов?
XuMuKСообщение удалено (удалил: XuMuK)
Adminjustmkr, надо смотреть трассировку по IP
Adminjustmkr, возможно обрыв в пути.
  • OldGamer
  • anderb
  • NoMaD
  • torrentzulu
Отправка сообщений доступна только зарегистрированным/авторизованным пользователям.
Онлайн (за 10 мин.): 4

Мы из будущего 2 (2010) BDRip 1080p [HEVC] 10 bit от ADVOKAT69

HEVC
10 bit
Обложка Мы из будущего 2 (2010) BDRip 1080p [HEVC] 10 bit от ADVOKAT69 Год: 2010
Страна: Россия
Студия: А-1 Кино Видео
Жанр: Фантастика, Боевик, Приключения, Военный
Продолжительность: 01:41:28

Режиссер: Александр Самохвалов, Борис Ростов
В ролях: Игорь Петренко, Екатерина Климова, Владимир Яглыч, Алексей Барабаш, Дмитрий Ступка, Иван Краско, Дмитрий Дячук, Владислав Резник, Семен Белоцерковский, Денис Карасев

Описание: Они встретились на поле «реконструкции военных событий» и хотели поиграть в войну. Но война решила поиграть с ними... Герои первой части фильма, Борман и Череп, попадают в 1944 год, и вместе с ними в прошлом оказываются еще двое – молодые украинцы Таран и Серый, «игравшие » в войну на другой стороне. Каждый из них совершит свой подвиг, чтобы вернуться домой и сберечь свое и наше Будущее...


Исходник: BluRay
Видео: 1920x816, ~8 938 Кбит/сек
Аудио: DTS, 6 ch, 1509 Kbps - РусскийРусский, Оригинал
Субтитры: Русские (вшитые - на украинскую речь)

Лог (x265 info)
x265 [info]: frame I: 1691, Avg QP:17.78 kb/s: 28686.62
x265 [info]: frame P: 36775, Avg QP:19.34 kb/s: 17999.42
x265 [info]: frame B: 107501, Avg QP:21.17 kb/s: 5526.94
x265 [info]: Weighted P-Frames: Y:7.7% UV:6.3%
x265 [info]: Weighted B-Frames: Y:6.5% UV:5.1%
x265 [info]: consecutive B-frames: 12.5% 10.4% 11.3% 41.2% 8.0% 13.1% 1.4% 1.0% 0.4% 0.5% 0.1%

encoded 145967 frames in 119403.80s (1.22 fps), 8937.56 kb/s, Avg QP:20.67
Медиаинфо
Общее
Уникальный идентификатор : 222310684879839421070982773656329383250 (0xA73F7B01D574AE10A38E0AC01997ED52)
Полное имя : D:\Мы из будущего 2 (2010) HEVC 10bit.mkv
Формат : Matroska
Версия формата : Version 4
Размер файла : 7,41 Гбайт
Продолжительность : 1 ч. 41 м.
Общий поток : 10,4 Мбит/сек
Дата кодирования : UTC 2021-02-13 18:43:46
Программа кодирования : mkvmerge v9.2.0 ('Photograph') 64bit
Библиотека кодирования : libebml v1.3.3 + libmatroska v1.4.4

Видео
Идентификатор : 1
Формат : HEVC
Формат/Информация : High Efficiency Video Coding
Профиль формата : Main 10@L4.1@High
Идентификатор кодека : V_MPEGH/ISO/HEVC
Продолжительность : 1 ч. 41 м.
Битрейт : 8 938 Кбит/сек
Ширина : 1 920 пикселей
Высота : 816 пикселей
Соотношение сторон : 2,35:1
Режим частоты кадров : Постоянный
Частота кадров : 23,976 (24000/1001) кадра/сек
Цветовое пространство : YUV
Субдискретизация насыщенности : 4:2:0
Битовая глубина : 10 бит
Бит/(Пиксели*Кадры) : 0.238
Размер потока : 6,33 Гбайт (86%)
Библиотека кодирования : x265 3.4+12-g9103319fc:[Windows][MSVC 1927][64 bit] 10bit
Настройки программы : cpuid=1049583 / frame-threads=3 / numa-pools=8 / wpp / no-pmode / no-pme / no-psnr / no-ssim / log-level=2 / input-csp=1 / input-res=1920x816 / interlace=0 / total-frames=145967 / level-idc=41 / high-tier=1 / uhd-bd=0 / ref=5 / no-allow-non-conformance / no-repeat-headers / annexb / no-aud / no-hrd / info / hash=0 / no-temporal-layers / open-gop / min-keyint=24 / keyint=240 / gop-lookahead=0 / bframes=10 / b-adapt=2 / b-pyramid / bframe-bias=0 / rc-lookahead=40 / lookahead-slices=4 / scenecut=40 / hist-scenecut=0 / radl=0 / no-splice / no-intra-refresh / ctu=32 / min-cu-size=8 / rect / no-amp / max-tu-size=32 / tu-inter-depth=1 / tu-intra-depth=1 / limit-tu=0 / rdoq-level=2 / dynamic-rd=0.00 / no-ssim-rd / signhide / no-tskip / nr-intra=0 / nr-inter=0 / constrained-intra / strong-intra-smoothing / max-merge=3 / limit-refs=3 / limit-modes / me=3 / subme=7 / merange=57 / temporal-mvp / no-frame-dup / no-hme / weightp / weightb / no-analyze-src-pics / deblock=0:0 / no-sao / no-sao-non-deblock / rd=4 / selective-sao=0 / no-early-skip / rskip / no-fast-intra / no-tskip-fast / no-cu-lossless / b-intra / no-splitrd-skip / rdpenalty=0 / psy-rd=1.50 / psy-rdoq=0.70 / no-rd-refine / no-lossless / cbqpoffs=0 / crqpoffs=0 / rc=crf / crf=18.5 / qcomp=0.60 / qpstep=4 / stats-write=0 / stats-read=0 / vbv-maxrate=50000 / vbv-bufsize=50000 / vbv-init=0.9 / crf-max=0.0 / crf-min=0.0 / ipratio=1.40 / pbratio=1.30 / aq-mode=2 / aq-strength=0.80 / no-cutree / zone-count=0 / no-strict-cbr / qg-size=32 / no-rc-grain / qpmax=69 / qpmin=0 / no-const-vbv / sar=1 / overscan=0 / videoformat=5 / range=0 / colorprim=1 / transfer=1 / colormatrix=1 / chromaloc=0 / display-window=0 / cll=0,0 / min-luma=0 / max-luma=1023 / log2-max-poc-lsb=8 / vui-timing-info / vui-hrd-info / slices=1 / no-opt-qp-pps / no-opt-ref-list-length-pps / no-multi-pass-opt-rps / scenecut-bias=0.05 / hist-threshold=0.01 / no-opt-cu-delta-qp / no-aq-motion / no-hdr10 / no-hdr10-opt / no-dhdr10-opt / no-idr-recovery-sei / analysis-reuse-level=0 / analysis-save-reuse-level=0 / analysis-load-reuse-level=0 / scale-factor=0 / refine-intra=0 / refine-inter=0 / refine-mv=1 / refine-ctu-distortion=0 / no-limit-sao / ctu-info=0 / no-lowpass-dct / refine-analysis-type=0 / copy-pic=1 / max-ausize-factor=1.0 / no-dynamic-refine / no-single-sei / no-hevc-aq / no-svt / no-field / qp-adaptation-range=1.00 / no-scenecut-aware-qpconformance-window-offsets / right=0 / bottom=0 / decoder-max-rate=0
Default : Да
Forced : Нет
Цветовой диапазон : Limited
Основные цвета : BT.709
Характеристики трансфера : BT.709
Коэффициенты матрицы : BT.709

Аудио
Идентификатор : 2
Формат : DTS
Формат/Информация : Digital Theater Systems
Идентификатор кодека : A_DTS
Продолжительность : 1 ч. 41 м.
Вид битрейта : Постоянный
Битрейт : 1 509 Кбит/сек
Каналы : 6 каналов
Channel layout : C L R Ls Rs LFE
Частота : 48,0 КГц
Частота кадров : 93,750 кадра/сек (512 SPF)
Битовая глубина : 16 бит
Метод сжатия : С потерями
Размер потока : 1,07 Гбайт (14%)
Заголовок : Русский BD
Default : Да
Forced : Нет

Меню
00:00:00.000 : en:Chapter 1
00:05:28.911 : en:Chapter 2
00:13:06.327 : en:Chapter 3
00:17:24.334 : en:Chapter 4
00:21:21.822 : en:Chapter 5
00:27:27.979 : en:Chapter 6
00:34:24.854 : en:Chapter 7
00:40:53.075 : en:Chapter 8
00:45:59.131 : en:Chapter 9
00:53:08.602 : en:Chapter 10
00:57:24.983 : en:Chapter 11
01:05:07.528 : en:Chapter 12
01:09:01.262 : en:Chapter 13
01:12:41.565 : en:Chapter 14
01:17:39.988 : en:Chapter 15
01:23:38.888 : en:Chapter 16
01:30:03.272 : en:Chapter 17
01:36:18.689 : en:Chapter 18
Загрузка...Cкриншот1 Мы из будущего 2 (2010) BDRip 1080p [HEVC] 10 bit от ADVOKAT69Загрузка...Cкриншот2 Мы из будущего 2 (2010) BDRip 1080p [HEVC] 10 bit от ADVOKAT69Загрузка...Cкриншот3 Мы из будущего 2 (2010) BDRip 1080p [HEVC] 10 bit от ADVOKAT69Загрузка...Cкриншот4 Мы из будущего 2 (2010) BDRip 1080p [HEVC] 10 bit от ADVOKAT69
Сэмпл Торрент🧲 Магнет

Рейтинги КП и IMDB, кнопки "Позвать в чате" и "Спасибо", а также мультитрекерная статистика сидов и пиров доступны только зарегистрированным/авторизованным пользователям!

Файлы: 1
  • Мы из будущего 2 (2010) HEVC 10bit.mkv   7.41 ГБ
Поблагодарили: 4
makss333, MIGRANT, OldGamer, Spartanec1308
ADVOKAT69
448007.41 ГБ

Добавление нового комментария

Добавление комментариев доступно только зарегистрированным/авторизованным пользователям.
Аватар DjBadan
  DjBadan  
ADVOKAT69 писал(а):
первой на блюрее нет!
эх, жаль, первая куда интереснее, как по мне....
Аватар ADVOKAT69
  ADVOKAT69  
DjBadan писал(а):
спасибо. Найти бы еще первую часть в реж версии и в таком же качестве))
первой на блюрее нет!
Аватар DjBadan
  DjBadan  
спасибо. Найти бы еще первую часть в реж версии и в таком же качестве))
Аватар ADVOKAT69
  ADVOKAT69  
Звуковая дорожка в АС3 --- https://disk.yandex.ua/d/MQkaXY2eTAMthQ