💬 Мини-чат

hunterА, да, и еще и люди, которые думают, что им все должны.
hunterrodina_45, Это все держится на энтузиазме и доброй воле делающих рипы и раздающих. Поэтому если хочется скачать, нужно ПРОСИТЬ, а не возмущатся. Так как либо много скачавших на раздаче, либо винты по 20ТБ . Однако многовато, как для хобби.
AdminПоздравляем всех девушек с международным женским днем! Берегите честь и достоинство. Именно они делают девушку красивой.
HANNIBALADVOKAT69, это не мой хам ))))
AdminПри том, что для нас всех это пока что хобби.
AdminADVOKAT69, некоторые думают, будто своими скачиваниями приносят нам пользу, вот и возмущаются.
ADVOKAT69и здесь хамы появились!с того сайта что-ли?
AdminПоддерживайте раздачи, раз не хотите, чтобы они были мертвы.
Adminrodina_45, зачем нам удалять? Вдруг оживут.
rodina_45какого хера половина torrent просто мертвы удалите их
rodina_45Раздайте, пожалуйста, Царевна-лягушка (1954) BDRip 1080p [HEVC] 10 bit от ADVOKAT69
joker63😪
HANNIBALС ГЛУБОЧАЙШИМИ СКОРБЬЮ И СОЖАЛЕНИЕМ СООБЩАЕМ ВАМ, ЧТО СЕГОДНЯ ОТ ОСЛОЖНЕНИЙ ВИРУСНОЙ ПНЕВМОНИИ, РАЗВИВШЕЙСЯ НА ФОНЕ ТЯЖЁЛОЙ ХРОНИЧЕСКОЙ ОБСТРУКТИВНОЙ БОЛЕЗНИ ЛЁГКИХ, УМЕР ИЗВЕСТНЫЙ АВТОР ВЫСОКО ЦЕНИМЫХ ИГРОВЫХ РЕПАКОВ, ИЗВЕСТНЫЙ В СЕТИ КАК XATAB.. МЫ ВСЕГДА БУДЕМ ПОМНИТЬ ЕГО И ЦЕНИТЬ ЕГО ТРУД.
StarLordAdmin, понял :)
AdminStarLord, можешь оставить. потом переоформишь.
AdminStarLord, либо переоформить на другой рип, либо залить левый торрент и сразу же удалить
StarLordAdmin, сломал систему :)) Как удалить один из анонсов?
XuMuKСообщение удалено (удалил: XuMuK)
Adminjustmkr, надо смотреть трассировку по IP
Adminjustmkr, возможно обрыв в пути.
  • medved2018
Отправка сообщений доступна только зарегистрированным/авторизованным пользователям.
Онлайн (за 10 мин.): 1

Имя розы / Der Name der Rose (1986) BDRip 1080p [HEVC] 10 bit от Mr. Fox

HEVC
10 bit
Обложка Имя розы / Der Name der Rose (1986) BDRip 1080p [HEVC] 10 bit от Mr. Fox Год: 1986
Страна: Германия (ФРГ), Италия, Франция
Студия: Cristaldifilm, France 3 Cinéma, Les Films Ariane, Neue Constantin Film, Rai Uno Radiotelevisione Italiana, Zweites Deutsches Ferns
Жанр: Триллер, Драма, Криминал, Детектив
Продолжительность: 02:11:30

Режиссер: Жан-Жак Анно
В ролях: Шон Коннери, Кристиан Слэйтер, Хельмут Квалтингер, Илья Баскин, Микаэль Лонсдаль, Фолькер Прехтель, Федор Шаляпин мл., Уильям Хикки, Михаэль Хабек, Урс Альтхаус

Описание: 1327 год. В обществе молодого послушника Адсо францисканский монах Вильям Баскервильский расследует серию трагических смертей монахов в бенедиктинском монастыре на севере Италии. За всеми этими смертями кроется страшная тайна, и вскоре Вильям убеждается, что ключ к раскрытию загадки лежит в обнаружении сурово охраняемого древнего манускрипта, который хранится в тайной библиотеке монастыря...


Видео: 1908x1080, ~10.6 Мбит/сек
Аудио1: AC3, 6 ch, 448 Kbps - РусскийРусский, Многоголосый (Amalgama)
Аудио2: AC3, 2 ch, 192 Kbps - РусскийРусский, Дублированный
Аудио3: AC3, 6 ch, 448 Kbps - АнглийскийАнглийский, Оригинал
Субтитры: Русские, английские (SDH)

Как за пару секунд удалить ненужные аудиодорожки и субтитры (Внимание! После удаления вы не сможете поддержать раздачу)

Лог (x265 info)
x265 [info]: frame I: Avg QP:18.02 kb/s
x265 [info]: frame P: Avg QP:19.21 kb/s
x265 [info]: frame B: Avg QP:21.94 kb/s
Медиаинфо
General
Unique ID : 56801969696113929054578349425321245591 (0x2ABBA953B99A08FB699326A0370AFB97)
Complete name : E:\Torrent\Der Name der Rose (1986).mkv
Format : Matroska
Format version : Version 4
File size : 10.7 GiB
Duration : 2 h 11 min
Overall bit rate : 11.7 Mb/s
Movie name : Der Name der Rose (1986)
Encoded date : UTC 2021-02-10 06:06:24
Writing application : mkvmerge v53.0.0 ('Fool's Gold') 64-bit
Writing library : libebml v1.4.1 + libmatroska v1.6.2
Cover : Yes
Attachments : cover

Video
ID : 1
Format : HEVC
Format/Info : High Efficiency Video Coding
Format profile : Main 10@L4.1@High
Codec ID : V_MPEGH/ISO/HEVC
Duration : 2 h 11 min
Bit rate : 10.6 Mb/s
Width : 1 908 pixels
Height : 1 080 pixels
Display aspect ratio : 16:9
Frame rate mode : Constant
Frame rate : 23.976 (23976/1000) FPS
Original frame rate : 23.976 (24000/1001) FPS
Color space : YUV
Chroma subsampling : 4:2:0
Bit depth : 10 bits
Bits/(Pixel*Frame) : 0.214
Stream size : 9.71 GiB (91%)
Writing library : x265 3.4+10-g25b2c0703:[Windows][MSVC 1927][64 bit] 10bit
Encoding settings : cpuid=1111039 / frame-threads=4 / numa-pools=16 / wpp / no-pmode / no-pme / no-psnr / no-ssim / log-level=2 / input-csp=1 / input-res=1908x1080 / interlace=0 / total-frames=189164 / level-idc=41 / high-tier=1 / uhd-bd=0 / ref=5 / no-allow-non-conformance / no-repeat-headers / annexb / no-aud / no-hrd / info / hash=0 / no-temporal-layers / open-gop / min-keyint=23 / keyint=240 / gop-lookahead=0 / bframes=14 / b-adapt=2 / b-pyramid / bframe-bias=0 / rc-lookahead=60 / lookahead-slices=4 / scenecut=40 / hist-scenecut=0 / radl=0 / no-splice / no-intra-refresh / ctu=32 / min-cu-size=8 / rect / amp / max-tu-size=32 / tu-inter-depth=4 / tu-intra-depth=4 / limit-tu=1 / rdoq-level=2 / dynamic-rd=0.00 / no-ssim-rd / signhide / no-tskip / nr-intra=0 / nr-inter=0 / no-constrained-intra / no-strong-intra-smoothing / max-merge=4 / limit-refs=2 / limit-modes / me=3 / subme=7 / merange=57 / temporal-mvp / no-frame-dup / no-hme / weightp / weightb / no-analyze-src-pics / deblock=-3:-3 / no-sao / no-sao-non-deblock / rd=6 / selective-sao=0 / no-early-skip / no-rskip / no-fast-intra / no-tskip-fast / no-cu-lossless / no-b-intra / no-splitrd-skip / rdpenalty=0 / psy-rd=2.00 / psy-rdoq=1.00 / no-rd-refine / no-lossless / cbqpoffs=0 / crqpoffs=0 / rc=crf / crf=20.0 / qcomp=0.62 / qpstep=4 / stats-write=0 / stats-read=0 / vbv-maxrate=50000 / vbv-bufsize=50000 / vbv-init=0.9 / crf-max=0.0 / crf-min=0.0 / ipratio=1.40 / pbratio=1.30 / aq-mode=1 / aq-strength=0.90 / no-cutree / zone-count=0 / no-strict-cbr / qg-size=32 / no-rc-grain / qpmax=69 / qpmin=0 / no-const-vbv / sar=1 / overscan=0 / videoformat=5 / range=0 / colorprim=1 / transfer=1 / colormatrix=1 / chromaloc=0 / display-window=0 / cll=0,0 / min-luma=0 / max-luma=1023 / log2-max-poc-lsb=8 / vui-timing-info / vui-hrd-info / slices=1 / no-opt-qp-pps / no-opt-ref-list-length-pps / no-multi-pass-opt-rps / scenecut-bias=0.05 / hist-threshold=0.01 / no-opt-cu-delta-qp / no-aq-motion / no-hdr10 / no-hdr10-opt / no-dhdr10-opt / no-idr-recovery-sei / analysis-reuse-level=0 / analysis-save-reuse-level=0 / analysis-load-reuse-level=0 / scale-factor=0 / refine-intra=0 / refine-inter=0 / refine-mv=1 / refine-ctu-distortion=0 / no-limit-sao / ctu-info=0 / no-lowpass-dct / refine-analysis-type=0 / copy-pic=1 / max-ausize-factor=1.0 / no-dynamic-refine / no-single-sei / no-hevc-aq / no-svt / no-field / qp-adaptation-range=1.00 / no-scenecut-aware-qpconformance-window-offsets / right=0 / bottom=0 / decoder-max-rate=0
Default : Yes
Forced : No
Color range : Limited
Color primaries : BT.709
Transfer characteristics : BT.709
Matrix coefficients : BT.709

Audio #1
ID : 2
Format : AC-3
Format/Info : Audio Coding 3
Commercial name : Dolby Digital
Codec ID : A_AC3
Duration : 2 h 11 min
Bit rate mode : Constant
Bit rate : 448 kb/s
Channel(s) : 6 channels
Channel layout : L R C LFE Ls Rs
Sampling rate : 48.0 kHz
Frame rate : 31.250 FPS (1536 SPF)
Compression mode : Lossy
Stream size : 421 MiB (4%)
Title : MVO Amalgama
Language : Russian
Service kind : Complete Main
Default : Yes
Forced : No

Audio #2
ID : 3
Format : AC-3
Format/Info : Audio Coding 3
Commercial name : Dolby Digital
Codec ID : A_AC3
Duration : 2 h 11 min
Bit rate mode : Constant
Bit rate : 192 kb/s
Channel(s) : 2 channels
Channel layout : L R
Sampling rate : 48.0 kHz
Frame rate : 31.250 FPS (1536 SPF)
Compression mode : Lossy
Stream size : 181 MiB (2%)
Title : Дубляж
Language : Russian
Service kind : Complete Main
Default : No
Forced : No

Audio #3
ID : 4
Format : AC-3
Format/Info : Audio Coding 3
Commercial name : Dolby Digital
Codec ID : A_AC3
Duration : 2 h 11 min
Bit rate mode : Constant
Bit rate : 448 kb/s
Channel(s) : 6 channels
Channel layout : L R C LFE Ls Rs
Sampling rate : 48.0 kHz
Frame rate : 31.250 FPS (1536 SPF)
Compression mode : Lossy
Stream size : 421 MiB (4%)
Title : Original
Language : English
Service kind : Complete Main
Default : No
Forced : No

Text #1
ID : 5
Format : UTF-8
Codec ID : S_TEXT/UTF8
Codec ID/Info : UTF-8 Plain Text
Duration : 2 h 7 min
Bit rate : 76 b/s
Count of elements : 1525
Stream size : 71.8 KiB (0%)
Title : Full
Language : Russian
Default : No
Forced : No

Text #2
ID : 6
Format : UTF-8
Codec ID : S_TEXT/UTF8
Codec ID/Info : UTF-8 Plain Text
Duration : 2 h 11 min
Bit rate : 45 b/s
Count of elements : 1224
Stream size : 44.2 KiB (0%)
Title : Full SDH
Language : English
Default : No
Forced : No

Menu
00:00:00.000 : en: 1. Credits
00:02:50.670 : en: 2. Observations
00:06:14.874 : en: 3. Accidental death
00:10:41.891 : en: 4. Something diabolical
00:15:10.201 : en: 5. Abandoned by God?
00:19:14.278 : en: 6 .Restless night
00:22:11.956 : en: 7. Drowning in blood
00:25:50.591 : en: 8. Salvatore the penitent
00:31:13.246 : en: 9. No laughter, few books
00:37:43.052 : en:10. Hidden writing
00:42:35.136 : en:11. Interlude with the girl
00:48:55.891 : en:12. Heart of an ox
00:52:12.629 : en:13. Taking possession
00:55:07.095 : en:14. Missing
00:57:41.541 : en:15. In water
01:01:09.749 : en:16. Book that kills
01:06:04.878 : en:17. Be mortified
01:10:20.299 : en:18. Secret library
01:14:46.857 : en:19. Labyrinth
01:18:31.832 : en:20. Bernardo Gui arrives
01:22:59.016 : en:21. Irrefutable evidence
01:26:51.665 : en:22. Torments
01:30:35.305 : en:23. Severinus' final chapter
01:35:03.907 : en:24. Styles of pity
01:38:15.014 : en:25. Confessions
01:41:49.687 : en:26. Disputed verdict
01:46:53.449 : en:27. Black mark
01:49:50.876 : en:28. Poisonous custodian
01:54:14.806 : en:29. No fear, no faith
01:57:20.367 : en:30. Purging flames
02:01:09.679 : en:31. All his doing
02:03:05.003 : en:32. Adso's decision
02:08:06.262 : en:33. End Credits
Загрузка...Cкриншот1 Имя розы / Der Name der Rose (1986) BDRip 1080p [HEVC] 10 bit от Mr. FoxЗагрузка...Cкриншот2 Имя розы / Der Name der Rose (1986) BDRip 1080p [HEVC] 10 bit от Mr. FoxЗагрузка...Cкриншот3 Имя розы / Der Name der Rose (1986) BDRip 1080p [HEVC] 10 bit от Mr. FoxЗагрузка...Cкриншот4 Имя розы / Der Name der Rose (1986) BDRip 1080p [HEVC] 10 bit от Mr. Fox
Сэмпл Торрент🧲 Магнет

Рейтинги КП и IMDB, кнопки "Позвать в чате" и "Спасибо", а также мультитрекерная статистика сидов и пиров доступны только зарегистрированным/авторизованным пользователям!

Файлы: 1
  • Der Name der Rose (1986).mkv   10.71 ГБ
Поблагодарили: 8
denisspb, diesel0000, donadar, makss333, Nuclear70, Rexfire, SoulBoy, StarLord
Admin
01307210.71 ГБ

Добавление нового комментария

Добавление комментариев доступно только зарегистрированным/авторизованным пользователям.