💬 Мини-чат

hunterА, да, и еще и люди, которые думают, что им все должны.
hunterrodina_45, Это все держится на энтузиазме и доброй воле делающих рипы и раздающих. Поэтому если хочется скачать, нужно ПРОСИТЬ, а не возмущатся. Так как либо много скачавших на раздаче, либо винты по 20ТБ . Однако многовато, как для хобби.
AdminПоздравляем всех девушек с международным женским днем! Берегите честь и достоинство. Именно они делают девушку красивой.
HANNIBALADVOKAT69, это не мой хам ))))
AdminПри том, что для нас всех это пока что хобби.
AdminADVOKAT69, некоторые думают, будто своими скачиваниями приносят нам пользу, вот и возмущаются.
ADVOKAT69и здесь хамы появились!с того сайта что-ли?
AdminПоддерживайте раздачи, раз не хотите, чтобы они были мертвы.
Adminrodina_45, зачем нам удалять? Вдруг оживут.
rodina_45какого хера половина torrent просто мертвы удалите их
rodina_45Раздайте, пожалуйста, Царевна-лягушка (1954) BDRip 1080p [HEVC] 10 bit от ADVOKAT69
joker63😪
HANNIBALС ГЛУБОЧАЙШИМИ СКОРБЬЮ И СОЖАЛЕНИЕМ СООБЩАЕМ ВАМ, ЧТО СЕГОДНЯ ОТ ОСЛОЖНЕНИЙ ВИРУСНОЙ ПНЕВМОНИИ, РАЗВИВШЕЙСЯ НА ФОНЕ ТЯЖЁЛОЙ ХРОНИЧЕСКОЙ ОБСТРУКТИВНОЙ БОЛЕЗНИ ЛЁГКИХ, УМЕР ИЗВЕСТНЫЙ АВТОР ВЫСОКО ЦЕНИМЫХ ИГРОВЫХ РЕПАКОВ, ИЗВЕСТНЫЙ В СЕТИ КАК XATAB.. МЫ ВСЕГДА БУДЕМ ПОМНИТЬ ЕГО И ЦЕНИТЬ ЕГО ТРУД.
StarLordAdmin, понял :)
AdminStarLord, можешь оставить. потом переоформишь.
AdminStarLord, либо переоформить на другой рип, либо залить левый торрент и сразу же удалить
StarLordAdmin, сломал систему :)) Как удалить один из анонсов?
XuMuKСообщение удалено (удалил: XuMuK)
Adminjustmkr, надо смотреть трассировку по IP
Adminjustmkr, возможно обрыв в пути.
Отправка сообщений доступна только зарегистрированным/авторизованным пользователям.
Онлайн (за 10 мин.): 0

Человек-оркестр / L'homme orchestre / The Band (1970) BDRip 1080p [HEVC] 10 bit от Mr. Fox

HEVC
10 bit
Обложка Человек-оркестр / L'homme orchestre / The Band (1970) BDRip 1080p [HEVC] 10 bit от Mr. Fox Год: 1970
Страна: Франция, Италия
Студия: Gaumont Distribution, Gaumont International
Жанр: Мюзикл, Комедия
Продолжительность: 01:25:30

Режиссер: Серж Корбер
В ролях: Луи де Фюнес, Ноэль Адам, Оливье Де Фюнес, Дэниэл Беллю, Макс Деро, Тиберио Мурджа, Виттория Ди Сильверио, Мартина Келли, Паола Тедеско, Франко Вольпи

Описание: Балетный импресарио Эван-Эванс вместе со своим племянником Филиппом тщательно следит, чтобы его танцовщицы не имели контактов с мужчинами, так как это может помешать их работе. Но во время турне по Италии выясняется, что у одной из девушек уже есть ребенок. Тирану Эвансу приходится опекать его, так как он считает, что малыш — сын Филиппа. Через некоторое время появляется еще один ребенок, на этот раз — действительно внучатый племянник Эванса. Новоиспеченный дедушка готов сойти с ума, а большое турне в итоге превращается в большой сумасшедший дом.


Видео: 1920x820, ~9062 Кбит/сек
Аудио1: AC3, 2 ch, 192 Kbps - РусскийРусский, Дублированный (Союзмультфильм)
Аудио2: AC3, 2 ch, 192 Kbps - УкраинскийУкраинский, Двухголосый (1+1)
Аудио3: AC3, 2 ch, 448 Kbps - ФранцузскийФранцузский, Оригинал
Субтитры: Русские, английские, французские

Как за пару секунд удалить ненужные аудиодорожки и субтитры (Внимание! После удаления вы не сможете поддержать раздачу)

Лог (x265 info)
x265 [info]: frame I: Avg QP:18.44 kb/s
x265 [info]: frame P: Avg QP:19.94 kb/s
x265 [info]: frame B: Avg QP:22.00 kb/s
Медиаинфо
General
Unique ID : 211594410881604544107049619896040779283 (0x9F2F99E81FD2ABE101E11D6924196E13)
Complete name : E:\Torrent\L'Homme orchestre (1970).mkv
Format : Matroska
Format version : Version 4
File size : 5.91 GiB
Duration : 1 h 25 min
Overall bit rate : 9 897 kb/s
Movie name : L'Homme orchestre (1970)
Encoded date : UTC 2021-02-14 09:15:24
Writing application : mkvmerge v53.0.0 ('Fool's Gold') 64-bit
Writing library : libebml v1.4.1 + libmatroska v1.6.2
Cover : Yes
Attachments : cover

Video
ID : 1
Format : HEVC
Format/Info : High Efficiency Video Coding
Format profile : Main 10@L4.1@High
Codec ID : V_MPEGH/ISO/HEVC
Duration : 1 h 25 min
Bit rate : 9 062 kb/s
Width : 1 920 pixels
Height : 820 pixels
Display aspect ratio : 2.35:1
Frame rate mode : Constant
Frame rate : 24.000 FPS
Color space : YUV
Chroma subsampling : 4:2:0
Bit depth : 10 bits
Bits/(Pixel*Frame) : 0.240
Stream size : 5.41 GiB (92%)
Writing library : x265 3.4+10-g25b2c0703:[Windows][MSVC 1927][64 bit] 10bit
Encoding settings : cpuid=1111039 / frame-threads=4 / numa-pools=16 / wpp / no-pmode / no-pme / no-psnr / no-ssim / log-level=2 / input-csp=1 / input-res=1920x820 / interlace=0 / total-frames=123120 / level-idc=41 / high-tier=1 / uhd-bd=0 / ref=5 / no-allow-non-conformance / no-repeat-headers / annexb / no-aud / no-hrd / info / hash=0 / no-temporal-layers / open-gop / min-keyint=24 / keyint=240 / gop-lookahead=0 / bframes=10 / b-adapt=2 / b-pyramid / bframe-bias=0 / rc-lookahead=60 / lookahead-slices=4 / scenecut=40 / hist-scenecut=0 / radl=0 / no-splice / no-intra-refresh / ctu=32 / min-cu-size=8 / rect / amp / max-tu-size=32 / tu-inter-depth=4 / tu-intra-depth=4 / limit-tu=1 / rdoq-level=2 / dynamic-rd=0.00 / no-ssim-rd / signhide / no-tskip / nr-intra=0 / nr-inter=0 / no-constrained-intra / no-strong-intra-smoothing / max-merge=4 / limit-refs=2 / limit-modes / me=3 / subme=7 / merange=57 / temporal-mvp / no-frame-dup / no-hme / weightp / weightb / no-analyze-src-pics / deblock=-3:-3 / no-sao / no-sao-non-deblock / rd=6 / selective-sao=0 / no-early-skip / no-rskip / no-fast-intra / no-tskip-fast / no-cu-lossless / no-b-intra / no-splitrd-skip / rdpenalty=0 / psy-rd=2.00 / psy-rdoq=1.00 / no-rd-refine / no-lossless / cbqpoffs=0 / crqpoffs=0 / rc=crf / crf=20.0 / qcomp=0.65 / qpstep=4 / stats-write=0 / stats-read=0 / vbv-maxrate=50000 / vbv-bufsize=50000 / vbv-init=0.9 / crf-max=0.0 / crf-min=0.0 / ipratio=1.40 / pbratio=1.30 / aq-mode=1 / aq-strength=1.00 / no-cutree / zone-count=0 / no-strict-cbr / qg-size=32 / no-rc-grain / qpmax=69 / qpmin=0 / no-const-vbv / sar=1 / overscan=0 / videoformat=5 / range=0 / colorprim=1 / transfer=1 / colormatrix=1 / chromaloc=0 / display-window=0 / cll=0,0 / min-luma=0 / max-luma=1023 / log2-max-poc-lsb=8 / vui-timing-info / vui-hrd-info / slices=1 / no-opt-qp-pps / no-opt-ref-list-length-pps / no-multi-pass-opt-rps / scenecut-bias=0.05 / hist-threshold=0.01 / no-opt-cu-delta-qp / no-aq-motion / no-hdr10 / no-hdr10-opt / no-dhdr10-opt / no-idr-recovery-sei / analysis-reuse-level=0 / analysis-save-reuse-level=0 / analysis-load-reuse-level=0 / scale-factor=0 / refine-intra=0 / refine-inter=0 / refine-mv=1 / refine-ctu-distortion=0 / no-limit-sao / ctu-info=0 / no-lowpass-dct / refine-analysis-type=0 / copy-pic=1 / max-ausize-factor=1.0 / no-dynamic-refine / no-single-sei / no-hevc-aq / no-svt / no-field / qp-adaptation-range=1.00 / no-scenecut-aware-qpconformance-window-offsets / right=0 / bottom=0 / decoder-max-rate=0
Default : Yes
Forced : No
Color range : Limited
Color primaries : BT.709
Transfer characteristics : BT.709
Matrix coefficients : BT.709

Audio #1
ID : 2
Format : AC-3
Format/Info : Audio Coding 3
Commercial name : Dolby Digital
Codec ID : A_AC3
Duration : 1 h 25 min
Bit rate mode : Constant
Bit rate : 192 kb/s
Channel(s) : 2 channels
Channel layout : L R
Sampling rate : 48.0 kHz
Frame rate : 31.250 FPS (1536 SPF)
Compression mode : Lossy
Stream size : 117 MiB (2%)
Title : Дубляж, Союзмультфильм
Language : Russian
Service kind : Complete Main
Default : Yes
Forced : No

Audio #2
ID : 3
Format : AC-3
Format/Info : Audio Coding 3
Commercial name : Dolby Digital
Codec ID : A_AC3
Duration : 1 h 25 min
Bit rate mode : Constant
Bit rate : 192 kb/s
Channel(s) : 2 channels
Channel layout : L R
Sampling rate : 48.0 kHz
Frame rate : 31.250 FPS (1536 SPF)
Compression mode : Lossy
Stream size : 117 MiB (2%)
Title : Двухголосый закадровый, 1+1
Language : Ukrainian
Service kind : Complete Main
Default : No
Forced : No

Audio #3
ID : 4
Format : AC-3
Format/Info : Audio Coding 3
Commercial name : Dolby Digital
Codec ID : A_AC3
Duration : 1 h 25 min
Bit rate mode : Constant
Bit rate : 448 kb/s
Channel(s) : 2 channels
Channel layout : L R
Sampling rate : 48.0 kHz
Frame rate : 31.250 FPS (1536 SPF)
Compression mode : Lossy
Stream size : 274 MiB (5%)
Language : French
Service kind : Complete Main
Default : No
Forced : No

Text #1
ID : 5
Format : UTF-8
Codec ID : S_TEXT/UTF8
Codec ID/Info : UTF-8 Plain Text
Duration : 1 h 25 min
Bit rate : 74 b/s
Count of elements : 792
Stream size : 46.4 KiB (0%)
Title : Full
Language : Russian
Default : No
Forced : No

Text #2
ID : 6
Format : UTF-8
Codec ID : S_TEXT/UTF8
Codec ID/Info : UTF-8 Plain Text
Duration : 1 h 22 min
Bit rate : 26 b/s
Count of elements : 396
Stream size : 16.2 KiB (0%)
Language : English
Default : No
Forced : No

Text #3
ID : 7
Format : UTF-8
Codec ID : S_TEXT/UTF8
Codec ID/Info : UTF-8 Plain Text
Duration : 1 h 25 min
Bit rate : 37 b/s
Count of elements : 1144
Stream size : 23.4 KiB (0%)
Language : French
Default : No
Forced : No

Menu
00:00:00.000 : en:Chapter 01
00:05:14.916 : en:Chapter 02
00:11:43.875 : en:Chapter 03
00:19:27.458 : en:Chapter 04
00:26:35.416 : en:Chapter 05
00:36:54.750 : en:Chapter 06
00:45:57.833 : en:Chapter 07
00:54:25.791 : en:Chapter 08
01:01:03.125 : en:Chapter 09
01:10:28.416 : en:Chapter 10
01:17:12.750 : en:Chapter 11
01:20:18.958 : en:Chapter 12
Загрузка...Cкриншот1 Человек-оркестр / L'homme orchestre / The Band (1970) BDRip 1080p [HEVC] 10 bit от Mr. FoxЗагрузка...Cкриншот2 Человек-оркестр / L'homme orchestre / The Band (1970) BDRip 1080p [HEVC] 10 bit от Mr. FoxЗагрузка...Cкриншот3 Человек-оркестр / L'homme orchestre / The Band (1970) BDRip 1080p [HEVC] 10 bit от Mr. FoxЗагрузка...Cкриншот4 Человек-оркестр / L'homme orchestre / The Band (1970) BDRip 1080p [HEVC] 10 bit от Mr. Fox
Сэмпл Торрент🧲 Магнет

Рейтинги КП и IMDB, кнопки "Позвать в чате" и "Спасибо", а также мультитрекерная статистика сидов и пиров доступны только зарегистрированным/авторизованным пользователям!

Файлы: 1
  • L'Homme orchestre (1970).mkv   5.91 ГБ
Поблагодарили: 11
and50, donadar, han-nik, ivan_1965, makss333, MIGRANT, NoMaD, OldGamer, Rezident, StarLord, Undervest
Admin
5104835.91 ГБ

Добавление нового комментария

Добавление комментариев доступно только зарегистрированным/авторизованным пользователям.
Аватар Rezident
  Rezident  
mafo2 писал(а):
Думаю, да.
Шикарно!!!
Аватар mafo2
  mafo2  
Думаю, да.
Аватар Rezident
  Rezident  (Отредактировал Rezident)    
mafo2 писал(а):
на очереди Скупой и Склока
Круто!!! А Татуированный будет?
Аватар mafo2
  mafo2  
на очереди Скупой и Склока
Аватар Rezident
  Rezident  
Великолепно!!! Буду ждать от Вас Большую прогулку и большие каникулы