💬 Мини-чат

OldGamerнет
Giggaloнет ли у кого в планах "Давайте потанцуем" 2004
GiggaloСообщение удалено (удалил: Giggalo)
StarLordOldGamer, как дела?)
StarLordOldGamer, ура, вернулся 😄
OldGamerRezident, можете скачать этот фильм от другого релизёра, там невелика разница, а раздающие точно есть
OldGamerGiggalo, https://tsya.ru/mnemonic.html
NoMaDСообщение удалено (удалил: NoMaD)
NoMaDСообщение удалено (удалил: NoMaD)
GiggaloСообщение удалено (удалил: Giggalo)
GiggaloСообщение удалено (удалил: Giggalo)
Spartanec1308Был днём
StarLordGiggalo, наверное отрубало беднягу, целый день его нету 😅
GiggaloСообщение удалено (удалил: Giggalo)
OldGamerДоброе. Работы много, некогда на перинах валяться.
GiggaloСообщение удалено (удалил: Giggalo)
GiggaloСообщение удалено (удалил: Giggalo)
  • OldGamer
  • qvnvqygospcocittov
  • Херсонец
Отправка сообщений доступна только зарегистрированным/авторизованным пользователям.
Онлайн (за 10 мин.): 3

Семейка Крудс: Дилогия / The Croods: Dilogy (2013-2020) UHD-BDRip 1080p [HEVC] 10 bit [HDR] от Mr. Fox

HEVC
HDR
10 bit
Обложка Семейка Крудс: Дилогия / The Croods: Dilogy (2013-2020) UHD-BDRip 1080p [HEVC] 10 bit [HDR] от Mr. Fox Год: 2013-2020
Страна: США
Студия: DreamWorks Animation
Жанр: Мультфильм, Фэнтези, Комедия, Приключения

1. Семейка Крудс / The Croods (2013) UHD-BDRip 1080p [HEVC] 10 bit [HDR] от Mr. Fox
HEVC
10 bit
Обложка Семейка Крудс / The Croods (2013) UHD-BDRip 1080p [HEVC] 10 bit [HDR] от Mr. Fox Год: 2013
Страна: США
Студия: DreamWorks Animation
Жанр: Мультфильм, Фэнтези, Комедия, Приключения
Продолжительность: 01:38:38

Режиссер: Кирк де Микко, Крис Сандерс
В ролях: Николас Кейдж, Эмма Стоун, Райан Рейнольдс, Кэтрин Кинер, Клорис Личмен, Кларк Дьюк, Крис Сандерс, Рэнди Том

Описание: Землетрясение уничтожило дом доисторической семьи, и теперь Крудсам придётся искать другое пристанище. А вокруг новый и опасный мир! Им на помощь приходит молодой кочевник Малой, передовые взгляды которого наталкиваются на консервативность главы семьи Груга. Но только вместе они смогут выжить и достичь своей цели...


Видео: 1920x818, ~4762 Кбит/сек
Аудио1: AC3, 6 ch, 640 Kbps - РусскийРусский, Дублированный
Аудио2: AC3, 6 ch, 448 Kbps - УкраинскийУкраинский, Дублированный
Аудио3: AC3, 6 ch, 640 Kbps - АнглийскийАнглийский, Оригинал
Субтитры: Русские, украинские, английские

Как за пару секунд удалить ненужные аудиодорожки и субтитры (Внимание! После удаления вы не сможете поддержать раздачу)

Лог (x265 info)
x265 [info]: frame I: Avg QP:14.92 kb/s
x265 [info]: frame P: Avg QP:16.17 kb/s
x265 [info]: frame B: Avg QP:18.72 kb/s
Медиаинфо
General
Unique ID : 67846591607889554849499174139664835825 (0x330AC73AC059305617D9D5E215ACA4F1)
Complete name : E:\Torrent\The Croods\The Croods (2013).mkv
Format : Matroska
Format version : Version 4
File size : 4.47 GiB
Duration : 1 h 38 min
Overall bit rate : 6 491 kb/s
Movie name : The Croods (2013)
Encoded date : UTC 2021-02-20 16:13:39
Writing application : mkvmerge v53.0.0 ('Fool's Gold') 64-bit
Writing library : libebml v1.4.1 + libmatroska v1.6.2
Cover : Yes
Attachments : cover.jpg

Video
ID : 1
Format : HEVC
Format/Info : High Efficiency Video Coding
Format profile : Main 10@L4.1@High
HDR format : SMPTE ST 2086, HDR10 compatible
Codec ID : V_MPEGH/ISO/HEVC
Duration : 1 h 38 min
Bit rate : 4 762 kb/s
Width : 1 920 pixels
Height : 818 pixels
Display aspect ratio : 2.35:1
Frame rate mode : Constant
Frame rate : 23.976 (23976/1000) FPS
Original frame rate : 23.976 (24000/1001) FPS
Color space : YUV
Chroma subsampling : 4:2:0 (Type 1)
Bit depth : 10 bits
Bits/(Pixel*Frame) : 0.126
Stream size : 3.28 GiB (73%)
Writing library : x265 3.4+10-g25b2c0703:[Windows][MSVC 1927][64 bit] 10bit
Encoding settings : cpuid=1111039 / frame-threads=4 / numa-pools=16 / wpp / no-pmode / no-pme / no-psnr / no-ssim / log-level=2 / input-csp=1 / input-res=1920x818 / interlace=0 / total-frames=141827 / level-idc=41 / high-tier=1 / uhd-bd=0 / ref=5 / no-allow-non-conformance / repeat-headers / annexb / no-aud / no-hrd / info / hash=0 / no-temporal-layers / open-gop / min-keyint=23 / keyint=240 / gop-lookahead=0 / bframes=10 / b-adapt=2 / b-pyramid / bframe-bias=0 / rc-lookahead=60 / lookahead-slices=4 / scenecut=40 / hist-scenecut=0 / radl=0 / no-splice / no-intra-refresh / ctu=32 / min-cu-size=8 / rect / amp / max-tu-size=32 / tu-inter-depth=4 / tu-intra-depth=4 / limit-tu=1 / rdoq-level=2 / dynamic-rd=0.00 / no-ssim-rd / signhide / no-tskip / nr-intra=0 / nr-inter=0 / no-constrained-intra / no-strong-intra-smoothing / max-merge=4 / limit-refs=2 / limit-modes / me=3 / subme=7 / merange=57 / temporal-mvp / no-frame-dup / no-hme / weightp / weightb / no-analyze-src-pics / deblock=-3:-3 / no-sao / no-sao-non-deblock / rd=6 / selective-sao=0 / no-early-skip / no-rskip / no-fast-intra / no-tskip-fast / no-cu-lossless / no-b-intra / no-splitrd-skip / rdpenalty=0 / psy-rd=2.00 / psy-rdoq=1.00 / no-rd-refine / no-lossless / cbqpoffs=0 / crqpoffs=0 / rc=crf / crf=18.0 / qcomp=0.65 / qpstep=4 / stats-write=0 / stats-read=0 / vbv-maxrate=50000 / vbv-bufsize=50000 / vbv-init=0.9 / crf-max=0.0 / crf-min=0.0 / ipratio=1.40 / pbratio=1.30 / aq-mode=1 / aq-strength=1.00 / no-cutree / zone-count=0 / no-strict-cbr / qg-size=32 / no-rc-grain / qpmax=69 / qpmin=0 / no-const-vbv / sar=1 / overscan=0 / videoformat=5 / range=0 / colorprim=9 / transfer=16 / colormatrix=9 / chromaloc=1 / chromaloc-top=1 / chromaloc-bottom=1 / display-window=0 / master-display=G(13250,34500)B(7500,3000)R(34000,16000)WP(15635,16450)L(10000000,50) / cll=941,177 / min-luma=0 / max-luma=1023 / log2-max-poc-lsb=8 / vui-timing-info / vui-hrd-info / slices=1 / no-opt-qp-pps / no-opt-ref-list-length-pps / no-multi-pass-opt-rps / scenecut-bias=0.05 / hist-threshold=0.01 / no-opt-cu-delta-qp / no-aq-motion / hdr10 / hdr10-opt / no-dhdr10-opt / no-idr-recovery-sei / analysis-reuse-level=0 / analysis-save-reuse-level=0 / analysis-load-reuse-level=0 / scale-factor=0 / refine-intra=0 / refine-inter=0 / refine-mv=1 / refine-ctu-distortion=0 / no-limit-sao / ctu-info=0 / no-lowpass-dct / refine-analysis-type=0 / copy-pic=1 / max-ausize-factor=1.0 / no-dynamic-refine / no-single-sei / no-hevc-aq / no-svt / no-field / qp-adaptation-range=1.00 / no-scenecut-aware-qpconformance-window-offsets / right=0 / bottom=0 / decoder-max-rate=0
Default : Yes
Forced : No
Color range : Limited
Color primaries : BT.2020
Transfer characteristics : PQ
Matrix coefficients : BT.2020 non-constant
Mastering display color primar : Display P3
Mastering display luminance : min: 0.0050 cd/m2, max: 1000 cd/m2
Maximum Content Light Level : 941 cd/m2
Maximum Frame-Average Light Le : 177 cd/m2

Audio #1
ID : 2
Format : AC-3
Format/Info : Audio Coding 3
Commercial name : Dolby Digital
Codec ID : A_AC3
Duration : 1 h 38 min
Bit rate mode : Constant
Bit rate : 640 kb/s
Channel(s) : 6 channels
Channel layout : L R C LFE Ls Rs
Sampling rate : 48.0 kHz
Frame rate : 31.250 FPS (1536 SPF)
Compression mode : Lossy
Stream size : 452 MiB (10%)
Title : Дубляж
Language : Russian
Service kind : Complete Main
Default : Yes
Forced : No

Audio #2
ID : 3
Format : AC-3
Format/Info : Audio Coding 3
Commercial name : Dolby Digital
Codec ID : A_AC3
Duration : 1 h 38 min
Bit rate mode : Constant
Bit rate : 448 kb/s
Channel(s) : 6 channels
Channel layout : L R C LFE Ls Rs
Sampling rate : 48.0 kHz
Frame rate : 31.250 FPS (1536 SPF)
Compression mode : Lossy
Stream size : 316 MiB (7%)
Title : Дубляж
Language : Ukrainian
Service kind : Complete Main
Default : No
Forced : No

Audio #3
ID : 4
Format : AC-3
Format/Info : Audio Coding 3
Commercial name : Dolby Digital
Codec ID : A_AC3
Duration : 1 h 38 min
Bit rate mode : Constant
Bit rate : 640 kb/s
Channel(s) : 6 channels
Channel layout : L R C LFE Ls Rs
Sampling rate : 48.0 kHz
Frame rate : 31.250 FPS (1536 SPF)
Compression mode : Lossy
Stream size : 451 MiB (10%)
Title : Original
Language : English
Service kind : Complete Main
Default : No
Forced : No

Text #1
ID : 5
Format : UTF-8
Codec ID : S_TEXT/UTF8
Codec ID/Info : UTF-8 Plain Text
Duration : 1 h 37 min
Bit rate : 59 b/s
Count of elements : 1023
Stream size : 42.5 KiB (0%)
Title : Full
Language : Russian
Default : No
Forced : No

Text #2
ID : 6
Format : UTF-8
Codec ID : S_TEXT/UTF8
Codec ID/Info : UTF-8 Plain Text
Duration : 1 h 37 min
Bit rate : 61 b/s
Count of elements : 1022
Stream size : 43.9 KiB (0%)
Title : Full
Language : Ukrainian
Default : No
Forced : No

Text #3
ID : 7
Format : UTF-8
Codec ID : S_TEXT/UTF8
Codec ID/Info : UTF-8 Plain Text
Duration : 1 h 28 min
Bit rate : 39 b/s
Count of elements : 1021
Stream size : 25.5 KiB (0%)
Title : Full
Language : English
Default : No
Forced : No

Menu
00:00:00.000 : en:Chapter 1
00:02:34.988 : en:Chapter 2
00:04:51.750 : en:Chapter 3
00:09:01.249 : en:Chapter 4
00:12:21.115 : en:Chapter 5
00:14:04.802 : en:Chapter 6
00:18:33.029 : en:Chapter 7
00:21:56.982 : en:Chapter 8
00:23:24.737 : en:Chapter 9
00:26:49.775 : en:Chapter 10
00:28:37.132 : en:Chapter 11
00:30:25.657 : en:Chapter 12
00:32:48.633 : en:Chapter 13
00:36:03.370 : en:Chapter 14
00:38:33.561 : en:Chapter 15
00:41:34.534 : en:Chapter 16
00:44:38.843 : en:Chapter 17
00:48:02.630 : en:Chapter 18
00:52:10.961 : en:Chapter 19
00:55:17.481 : en:Chapter 20
01:00:14.778 : en:Chapter 21
01:03:58.084 : en:Chapter 22
01:05:48.736 : en:Chapter 23
01:08:44.037 : en:Chapter 24
01:10:47.285 : en:Chapter 25
01:12:37.144 : en:Chapter 26
01:14:01.646 : en:Chapter 27
01:19:48.575 : en:Chapter 28
01:23:09.860 : en:Chapter 29
01:25:16.737 : en:Chapter 30
01:28:04.321 : en:Chapter 31
01:30:02.230 : en:Chapter 32
Загрузка...Cкриншот1 Семейка Крудс / The Croods (2013) UHD-BDRip 1080p [HEVC] 10 bit [HDR] от Mr. FoxЗагрузка...Cкриншот2 Семейка Крудс / The Croods (2013) UHD-BDRip 1080p [HEVC] 10 bit [HDR] от Mr. FoxЗагрузка...Cкриншот3 Семейка Крудс / The Croods (2013) UHD-BDRip 1080p [HEVC] 10 bit [HDR] от Mr. FoxЗагрузка...Cкриншот4 Семейка Крудс / The Croods (2013) UHD-BDRip 1080p [HEVC] 10 bit [HDR] от Mr. Fox
Сэмпл
2. Семейка Крудс: Новоселье / The Croods: A New Age (2020) [iTunes] UHD-BDRip 1080p [HEVC] 10 bit [HDR] от Mr. Fox
HEVC
10 bit
Обложка Семейка Крудс: Новоселье / The Croods: A New Age (2020) [iTunes] UHD-BDRip 1080p [HEVC] 10 bit [HDR] от Mr. Fox Год: 2020
Страна: США
Студия: DreamWorks Animation
Жанр: Мультфильм, Фэнтези, Комедия, Приключения
Продолжительность: 01:35:14

Режиссер: Джоэль Кроуфорд
В ролях: Николас Кейдж, Эмма Стоун, Райан Рейнольдс, Кэтрин Кинер, Клорис Личмен, Кларк Дьюк, Лесли Манн, Питер Динклэйдж, Келли Мари Трэн, Кайли Кроуфорд

Описание: Такие харизматичные герои как члены клана Крудс просто не в силах усидеть на месте. Они смело идут навстречу самым головокружительным приключениям и готовы ответить непредсказуемостью и находчивостью на любой вызов судьбы.


Видео: 1920x816, ~4386 Кбит/сек
Аудио1: AC3, 6 ch, 384 Kbps - РусскийРусский, Дублированный (iTunes)
Аудио2: AC3, 6 ch, 448 Kbps - АнглийскийАнглийский, Оригинал
Субтитры: Русские (форсированные, полные), английские (полные, SDH)

Как за пару секунд удалить ненужные аудиодорожки и субтитры (Внимание! После удаления вы не сможете поддержать раздачу)

Лог (x265 info)
x265 [info]: frame I: Avg QP:13.71 kb/s
x265 [info]: frame P: Avg QP:15.24 kb/s
x265 [info]: frame B: Avg QP:17.89 kb/s
Медиаинфо
General
Unique ID : 47139089409294478847078726860831054798 (0x2376A88BE2242581D8483889FEB9DBCE)
Complete name : E:\Torrent\The Croods\The Croods A New Age (2020).mkv
Format : Matroska
Format version : Version 4
File size : 3.47 GiB
Duration : 1 h 35 min
Overall bit rate : 5 221 kb/s
Movie name : The Croods: A New Age (2020)
Encoded date : UTC 2021-02-27 05:52:52
Writing application : mkvmerge v54.0.0 ('F Maj Pixie') 64-bit
Writing library : libebml v1.4.2 + libmatroska v1.6.3
Cover : Yes
Attachments : cover

Video
ID : 1
Format : HEVC
Format/Info : High Efficiency Video Coding
Format profile : Main 10@L4.1@High
HDR format : SMPTE ST 2086, HDR10 compatible
Codec ID : V_MPEGH/ISO/HEVC
Duration : 1 h 35 min
Bit rate : 4 386 kb/s
Width : 1 920 pixels
Height : 816 pixels
Display aspect ratio : 2.35:1
Frame rate mode : Constant
Frame rate : 23.976 (23976/1000) FPS
Original frame rate : 23.976 (24000/1001) FPS
Color space : YUV
Chroma subsampling : 4:2:0 (Type 2)
Bit depth : 10 bits
Bits/(Pixel*Frame) : 0.117
Stream size : 2.92 GiB (84%)
Writing library : x265 3.4+10-g25b2c0703:[Windows][MSVC 1927][64 bit] 10bit
Encoding settings : cpuid=1111039 / frame-threads=4 / numa-pools=16 / wpp / no-pmode / no-pme / no-psnr / no-ssim / log-level=2 / input-csp=1 / input-res=1920x816 / interlace=0 / total-frames=137007 / level-idc=41 / high-tier=1 / uhd-bd=0 / ref=5 / no-allow-non-conformance / repeat-headers / annexb / no-aud / no-hrd / info / hash=0 / no-temporal-layers / open-gop / min-keyint=23 / keyint=240 / gop-lookahead=0 / bframes=12 / b-adapt=2 / b-pyramid / bframe-bias=0 / rc-lookahead=60 / lookahead-slices=4 / scenecut=40 / hist-scenecut=0 / radl=0 / no-splice / no-intra-refresh / ctu=32 / min-cu-size=8 / rect / amp / max-tu-size=32 / tu-inter-depth=4 / tu-intra-depth=4 / limit-tu=1 / rdoq-level=2 / dynamic-rd=0.00 / no-ssim-rd / signhide / no-tskip / nr-intra=0 / nr-inter=0 / no-constrained-intra / no-strong-intra-smoothing / max-merge=4 / limit-refs=2 / limit-modes / me=3 / subme=7 / merange=57 / temporal-mvp / no-frame-dup / no-hme / weightp / weightb / no-analyze-src-pics / deblock=-3:-3 / no-sao / no-sao-non-deblock / rd=6 / selective-sao=0 / no-early-skip / no-rskip / no-fast-intra / no-tskip-fast / no-cu-lossless / no-b-intra / no-splitrd-skip / rdpenalty=0 / psy-rd=2.00 / psy-rdoq=1.00 / no-rd-refine / no-lossless / cbqpoffs=0 / crqpoffs=0 / rc=crf / crf=17.5 / qcomp=0.65 / qpstep=4 / stats-write=0 / stats-read=0 / vbv-maxrate=50000 / vbv-bufsize=50000 / vbv-init=0.9 / crf-max=0.0 / crf-min=0.0 / ipratio=1.40 / pbratio=1.30 / aq-mode=1 / aq-strength=1.00 / no-cutree / zone-count=0 / no-strict-cbr / qg-size=32 / no-rc-grain / qpmax=69 / qpmin=0 / no-const-vbv / sar=1 / overscan=0 / videoformat=5 / range=0 / colorprim=9 / transfer=16 / colormatrix=9 / chromaloc=1 / chromaloc-top=2 / chromaloc-bottom=2 / display-window=0 / master-display=G(13250,34500)B(7500,3000)R(34000,16000)WP(15635,16450)L(10000000,10) / cll=1000,999 / min-luma=0 / max-luma=1023 / log2-max-poc-lsb=8 / vui-timing-info / vui-hrd-info / slices=1 / no-opt-qp-pps / no-opt-ref-list-length-pps / no-multi-pass-opt-rps / scenecut-bias=0.05 / hist-threshold=0.01 / no-opt-cu-delta-qp / no-aq-motion / hdr10 / hdr10-opt / no-dhdr10-opt / no-idr-recovery-sei / analysis-reuse-level=0 / analysis-save-reuse-level=0 / analysis-load-reuse-level=0 / scale-factor=0 / refine-intra=0 / refine-inter=0 / refine-mv=1 / refine-ctu-distortion=0 / no-limit-sao / ctu-info=0 / no-lowpass-dct / refine-analysis-type=0 / copy-pic=1 / max-ausize-factor=1.0 / no-dynamic-refine / no-single-sei / no-hevc-aq / no-svt / no-field / qp-adaptation-range=1.00 / no-scenecut-aware-qpconformance-window-offsets / right=0 / bottom=0 / decoder-max-rate=0
Default : Yes
Forced : No
Color range : Limited
Color primaries : BT.2020
Transfer characteristics : PQ
Matrix coefficients : BT.2020 non-constant
Mastering display color primar : Display P3
Mastering display luminance : min: 0.0010 cd/m2, max: 1000 cd/m2
Maximum Content Light Level : 1000 cd/m2
Maximum Frame-Average Light Le : 999 cd/m2

Audio #1
ID : 2
Format : AC-3
Format/Info : Audio Coding 3
Commercial name : Dolby Digital
Codec ID : A_AC3
Duration : 1 h 35 min
Bit rate mode : Constant
Bit rate : 384 kb/s
Channel(s) : 6 channels
Channel layout : L R C LFE Ls Rs
Sampling rate : 48.0 kHz
Frame rate : 31.250 FPS (1536 SPF)
Compression mode : Lossy
Stream size : 262 MiB (7%)
Title : Дубляж (iTunes)
Language : Russian
Service kind : Complete Main
Default : Yes
Forced : No

Audio #2
ID : 3
Format : AC-3
Format/Info : Audio Coding 3
Commercial name : Dolby Digital
Codec ID : A_AC3
Duration : 1 h 35 min
Bit rate mode : Constant
Bit rate : 448 kb/s
Channel(s) : 6 channels
Channel layout : L R C LFE Ls Rs
Sampling rate : 48.0 kHz
Frame rate : 31.250 FPS (1536 SPF)
Compression mode : Lossy
Stream size : 305 MiB (9%)
Title : Original
Language : English
Service kind : Complete Main
Default : No
Forced : No

Text #1
ID : 4
Format : UTF-8
Codec ID : S_TEXT/UTF8
Codec ID/Info : UTF-8 Plain Text
Duration : 14 min 34 s
Bit rate : 4 b/s
Count of elements : 15
Stream size : 510 Bytes (0%)
Title : Форсированные
Language : Russian
Default : Yes
Forced : No

Text #2
ID : 5
Format : UTF-8
Codec ID : S_TEXT/UTF8
Codec ID/Info : UTF-8 Plain Text
Duration : 1 h 26 min
Bit rate : 114 b/s
Count of elements : 1692
Stream size : 72.4 KiB (0%)
Title : Полные
Language : Russian
Default : No
Forced : No

Text #3
ID : 6
Format : UTF-8
Codec ID : S_TEXT/UTF8
Codec ID/Info : UTF-8 Plain Text
Duration : 1 h 34 min
Bit rate : 73 b/s
Count of elements : 1718
Stream size : 50.8 KiB (0%)
Title : Full
Language : English
Default : No
Forced : No

Text #4
ID : 7
Format : UTF-8
Codec ID : S_TEXT/UTF8
Codec ID/Info : UTF-8 Plain Text
Duration : 1 h 34 min
Bit rate : 82 b/s
Count of elements : 1999
Stream size : 57.4 KiB (0%)
Title : SDH
Language : English
Default : No
Forced : No

Menu
00:00:00.000 : :1
00:06:36.563 : :2
00:11:17.760 : :3
00:18:01.289 : :4
00:21:05.389 : :5
00:25:45.085 : :6
00:29:01.990 : :7
00:34:01.706 : :8
00:37:10.603 : :9
00:43:43.037 : :10
00:48:33.786 : :11
00:52:16.675 : :12
00:55:48.095 : :13
00:59:50.128 : :14
01:05:28.758 : :15
01:09:06.476 : :16
01:15:03.499 : :17
01:21:30.719 : :18
01:25:12.691 : :19
01:27:39.129 : :20
Загрузка...Cкриншот1 Семейка Крудс: Новоселье / The Croods: A New Age (2020) [iTunes] UHD-BDRip 1080p [HEVC] 10 bit [HDR] от Mr. FoxЗагрузка...Cкриншот2 Семейка Крудс: Новоселье / The Croods: A New Age (2020) [iTunes] UHD-BDRip 1080p [HEVC] 10 bit [HDR] от Mr. FoxЗагрузка...Cкриншот3 Семейка Крудс: Новоселье / The Croods: A New Age (2020) [iTunes] UHD-BDRip 1080p [HEVC] 10 bit [HDR] от Mr. FoxЗагрузка...Cкриншот4 Семейка Крудс: Новоселье / The Croods: A New Age (2020) [iTunes] UHD-BDRip 1080p [HEVC] 10 bit [HDR] от Mr. Fox
Сэмпл
Торрент🧲 Магнет

Рейтинги КП и IMDB, кнопки "Позвать в чате" и "Спасибо", а также мультитрекерная статистика доступны только зарегистрированным/авторизованным пользователям!

Файлы: 2
  • The Croods
    • The Croods (2013).mkv   4.47 ГБ
    • The Croods A New Age (2020).mkv   3.47 ГБ
Поблагодарили: 13
and50, Brooklyn, donadar, garant3v, ivan_1965, Kiran, makss333, NoMaD, Nuclear70, RDigit, Rezident, StarLord, z_artem
Admin
33101310 (2)  7.95 ГБ

Добавление нового комментария

Добавление комментариев доступно только зарегистрированным/авторизованным пользователям.
Аватар OldGamer
  OldGamer  
так может просто скачивать SDR рипы, если нет поддержки HDR со стороны железа, не?
Аватар mafo2
  mafo2  
GrandConvoy писал(а):
Мне одному кажется что в данной раздаче цвета выглядят "холодными"? (нет насыщенной яркости более теплых красок!).
Для сравнения попробуйте скачать другую BDRip - версию данного мультфильма и сравнить насыщенность цвета!

У меня при конвертации такой же цветопередачи выходило. И я даже и не знаю от чего это зависит???

https://prnt.sc/10baonm
Это HDR рипы и, конечно оптимально его смотреть на мониторе или телевизоре HDR.
Но есть вариант просмотра и в вашем MPC пдеере. В закладке меню Вид выбераете Настройки. В разделе Воспроизведение выбираете Вывод.
В ВидеоDirectShow выбрать MPC Video Renderer или madvr. Плеер сам переведет HDR в SDR и вы получите цвета. Скрины в раздаче сделаны как раз в MPC.
Аватар GrandConvoy
  GrandConvoy  (Отредактировал GrandConvoy: )    
Мне одному кажется что в данной раздаче цвета выглядят "холодными"? (нет насыщенной яркости более теплых красок!).
Для сравнения попробуйте скачать другую BDRip - версию данного мультфильма и сравнить насыщенность цвета!

У меня при конвертации такой же цветопередачи выходило. И я даже и не знаю от чего это зависит???

https://prnt.sc/10baonm