💬 Мини-чат

GiggaloСообщение удалено (удалил: Giggalo)
StarLordOldGamer, как дела?)
StarLordOldGamer, ура, вернулся 😄
OldGamerRezident, можете скачать этот фильм от другого релизёра, там невелика разница, а раздающие точно есть
OldGamerGiggalo, https://tsya.ru/mnemonic.html
NoMaDСообщение удалено (удалил: NoMaD)
NoMaDСообщение удалено (удалил: NoMaD)
GiggaloСообщение удалено (удалил: Giggalo)
GiggaloСообщение удалено (удалил: Giggalo)
Spartanec1308Был днём
StarLordGiggalo, наверное отрубало беднягу, целый день его нету 😅
GiggaloСообщение удалено (удалил: Giggalo)
OldGamerДоброе. Работы много, некогда на перинах валяться.
GiggaloСообщение удалено (удалил: Giggalo)
GiggaloСообщение удалено (удалил: Giggalo)
  • OldGamer
  • Spartanec1308
  • Giggalo
  • alenu
Отправка сообщений доступна только зарегистрированным/авторизованным пользователям.
Онлайн (за 10 мин.): 4

Мулан / Mulan (2020) [iTunes] UHD-BDRip 1080p [HEVC] 10 bit [HDR] от -Star-Lord- (RG RIPS CLUB)

HEVC
HDR
10 bit
Обложка Мулан / Mulan (2020) [iTunes] UHD-BDRip 1080p [HEVC] 10 bit [HDR] от -Star-Lord- (RG RIPS CLUB) Год: 2020
Страна: США, Китай, Канада
Студия: China Film Group Corporation (CFGC), Good Fear Film + Management, Jason T. Reed Productions, Walt Disney Pictures
Жанр: Боевик, Драма, Фэнтези
Продолжительность: 01:55:11

Режиссер: Ники Каро
В ролях: Ифэй Лю, Донни Йен, Гун Ли, Джет Ли, Джейсон Скотт Ли, Йосон Ань, Ци Ма, Розалинд Чао, Чжэн Пэйпэй, Сюзанна Тан

Описание: Изданный императором Китая указ о призыве на службу в армии одного мужчины из каждой семьи для защиты страны от северных захватчиков вдохновляет Мулан, старшую дочь почетного воина, занять в войсках место больного отца. Маскируясь под мужчину, девушка подвергается испытаниям на каждом шагу, проявляя свои внутреннюю силу и истинный потенциал. Мулан ждет эпичное путешествие, которое превратит её в доблестного воина, позволит заслужить уважение народа и стать гордостью отца.


Видео: 1920x800, ~4299 Кбит/сек
Аудио1: AC3, 6 ch, 384 Kbps - РусскийРусский, Дублированный (iTunes)
Аудио2: AC3, 6 ch, 448 Kbps - РусскийРусский, Многоголосый (FocusX)
Аудио3: AC3, 6 ch, 448 Kbps - РусскийРусский, Многоголосый (IdeaFilm)
Аудио4: AC3, 6 ch, 448 Kbps - РусскийРусский, Многоголосый (HDRezka Studio)
Аудио5: AC3, 6 ch, 448 Kbps - РусскийРусский, Одноголосый (Д. Есарев)
Аудио6: AC3, 6 ch, 384 Kbps - УкраинскийУкраинский, Дублированный (iTunes)
Аудио7: AC3, 2 ch, 192 Kbps - УкраинскийУкраинский, Одноголосый (В одне рило)
Аудио8: AC3, 6 ch, 640 Kbps - АнглийскийАнглийский, Оригинал
Субтитры: русские (форсированные, полные х3), украинские (форсированные, полные), английские (полные, SDH)

Как за пару секунд удалить ненужные аудиодорожки и субтитры (Внимание! После удаления вы не сможете поддержать раздачу)

Лог (x265 info)
x265 [info]: frame I: 1903, Avg QP:14.30 kb/s: 17779.96
x265 [info]: frame P: 32025, Avg QP:15.54 kb/s: 8955.17
x265 [info]: frame B: 131776, Avg QP:17.73 kb/s: 2964.60
x265 [info]: Weighted P-Frames: Y:6.8% UV:4.9%
x265 [info]: Weighted B-Frames: Y:5.9% UV:3.8%
x265 [info]: consecutive B-frames: 11.8% 9.3% 8.1% 29.8% 9.3% 10.6% 4.2% 5.0% 2.3% 4.0% 1.2% 1.0% 0.7% 1.0% 0.6% 0.5% 0.5%

encoded 165704 frames in 164545.49s (1.01 fps), 4292.52 kb/s, Avg QP:17.26
Медиаинфо
General
Unique ID : 130284012954876335111917861771164114313 (0x6203C9C6539933347B1C908D5AE1DD89)
Complete name : Mulan (2020) [HDR] BDRip 1080p H.265 [5xRUS_2xUKR_ENG] [RIPS-CLUB].mkv
Format : Matroska
Format version : Version 4
File size : 6.19 GiB
Duration : 1 h 55 min
Overall bit rate : 7 696 kb/s
Movie name : Мулан / Mulan (2020)
Encoded date : UTC 2021-03-04 20:05:43
Writing application : mkvmerge v20.0.0 ('I Am The Sun') 64-bit
Writing library : libebml v1.3.5 + libmatroska v1.4.8
Cover : Yes
Attachments : Cover.jpg

Video
ID : 1
Format : HEVC
Format/Info : High Efficiency Video Coding
Format profile : Main 10@L5.1@High
HDR format : SMPTE ST 2086, HDR10 compatible
Codec ID : V_MPEGH/ISO/HEVC
Duration : 1 h 55 min
Bit rate : 4 299 kb/s
Width : 1 920 pixels
Height : 800 pixels
Display aspect ratio : 2.40:1
Frame rate mode : Constant
Frame rate : 23.976 (24000/1001) FPS
Color space : YUV
Chroma subsampling : 4:2:0 (Type 2)
Bit depth : 10 bits
Bits/(Pixel*Frame) : 0.117
Stream size : 3.46 GiB (56%)
Title : Мулан / Mulan (2020)
Writing library : x265 3.4+12-g9103319fc:[Windows][GCC 10.2.0][64 bit] 10bit
Encoding settings : cpuid=1111039 / frame-threads=3 / numa-pools=12 / wpp / no-pmode / no-pme / no-psnr / no-ssim / log-level=2 / input-csp=1 / input-res=1920x800 / interlace=0 / total-frames=165704 / level-idc=51 / high-tier=1 / uhd-bd=0 / ref=5 / no-allow-non-conformance / repeat-headers / annexb / no-aud / no-hrd / info / hash=0 / no-temporal-layers / open-gop / min-keyint=23 / keyint=240 / gop-lookahead=0 / bframes=16 / b-adapt=2 / b-pyramid / bframe-bias=0 / rc-lookahead=60 / lookahead-slices=4 / scenecut=40 / hist-scenecut=0 / radl=0 / no-splice / no-intra-refresh / ctu=32 / min-cu-size=8 / rect / amp / max-tu-size=32 / tu-inter-depth=4 / tu-intra-depth=4 / limit-tu=1 / rdoq-level=2 / dynamic-rd=0.00 / no-ssim-rd / signhide / no-tskip / nr-intra=0 / nr-inter=0 / no-constrained-intra / no-strong-intra-smoothing / max-merge=5 / limit-refs=2 / limit-modes / me=3 / subme=7 / merange=57 / temporal-mvp / no-frame-dup / no-hme / weightp / weightb / no-analyze-src-pics / deblock=-3:-3 / no-sao / no-sao-non-deblock / rd=6 / selective-sao=0 / no-early-skip / no-rskip / no-fast-intra / no-tskip-fast / no-cu-lossless / no-b-intra / no-splitrd-skip / rdpenalty=0 / psy-rd=2.00 / psy-rdoq=1.00 / no-rd-refine / no-lossless / cbqpoffs=0 / crqpoffs=0 / rc=crf / crf=17.7 / qcomp=0.80 / qpstep=4 / stats-write=0 / stats-read=0 / vbv-maxrate=50000 / vbv-bufsize=50000 / vbv-init=0.9 / crf-max=0.0 / crf-min=0.0 / ipratio=1.40 / pbratio=1.30 / aq-mode=1 / aq-strength=1.00 / no-cutree / zone-count=0 / no-strict-cbr / qg-size=32 / no-rc-grain / qpmax=69 / qpmin=0 / no-const-vbv / sar=1 / overscan=0 / videoformat=5 / range=0 / colorprim=9 / transfer=16 / colormatrix=9 / chromaloc=1 / chromaloc-top=2 / chromaloc-bottom=2 / display-window=0 / master-display=G(13250,34500)B(7500,3000)R(34000,16000)WP(15635,16450)L(10000000,1) / cll=0,0 / min-luma=0 / max-luma=1023 / log2-max-poc-lsb=8 / vui-timing-info / vui-hrd-info / slices=1 / no-opt-qp-pps / no-opt-ref-list-length-pps / no-multi-pass-opt-rps / scenecut-bias=0.05 / hist-threshold=0.01 / no-opt-cu-delta-qp / no-aq-motion / hdr10 / hdr10-opt / no-dhdr10-opt / no-idr-recovery-sei / analysis-reuse-level=0 / analysis-save-reuse-level=0 / analysis-load-reuse-level=0 / scale-factor=0 / refine-intra=0 / refine-inter=0 / refine-mv=1 / refine-ctu-distortion=0 / no-limit-sao / ctu-info=0 / no-lowpass-dct / refine-analysis-type=0 / copy-pic=1 / max-ausize-factor=1.0 / no-dynamic-refine / no-single-sei / no-hevc-aq / no-svt / no-field / qp-adaptation-range=1.00 / no-scenecut-aware-qpconformance-window-offsets / right=0 / bottom=0 / decoder-max-rate=0
Default : Yes
Forced : No
Color range : Limited
Color primaries : BT.2020
Transfer characteristics : PQ
Matrix coefficients : BT.2020 non-constant
Mastering display color primaries : Display P3
Mastering display luminance : min: 0.0001 cd/m2, max: 1000 cd/m2

Audio #1
ID : 2
Format : AC-3
Format/Info : Audio Coding 3
Commercial name : Dolby Digital
Codec ID : A_AC3
Duration : 1 h 55 min
Bit rate mode : Constant
Bit rate : 384 kb/s
Channel(s) : 6 channels
Channel layout : L R C LFE Ls Rs
Sampling rate : 48.0 kHz
Frame rate : 31.250 FPS (1536 SPF)
Compression mode : Lossy
Stream size : 316 MiB (5%)
Title : AC-3 / 5.1 Ch / 384 kbps / DUB / iTunes
Language : Russian
Service kind : Complete Main
Default : Yes
Forced : Yes

Audio #2
ID : 3
Format : AC-3
Format/Info : Audio Coding 3
Commercial name : Dolby Digital
Codec ID : A_AC3
Duration : 1 h 55 min
Bit rate mode : Constant
Bit rate : 448 kb/s
Channel(s) : 6 channels
Channel layout : L R C LFE Ls Rs
Sampling rate : 48.0 kHz
Frame rate : 31.250 FPS (1536 SPF)
Compression mode : Lossy
Stream size : 369 MiB (6%)
Title : AC-3 / 5.1 Ch / 448 kbps / MVO / FocusX
Language : Russian
Service kind : Complete Main
Default : No
Forced : No

Audio #3
ID : 4
Format : AC-3
Format/Info : Audio Coding 3
Commercial name : Dolby Digital
Codec ID : A_AC3
Duration : 1 h 55 min
Bit rate mode : Constant
Bit rate : 448 kb/s
Channel(s) : 6 channels
Channel layout : L R C LFE Ls Rs
Sampling rate : 48.0 kHz
Frame rate : 31.250 FPS (1536 SPF)
Compression mode : Lossy
Stream size : 369 MiB (6%)
Title : AC-3 / 5.1 Ch / 448 kbps / MVO / IdeaFilm
Language : Russian
Service kind : Complete Main
Default : No
Forced : No

Audio #4
ID : 5
Format : AC-3
Format/Info : Audio Coding 3
Commercial name : Dolby Digital
Codec ID : A_AC3
Duration : 1 h 55 min
Bit rate mode : Constant
Bit rate : 448 kb/s
Channel(s) : 6 channels
Channel layout : L R C LFE Ls Rs
Sampling rate : 48.0 kHz
Frame rate : 31.250 FPS (1536 SPF)
Compression mode : Lossy
Stream size : 369 MiB (6%)
Title : AC-3 / 5.1 Ch / 448 kbps / MVO / HDRezka Studio
Language : Russian
Service kind : Complete Main
Default : No
Forced : No

Audio #5
ID : 6
Format : AC-3
Format/Info : Audio Coding 3
Commercial name : Dolby Digital
Codec ID : A_AC3
Duration : 1 h 55 min
Bit rate mode : Constant
Bit rate : 448 kb/s
Channel(s) : 6 channels
Channel layout : L R C LFE Ls Rs
Sampling rate : 48.0 kHz
Frame rate : 31.250 FPS (1536 SPF)
Compression mode : Lossy
Stream size : 369 MiB (6%)
Title : AC-3 / 5.1 Ch / 448 kbps / AVO / Д. Есарев
Language : Russian
Service kind : Complete Main
Default : No
Forced : No

Audio #6
ID : 7
Format : AC-3
Format/Info : Audio Coding 3
Commercial name : Dolby Digital
Codec ID : A_AC3
Duration : 1 h 55 min
Bit rate mode : Constant
Bit rate : 384 kb/s
Channel(s) : 6 channels
Channel layout : L R C LFE Ls Rs
Sampling rate : 48.0 kHz
Frame rate : 31.250 FPS (1536 SPF)
Compression mode : Lossy
Stream size : 316 MiB (5%)
Title : AC-3 / 5.1 Ch / 384 kbps / DUB / iTunes
Language : Ukrainian
Service kind : Complete Main
Default : No
Forced : No

Audio #7
ID : 8
Format : AC-3
Format/Info : Audio Coding 3
Commercial name : Dolby Digital
Codec ID : A_AC3
Duration : 1 h 55 min
Bit rate mode : Constant
Bit rate : 192 kb/s
Channel(s) : 2 channels
Channel layout : L R
Sampling rate : 48.0 kHz
Frame rate : 31.250 FPS (1536 SPF)
Compression mode : Lossy
Stream size : 158 MiB (2%)
Title : AC-3 / 2.0 Ch / 192 kbps / AVO / В одне рило
Language : Ukrainian
Service kind : Complete Main
Default : No
Forced : No

Audio #8
ID : 9
Format : AC-3
Format/Info : Audio Coding 3
Commercial name : Dolby Digital
Codec ID : A_AC3
Duration : 1 h 55 min
Bit rate mode : Constant
Bit rate : 640 kb/s
Channel(s) : 6 channels
Channel layout : L R C LFE Ls Rs
Sampling rate : 48.0 kHz
Frame rate : 31.250 FPS (1536 SPF)
Compression mode : Lossy
Stream size : 527 MiB (8%)
Title : AC-3 / 5.1 Ch / 640 kbps / Original
Language : English
Service kind : Complete Main
Default : No
Forced : No

Text #1
ID : 10
Format : UTF-8
Codec ID : S_TEXT/UTF8
Codec ID/Info : UTF-8 Plain Text
Duration : 1 h 37 min
Bit rate : 0 b/s
Count of elements : 9
Stream size : 420 Bytes (0%)
Title : Forced
Language : Russian
Default : Yes
Forced : Yes

Text #2
ID : 11
Format : UTF-8
Codec ID : S_TEXT/UTF8
Codec ID/Info : UTF-8 Plain Text
Duration : 1 h 54 min
Bit rate : 42 b/s
Count of elements : 785
Stream size : 35.9 KiB (0%)
Title : Full from iTunes
Language : Russian
Default : No
Forced : No

Text #3
ID : 12
Format : UTF-8
Codec ID : S_TEXT/UTF8
Codec ID/Info : UTF-8 Plain Text
Duration : 1 h 44 min
Bit rate : 51 b/s
Count of elements : 775
Stream size : 39.5 KiB (0%)
Title : Full by FocusX
Language : Russian
Default : No
Forced : No

Text #4
ID : 13
Format : UTF-8
Codec ID : S_TEXT/UTF8
Codec ID/Info : UTF-8 Plain Text
Duration : 1 h 44 min
Bit rate : 50 b/s
Count of elements : 849
Stream size : 38.7 KiB (0%)
Title : Full by Focs
Language : Russian
Default : No
Forced : No

Text #5
ID : 14
Format : UTF-8
Codec ID : S_TEXT/UTF8
Codec ID/Info : UTF-8 Plain Text
Duration : 3 min 19 s
Bit rate : 5 b/s
Count of elements : 3
Stream size : 145 Bytes (0%)
Title : Forced
Language : Ukrainian
Default : No
Forced : No

Text #6
ID : 15
Format : UTF-8
Codec ID : S_TEXT/UTF8
Codec ID/Info : UTF-8 Plain Text
Duration : 1 h 43 min
Bit rate : 50 b/s
Count of elements : 848
Stream size : 38.2 KiB (0%)
Title : Full by killer2015
Language : Ukrainian
Default : No
Forced : No

Text #7
ID : 16
Format : UTF-8
Codec ID : S_TEXT/UTF8
Codec ID/Info : UTF-8 Plain Text
Duration : 1 h 50 min
Bit rate : 30 b/s
Count of elements : 926
Stream size : 24.8 KiB (0%)
Title : Full
Language : English
Default : No
Forced : No

Text #8
ID : 17
Format : UTF-8
Codec ID : S_TEXT/UTF8
Codec ID/Info : UTF-8 Plain Text
Duration : 1 h 50 min
Bit rate : 36 b/s
Count of elements : 1150
Stream size : 29.5 KiB (0%)
Title : SDH
Language : English
Default : No
Forced : No

Menu
00:00:00.000 : :Chapter 1
00:04:44.117 : :Chapter 2
00:06:26.427 : :Chapter 3
00:09:29.151 : :Chapter 4
00:13:27.223 : :Chapter 5
00:20:51.583 : :Chapter 6
00:26:33.675 : :Chapter 7
00:29:03.992 : :Chapter 8
00:36:48.831 : :Chapter 9
00:41:41.707 : :Chapter 10
00:50:45.667 : :Chapter 11
00:57:19.060 : :Chapter 12
01:01:13.336 : :Chapter 13
01:11:22.820 : :Chapter 14
01:16:34.923 : :Chapter 15
01:22:11.551 : :Chapter 16
01:29:59.060 : :Chapter 17
01:34:59.819 : :Chapter 18
01:38:52.384 : :Chapter 19
01:44:40.399 : :Chapter 20
Загрузка...Cкриншот1 Мулан / Mulan (2020) [iTunes] UHD-BDRip 1080p [HEVC] 10 bit [HDR] от -Star-Lord- (RG RIPS CLUB)Загрузка...Cкриншот2 Мулан / Mulan (2020) [iTunes] UHD-BDRip 1080p [HEVC] 10 bit [HDR] от -Star-Lord- (RG RIPS CLUB)Загрузка...Cкриншот3 Мулан / Mulan (2020) [iTunes] UHD-BDRip 1080p [HEVC] 10 bit [HDR] от -Star-Lord- (RG RIPS CLUB)Загрузка...Cкриншот4 Мулан / Mulan (2020) [iTunes] UHD-BDRip 1080p [HEVC] 10 bit [HDR] от -Star-Lord- (RG RIPS CLUB)
Релиз-группа: RIPS CLUB
Сэмпл Торрент🧲 Магнет

Рейтинги КП и IMDB, кнопки "Позвать в чате" и "Спасибо", а также мультитрекерная статистика доступны только зарегистрированным/авторизованным пользователям!

Файлы: 1
  • Mulan (2020) [HDR] BDRip 1080p H.265 [5xRUS_2xUKR_ENG] [RIPS-CLUB].mkv   6.19 ГБ
Поблагодарили: 5
Kiran, mafo2, makss333, NoMaD, z_artem
StarLord
768148116.19 ГБ

Добавление нового комментария

Добавление комментариев доступно только зарегистрированным/авторизованным пользователям.
Аватар StarLord
  StarLord  
NoMaD писал(а):
Сэмпл бы ещё переделать - там ведь нет дубляжа
Это уже задачка со звездочкой :)
Удалил лишние дорожки из фильма.
Аватар NoMaD
  NoMaD  
Сэмпл бы ещё переделать - там ведь нет дубляжа
Аватар StarLord
  StarLord  (Отредактировал StarLord: )    
NoMaD писал(а):
Косячник))) Вот теперь есть)))
в ремуксе её не было, вот и в релиз не попала 😔
Аватар NoMaD
  NoMaD  
StarLord писал(а):
странно, вроде ж есть 😁
Косячник))) Вот теперь есть)))
Аватар StarLord
  StarLord  
NoMaD писал(а):
А где русский дубляж???
странно, вроде ж есть 😁
Аватар NoMaD
  NoMaD  
А где русский дубляж???
Аватар mafo2
  mafo2  
👍