💬 Мини-чат

GiggaloСообщение удалено (удалил: Giggalo)
StarLordOldGamer, как дела?)
StarLordOldGamer, ура, вернулся 😄
OldGamerRezident, можете скачать этот фильм от другого релизёра, там невелика разница, а раздающие точно есть
OldGamerGiggalo, https://tsya.ru/mnemonic.html
NoMaDСообщение удалено (удалил: NoMaD)
NoMaDСообщение удалено (удалил: NoMaD)
GiggaloСообщение удалено (удалил: Giggalo)
GiggaloСообщение удалено (удалил: Giggalo)
Spartanec1308Был днём
StarLordGiggalo, наверное отрубало беднягу, целый день его нету 😅
GiggaloСообщение удалено (удалил: Giggalo)
OldGamerДоброе. Работы много, некогда на перинах валяться.
GiggaloСообщение удалено (удалил: Giggalo)
GiggaloСообщение удалено (удалил: Giggalo)
  • Spartanec1308
  • Blaster
  • Krem_OFF
  • litanglong
Отправка сообщений доступна только зарегистрированным/авторизованным пользователям.
Онлайн (за 10 мин.): 4

Татуированный / Le tatoué / The Tattoo (1968) BDRip 1080p [HEVC] 10 bit от Mr. Fox

HEVC
10 bit
Обложка Татуированный / Le tatoué / The Tattoo (1968) BDRip 1080p [HEVC] 10 bit от Mr. Fox Год: 1968
Страна: Франция, Италия
Студия: Ascot, Cineraid, Les Films Copernic, Les Films Corona
Жанр: Комедия
Продолжительность: 01:30:05

Режиссер: Дени де Ла Пательер
В ролях: Луи де Фюнес, Жан Габен, Поль Мерси, Ив Барсак, Пьер Торнад, Жан-Пьер Даррас, Джо Уорфилд, Дональд Дж. фон Кертц, Лин Шардонне, Ибрахим Сек

Описание: Шустрый и нечистоплотный торговец антиквариатом Фелисьен Мезере случайно видит на широкой спине позирующего художнику пожилого человека необычную татуировку. Опытный глаз пройдохи сразу определяет руку мастера — и действительно, этот рисунок когда-то сделал майору Леграну великий Модильяни. Фелисьен незамедлительно предлагает Леграну продать кожу со спины за любые деньги, но тот с возмущением отвергает абсурдное предложение. Но обезумевший от жадности антиквар готов на все, лишь бы заполучить в свои руки бесценный шедевр и продать его втридорога. Легран в конце концов соглашается, но в обмен на небольшую услугу. Фелисьен не раздумывая соглашается, и они отправляются в необычное путешествие...


Видео: 1920x816, ~8205 Кбит/сек
Аудио1: AC3, 2 ch, 192 Kbps - РусскийРусский, Многоголосый (3AO OPT-BИДEO)
Аудио2: AC3, 2 ch, 192 Kbps - УкраинскийУкраинский, Многоголосый (KIHO)
Аудио3: AC3, 2 ch, 224 Kbps - ФранцузскийФранцузский, Оригинал
Субтитры: Русские, английские

Как за пару секунд удалить ненужные аудиодорожки и субтитры (Внимание! После удаления вы не сможете поддержать раздачу)

Лог (x265 info)
x265 [info]: frame I: Avg QP:17.91 kb/s
x265 [info]: frame P: Avg QP:19.30 kb/s
x265 [info]: frame B: Avg QP:21.49 kb/s
Медиаинфо
General
Unique ID : 53316937180230423385467851067085608580 (0x281C77F53DE24C372F646F90B330D684)
Complete name : E:\Torrent\Le tatoué (1968).mkv
Format : Matroska
Format version : Version 4
File size : 5.55 GiB
Duration : 1 h 30 min
Overall bit rate : 8 816 kb/s
Movie name : Le tatoué (1968)
Encoded date : UTC 2021-03-16 09:39:32
Writing application : mkvmerge v54.0.0 ('F Maj Pixie') 64-bit
Writing library : libebml v1.4.2 + libmatroska v1.6.3
Cover : Yes
Attachments : cover

Video
ID : 1
Format : HEVC
Format/Info : High Efficiency Video Coding
Format profile : Main 10@L4.1@High
Codec ID : V_MPEGH/ISO/HEVC
Duration : 1 h 30 min
Bit rate : 8 205 kb/s
Width : 1 920 pixels
Height : 816 pixels
Display aspect ratio : 2.35:1
Frame rate mode : Constant
Frame rate : 24.000 FPS
Color space : YUV
Chroma subsampling : 4:2:0
Bit depth : 10 bits
Bits/(Pixel*Frame) : 0.218
Stream size : 5.16 GiB (93%)
Writing library : x265 3.4+10-g25b2c0703:[Windows][MSVC 1927][64 bit] 10bit
Encoding settings : cpuid=1111039 / frame-threads=4 / numa-pools=16 / wpp / no-pmode / no-pme / no-psnr / no-ssim / log-level=2 / input-csp=1 / input-res=1920x816 / interlace=0 / total-frames=129738 / level-idc=41 / high-tier=1 / uhd-bd=0 / ref=5 / no-allow-non-conformance / no-repeat-headers / annexb / no-aud / no-hrd / info / hash=0 / no-temporal-layers / open-gop / min-keyint=23 / keyint=240 / gop-lookahead=0 / bframes=10 / b-adapt=2 / b-pyramid / bframe-bias=0 / rc-lookahead=60 / lookahead-slices=4 / scenecut=40 / hist-scenecut=0 / radl=0 / no-splice / no-intra-refresh / ctu=32 / min-cu-size=8 / rect / amp / max-tu-size=32 / tu-inter-depth=4 / tu-intra-depth=4 / limit-tu=1 / rdoq-level=2 / dynamic-rd=0.00 / no-ssim-rd / signhide / no-tskip / nr-intra=0 / nr-inter=0 / no-constrained-intra / no-strong-intra-smoothing / max-merge=4 / limit-refs=2 / limit-modes / me=3 / subme=7 / merange=57 / temporal-mvp / no-frame-dup / no-hme / weightp / weightb / no-analyze-src-pics / deblock=-3:-3 / no-sao / no-sao-non-deblock / rd=6 / selective-sao=0 / no-early-skip / no-rskip / no-fast-intra / no-tskip-fast / no-cu-lossless / no-b-intra / no-splitrd-skip / rdpenalty=0 / psy-rd=2.00 / psy-rdoq=1.00 / no-rd-refine / no-lossless / cbqpoffs=0 / crqpoffs=0 / rc=crf / crf=19.0 / qcomp=0.65 / qpstep=4 / stats-write=0 / stats-read=0 / vbv-maxrate=50000 / vbv-bufsize=50000 / vbv-init=0.9 / crf-max=0.0 / crf-min=0.0 / ipratio=1.40 / pbratio=1.30 / aq-mode=1 / aq-strength=1.00 / no-cutree / zone-count=0 / no-strict-cbr / qg-size=32 / no-rc-grain / qpmax=69 / qpmin=0 / no-const-vbv / sar=1 / overscan=0 / videoformat=5 / range=0 / colorprim=1 / transfer=1 / colormatrix=1 / chromaloc=0 / display-window=0 / cll=0,0 / min-luma=0 / max-luma=1023 / log2-max-poc-lsb=8 / vui-timing-info / vui-hrd-info / slices=1 / no-opt-qp-pps / no-opt-ref-list-length-pps / no-multi-pass-opt-rps / scenecut-bias=0.05 / hist-threshold=0.01 / no-opt-cu-delta-qp / no-aq-motion / no-hdr10 / no-hdr10-opt / no-dhdr10-opt / no-idr-recovery-sei / analysis-reuse-level=0 / analysis-save-reuse-level=0 / analysis-load-reuse-level=0 / scale-factor=0 / refine-intra=0 / refine-inter=0 / refine-mv=1 / refine-ctu-distortion=0 / no-limit-sao / ctu-info=0 / no-lowpass-dct / refine-analysis-type=0 / copy-pic=1 / max-ausize-factor=1.0 / no-dynamic-refine / no-single-sei / no-hevc-aq / no-svt / no-field / qp-adaptation-range=1.00 / no-scenecut-aware-qpconformance-window-offsets / right=0 / bottom=0 / decoder-max-rate=0
Default : Yes
Forced : No
Color range : Limited
Color primaries : BT.709
Transfer characteristics : BT.709
Matrix coefficients : BT.709

Audio #1
ID : 2
Format : AC-3
Format/Info : Audio Coding 3
Commercial name : Dolby Digital
Codec ID : A_AC3
Duration : 1 h 30 min
Bit rate mode : Constant
Bit rate : 192 kb/s
Channel(s) : 2 channels
Channel layout : L R
Sampling rate : 48.0 kHz
Frame rate : 31.250 FPS (1536 SPF)
Compression mode : Lossy
Stream size : 124 MiB (2%)
Title : MVO [3AO OPT-BИДEO]
Language : Russian
Service kind : Complete Main
Default : No
Forced : No

Audio #2
ID : 3
Format : AC-3
Format/Info : Audio Coding 3
Commercial name : Dolby Digital
Codec ID : A_AC3
Duration : 1 h 30 min
Bit rate mode : Constant
Bit rate : 192 kb/s
Channel(s) : 2 channels
Channel layout : L R
Sampling rate : 48.0 kHz
Frame rate : 31.250 FPS (1536 SPF)
Compression mode : Lossy
Stream size : 124 MiB (2%)
Title : MVO (KIHO)
Language : Ukrainian
Service kind : Complete Main
Default : Yes
Forced : Yes

Audio #3
ID : 4
Format : AC-3
Format/Info : Audio Coding 3
Commercial name : Dolby Digital
Codec ID : A_AC3
Duration : 1 h 30 min
Bit rate mode : Constant
Bit rate : 224 kb/s
Channel(s) : 2 channels
Channel layout : L R
Sampling rate : 48.0 kHz
Frame rate : 31.250 FPS (1536 SPF)
Compression mode : Lossy
Stream size : 144 MiB (3%)
Title : Original
Language : French
Service kind : Complete Main
Default : No
Forced : No

Text #1
ID : 5
Format : UTF-8
Codec ID : S_TEXT/UTF8
Codec ID/Info : UTF-8 Plain Text
Duration : 1 h 29 min
Bit rate : 116 b/s
Count of elements : 1330
Stream size : 76.3 KiB (0%)
Title : Full
Language : Russian
Default : No
Forced : No

Text #2
ID : 6
Format : UTF-8
Codec ID : S_TEXT/UTF8
Codec ID/Info : UTF-8 Plain Text
Duration : 1 h 28 min
Bit rate : 51 b/s
Count of elements : 850
Stream size : 33.3 KiB (0%)
Language : English
Default : No
Forced : No

Menu
00:00:00.000 : fr:Chapitre 1
00:09:00.000 : fr:Chapitre 2
00:18:00.000 : fr:Chapitre 3
00:27:00.000 : fr:Chapitre 4
00:36:00.000 : fr:Chapitre 5
00:45:00.000 : fr:Chapitre 6
00:54:00.000 : fr:Chapitre 7
01:03:00.000 : fr:Chapitre 8
01:12:00.000 : fr:Chapitre 9
01:21:00.000 : fr:Chapitre 10
Загрузка...Cкриншот1 Татуированный / Le tatoué / The Tattoo (1968) BDRip 1080p [HEVC] 10 bit от Mr. FoxЗагрузка...Cкриншот2 Татуированный / Le tatoué / The Tattoo (1968) BDRip 1080p [HEVC] 10 bit от Mr. FoxЗагрузка...Cкриншот3 Татуированный / Le tatoué / The Tattoo (1968) BDRip 1080p [HEVC] 10 bit от Mr. FoxЗагрузка...Cкриншот4 Татуированный / Le tatoué / The Tattoo (1968) BDRip 1080p [HEVC] 10 bit от Mr. Fox
Сэмпл Торрент🧲 Магнет

Рейтинги КП и IMDB, кнопки "Позвать в чате" и "Спасибо", а также мультитрекерная статистика доступны только зарегистрированным/авторизованным пользователям!

Файлы: 1
  • Le tatoué (1968).mkv   5.55 ГБ
Поблагодарили: 14
alenu, and50, donadar, Elico1977, han-nik, ivan_1965, joker63, makss333, NoMaD, OldGamer, Rezident, StarLord, torrentzulu, Zulbay
Admin
31761105.55 ГБ

Добавление нового комментария

Добавление комментариев доступно только зарегистрированным/авторизованным пользователям.
Аватар mafo2
  mafo2  (Отредактировал mafo2: )    
alenu писал(а):
Has Grain been removed from this movie?
there was not much grain in the source
Аватар OldGamer
  OldGamer  
alenu писал(а):
Has Grain been removed from this movie?
Highly likely that the grain has been removed
Аватар alenu
  alenu  
Has Grain been removed from this movie?