💬 Мини-чат

GiggaloСообщение удалено (удалил: Giggalo)
StarLordOldGamer, как дела?)
StarLordOldGamer, ура, вернулся 😄
OldGamerRezident, можете скачать этот фильм от другого релизёра, там невелика разница, а раздающие точно есть
OldGamerGiggalo, https://tsya.ru/mnemonic.html
NoMaDСообщение удалено (удалил: NoMaD)
NoMaDСообщение удалено (удалил: NoMaD)
GiggaloСообщение удалено (удалил: Giggalo)
GiggaloСообщение удалено (удалил: Giggalo)
Spartanec1308Был днём
StarLordGiggalo, наверное отрубало беднягу, целый день его нету 😅
GiggaloСообщение удалено (удалил: Giggalo)
OldGamerДоброе. Работы много, некогда на перинах валяться.
GiggaloСообщение удалено (удалил: Giggalo)
GiggaloСообщение удалено (удалил: Giggalo)
  • Spartanec1308
  • StarLord
  • Krem_OFF
  • litanglong
  • mr_nikitin
Отправка сообщений доступна только зарегистрированным/авторизованным пользователям.
Онлайн (за 10 мин.): 5

Пятый элемент / The Fifth Element (1997) UHD-BDRip 1080p [HEVC] 10 bit [HDR] от Mr. Fox

HEVC
HDR
10 bit
Обложка Пятый элемент / The Fifth Element (1997) UHD-BDRip 1080p [HEVC] 10 bit [HDR] от Mr. Fox Год: 1997
Страна: Франция, Великобритания, США
Студия: Gaumont
Жанр: Фантастика, Боевик, Триллер, Комедия
Продолжительность: 02:06:17

Режиссер: Люк Бессон
В ролях: Брюс Уиллис, Милла Йовович, Гари Олдман, Иэн Холм, Крис Такер, Люк Перри, Брайон Джеймс, Том ’Тайни’ Листер мл., Ли Эванс, Чарли Крид-Майлз

Описание: Каждые пять тысяч лет открываются двери между измерениями и темные силы стремятся нарушить существующую гармонию. Каждые пять тысяч лет Вселенной нужен герой, способный противостоять этому злу. XXIII век. Нью-йоркский таксист Корбен Даллас должен решить глобальную задачу - спасение всего рода человеческого. Зло в виде раскаленной массы, наделенной интеллектом, надвигается на Землю. Победить его можно, только лишь собрав воедино четыре элемента (они же стихии - земля, вода, воздух и огонь) и добавив к ним загадочный пятый элемент.


Видео: 1920x802, ~8486 Кбит/сек
Аудио1: AC3, 6 ch, 640 Kbps - РусскийРусский, Дублированный (Амальгама)
Аудио2: AC3, 2 ch, 192 Kbps - УкраинскийУкраинский, Многоголосый (ICTV)
Аудио3: AC3, 6 ch, 640 Kbps - АнглийскийАнглийский, Оригинал
Субтитры: Русские, английские (полные, SDH)

Как за пару секунд удалить ненужные аудиодорожки и субтитры (Внимание! После удаления вы не сможете поддержать раздачу)

Лог (x265 info)
x265 [info]: frame I: Avg QP:18.08 kb/s
x265 [info]: frame P: Avg QP:19.41 kb/s
x265 [info]: frame B: Avg QP:21.22 kb/s
Медиаинфо
General
Unique ID : 190292389435398158143325621427729043933 (0x8F28FB296307F0CAA0AA109A48A791DD)
Complete name : E:\Torrent\The Fifth Element (1997).mkv
Format : Matroska
Format version : Version 4
File size : 8.96 GiB
Duration : 2 h 6 min
Overall bit rate : 10.2 Mb/s
Movie name : The Fifth Element (1997)
Encoded date : UTC 2021-03-16 07:28:35
Writing application : mkvmerge v6.0.0 ('Coming Up For Air') built on Jan 20 2013 09:52:00
Writing library : libebml v1.3.0 + libmatroska v1.4.0
Cover : Yes
Attachments : cover.jpg

Video
ID : 1
Format : HEVC
Format/Info : High Efficiency Video Coding
Format profile : Main 10@L4.1@High
HDR format : SMPTE ST 2086, HDR10 compatible
Codec ID : V_MPEGH/ISO/HEVC
Duration : 2 h 6 min
Bit rate : 8 486 kb/s
Width : 1 920 pixels
Height : 802 pixels
Display aspect ratio : 2.40:1
Frame rate mode : Constant
Frame rate : 24.000 FPS
Color space : YUV
Chroma subsampling : 4:2:0 (Type 2)
Bit depth : 10 bits
Bits/(Pixel*Frame) : 0.230
Stream size : 7.49 GiB (84%)
Writing library : x265 3.4+10-g25b2c0703:[Windows][MSVC 1927][64 bit] 10bit
Encoding settings : cpuid=1111039 / frame-threads=4 / numa-pools=16 / wpp / no-pmode / no-pme / no-psnr / no-ssim / log-level=2 / input-csp=1 / input-res=1920x802 / interlace=0 / total-frames=182452 / level-idc=41 / high-tier=1 / uhd-bd=0 / ref=5 / no-allow-non-conformance / repeat-headers / annexb / no-aud / no-hrd / info / hash=0 / no-temporal-layers / open-gop / min-keyint=23 / keyint=240 / gop-lookahead=0 / bframes=10 / b-adapt=2 / b-pyramid / bframe-bias=0 / rc-lookahead=60 / lookahead-slices=4 / scenecut=40 / hist-scenecut=0 / radl=0 / no-splice / no-intra-refresh / ctu=32 / min-cu-size=8 / rect / amp / max-tu-size=32 / tu-inter-depth=4 / tu-intra-depth=4 / limit-tu=1 / rdoq-level=2 / dynamic-rd=0.00 / no-ssim-rd / signhide / no-tskip / nr-intra=0 / nr-inter=0 / no-constrained-intra / no-strong-intra-smoothing / max-merge=4 / limit-refs=2 / limit-modes / me=3 / subme=7 / merange=57 / temporal-mvp / no-frame-dup / no-hme / weightp / weightb / no-analyze-src-pics / deblock=-3:-3 / no-sao / no-sao-non-deblock / rd=6 / selective-sao=0 / no-early-skip / no-rskip / no-fast-intra / no-tskip-fast / no-cu-lossless / no-b-intra / no-splitrd-skip / rdpenalty=0 / psy-rd=2.00 / psy-rdoq=1.00 / no-rd-refine / no-lossless / cbqpoffs=0 / crqpoffs=0 / rc=crf / crf=19.0 / qcomp=0.70 / qpstep=4 / stats-write=0 / stats-read=0 / vbv-maxrate=50000 / vbv-bufsize=50000 / vbv-init=0.9 / crf-max=0.0 / crf-min=0.0 / ipratio=1.40 / pbratio=1.30 / aq-mode=1 / aq-strength=1.00 / no-cutree / zone-count=0 / no-strict-cbr / qg-size=32 / no-rc-grain / qpmax=69 / qpmin=0 / no-const-vbv / sar=1 / overscan=0 / videoformat=5 / range=0 / colorprim=9 / transfer=16 / colormatrix=9 / chromaloc=1 / chromaloc-top=2 / chromaloc-bottom=2 / display-window=0 / master-display=G(13250,34500)B(7500,3000)R(34000,16000)WP(15635,16450)L(10000000,1) / cll=0,0 / min-luma=0 / max-luma=1023 / log2-max-poc-lsb=8 / vui-timing-info / vui-hrd-info / slices=1 / no-opt-qp-pps / no-opt-ref-list-length-pps / no-multi-pass-opt-rps / scenecut-bias=0.05 / hist-threshold=0.01 / no-opt-cu-delta-qp / no-aq-motion / hdr10 / hdr10-opt / no-dhdr10-opt / no-idr-recovery-sei / analysis-reuse-level=0 / analysis-save-reuse-level=0 / analysis-load-reuse-level=0 / scale-factor=0 / refine-intra=0 / refine-inter=0 / refine-mv=1 / refine-ctu-distortion=0 / no-limit-sao / ctu-info=0 / no-lowpass-dct / refine-analysis-type=0 / copy-pic=1 / max-ausize-factor=1.0 / no-dynamic-refine / no-single-sei / no-hevc-aq / no-svt / no-field / qp-adaptation-range=1.00 / no-scenecut-aware-qpconformance-window-offsets / right=0 / bottom=0 / decoder-max-rate=0
Default : Yes
Forced : No
Color range : Limited
Color primaries : BT.2020
Transfer characteristics : PQ
Matrix coefficients : BT.2020 non-constant
Mastering display color primar : Display P3
Mastering display luminance : min: 0.0001 cd/m2, max: 1000 cd/m2

Audio #1
ID : 2
Format : AC-3
Format/Info : Audio Coding 3
Commercial name : Dolby Digital
Codec ID : A_AC3
Duration : 2 h 6 min
Bit rate mode : Constant
Bit rate : 640 kb/s
Channel(s) : 6 channels
Channel layout : L R C LFE Ls Rs
Sampling rate : 48.0 kHz
Frame rate : 31.250 FPS (1536 SPF)
Compression mode : Lossy
Delay relative to video : 152 ms
Stream size : 578 MiB (6%)
Title : Дубляж (Амальгама)
Language : Russian
Service kind : Complete Main
Default : Yes
Forced : No
Statistics Tags Issue : mkvmerge v54.0.0 ('F Maj Pixie') 64-bit 2021-03-15 15:10:25 / mkvmerge v6.0.0 ('Coming Up For Air') built on Jan 20 2013 09:52:00 2021-03-16 07:28:35
FromStats_BitRate : 640640
FromStats_Duration : 02:05:46.014000000
FromStats_FrameCount : 236049
FromStats_StreamSize : 604285440

Audio #2
ID : 3
Format : AC-3
Format/Info : Audio Coding 3
Commercial name : Dolby Digital
Codec ID : A_AC3
Duration : 2 h 6 min
Bit rate mode : Constant
Bit rate : 192 kb/s
Channel(s) : 2 channels
Channel layout : L R
Sampling rate : 48.0 kHz
Frame rate : 31.250 FPS (1536 SPF)
Compression mode : Lossy
Delay relative to video : 152 ms
Stream size : 173 MiB (2%)
Title : ICTV
Language : Ukrainian
Service kind : Complete Main
Default : No
Forced : No
Statistics Tags Issue : mkvmerge v54.0.0 ('F Maj Pixie') 64-bit 2021-03-15 15:10:25 / mkvmerge v6.0.0 ('Coming Up For Air') built on Jan 20 2013 09:52:00 2021-03-16 07:28:35
FromStats_BitRate : 192192
FromStats_Duration : 02:05:45.919000000
FromStats_FrameCount : 236046
FromStats_StreamSize : 181283328

Audio #3
ID : 4
Format : AC-3
Format/Info : Audio Coding 3
Commercial name : Dolby Digital
Codec ID : A_AC3
Duration : 2 h 6 min
Bit rate mode : Constant
Bit rate : 640 kb/s
Channel(s) : 6 channels
Channel layout : L R C LFE Ls Rs
Sampling rate : 48.0 kHz
Frame rate : 31.250 FPS (1536 SPF)
Compression mode : Lossy
Delay relative to video : 152 ms
Stream size : 578 MiB (6%)
Title : Original
Language : English
Service kind : Complete Main
Default : No
Forced : No
Statistics Tags Issue : mkvmerge v54.0.0 ('F Maj Pixie') 64-bit 2021-03-15 15:10:25 / mkvmerge v6.0.0 ('Coming Up For Air') built on Jan 20 2013 09:52:00 2021-03-16 07:28:35
FromStats_BitRate : 640640
FromStats_Duration : 02:05:46.014000000
FromStats_FrameCount : 236049
FromStats_StreamSize : 604285440

Text #1
ID : 5
Format : UTF-8
Codec ID : S_TEXT/UTF8
Codec ID/Info : UTF-8 Plain Text
Title : Full
Language : Russian
Default : No
Forced : No
Statistics Tags Issue : mkvmerge v54.0.0 ('F Maj Pixie') 64-bit 2021-03-15 15:10:25 / mkvmerge v6.0.0 ('Coming Up For Air') built on Jan 20 2013 09:52:00 2021-03-16 07:28:35
FromStats_BitRate : 76
FromStats_Duration : 02:00:41.150000000
FromStats_FrameCount : 1261
FromStats_StreamSize : 68891

Text #2
ID : 6
Format : UTF-8
Codec ID : S_TEXT/UTF8
Codec ID/Info : UTF-8 Plain Text
Title : Full
Language : English
Default : No
Forced : No
Statistics Tags Issue : mkvmerge v54.0.0 ('F Maj Pixie') 64-bit 2021-03-15 15:10:25 / mkvmerge v6.0.0 ('Coming Up For Air') built on Jan 20 2013 09:52:00 2021-03-16 07:28:35
FromStats_BitRate : 50
FromStats_Duration : 01:58:18.367000000
FromStats_FrameCount : 1424
FromStats_StreamSize : 45015

Text #3
ID : 7
Format : UTF-8
Codec ID : S_TEXT/UTF8
Codec ID/Info : UTF-8 Plain Text
Title : SDH
Language : English
Default : No
Forced : No
Statistics Tags Issue : mkvmerge v54.0.0 ('F Maj Pixie') 64-bit 2021-03-15 15:10:25 / mkvmerge v6.0.0 ('Coming Up For Air') built on Jan 20 2013 09:52:00 2021-03-16 07:28:35
FromStats_BitRate : 61
FromStats_Duration : 02:04:45.200000000
FromStats_FrameCount : 1766
FromStats_StreamSize : 57294

Menu
00:00:00.000 : en:Chapter 01
00:02:12.199 : en:Chapter 02
00:11:46.814 : en:Chapter 03
00:23:52.581 : en:Chapter 04
00:31:49.724 : en:Chapter 05
00:39:40.319 : en:Chapter 06
00:47:46.722 : en:Chapter 07
00:52:58.283 : en:Chapter 08
00:59:51.654 : en:Chapter 09
01:06:52.074 : en:Chapter 10
01:10:51.772 : en:Chapter 11
01:21:29.701 : en:Chapter 12
01:27:00.699 : en:Chapter 13
01:38:04.820 : en:Chapter 14
01:46:10.389 : en:Chapter 15
01:52:01.406 : en:Chapter 16
Загрузка...Cкриншот1 Пятый элемент / The Fifth Element (1997) UHD-BDRip 1080p [HEVC] 10 bit [HDR] от Mr. FoxЗагрузка...Cкриншот2 Пятый элемент / The Fifth Element (1997) UHD-BDRip 1080p [HEVC] 10 bit [HDR] от Mr. FoxЗагрузка...Cкриншот3 Пятый элемент / The Fifth Element (1997) UHD-BDRip 1080p [HEVC] 10 bit [HDR] от Mr. FoxЗагрузка...Cкриншот4 Пятый элемент / The Fifth Element (1997) UHD-BDRip 1080p [HEVC] 10 bit [HDR] от Mr. Fox
Сэмпл Торрент🧲 Магнет

Рейтинги КП и IMDB, кнопки "Позвать в чате" и "Спасибо", а также мультитрекерная статистика доступны только зарегистрированным/авторизованным пользователям!

Файлы: 1
  • The Fifth Element (1997).mkv   8.96 ГБ
Поблагодарили: 19
alexyak, and50, anderb, bright, Brooklyn, donadar, Kiran, ko1ob, makss333, medved2018, NoMaD, Nuclear70, Rexfire, Spartanec1308, StarLord, torrentzulu, Zulbay, z_artem, Херсонец
Admin
02301218.96 ГБ

Добавление нового комментария

Добавление комментариев доступно только зарегистрированным/авторизованным пользователям.