💬 Мини-чат

OldGamerнет
Giggaloнет ли у кого в планах "Давайте потанцуем" 2004
GiggaloСообщение удалено (удалил: Giggalo)
StarLordOldGamer, как дела?)
StarLordOldGamer, ура, вернулся 😄
OldGamerRezident, можете скачать этот фильм от другого релизёра, там невелика разница, а раздающие точно есть
OldGamerGiggalo, https://tsya.ru/mnemonic.html
NoMaDСообщение удалено (удалил: NoMaD)
NoMaDСообщение удалено (удалил: NoMaD)
GiggaloСообщение удалено (удалил: Giggalo)
GiggaloСообщение удалено (удалил: Giggalo)
Spartanec1308Был днём
StarLordGiggalo, наверное отрубало беднягу, целый день его нету 😅
GiggaloСообщение удалено (удалил: Giggalo)
OldGamerДоброе. Работы много, некогда на перинах валяться.
GiggaloСообщение удалено (удалил: Giggalo)
GiggaloСообщение удалено (удалил: Giggalo)
  • OldGamer
  • StarLord
  • ancestor87
  • Andrey_alex
  • MIGRANT
Отправка сообщений доступна только зарегистрированным/авторизованным пользователям.
Онлайн (за 10 мин.): 5

Большая прогулка / La grande vadrouille (1966) [UK 50th Anniversary Edition] BDRip 1080p [HEVC] 10 bit от Mr. Fox

HEVC
10 bit
Обложка Большая прогулка / La grande vadrouille (1966) [UK 50th Anniversary Edition] BDRip 1080p [HEVC] 10 bit от Mr. Fox Год: 1966
Страна: Франция, Великобритания
Студия: Les Films Corona, The Rank Organisation Film Productions Ltd.
Жанр: Комедия, Военный, Приключения
Продолжительность: 02:03:49

Режиссер: Жерар Ури
В ролях: Бурвиль, Луи де Фюнес, Клаудио Брук, Андреа Паризи, Колетт Броссе, Майк Маршалл, Мари Марке, Пьер Бертен, Бенно Штерценбах, Мари Дюбуа

Описание: Небо над Парижем, 1942 год. Английский бомбардировщик, выполняющий важное задание, подбит немцами. Летчики покидают горящую машину, договариваясь встретиться через некоторое время в турецкой бане. Один из них приземляется на крыше дома, где работает парижский маляр Огюстен Буве. Другой падает на крышу Гранд-Опера и прячется вместе с парашютом в апартаментах главного дирижера. А командир экипажа сэр Реджинальд «приводняется» в зоопарке - в пруду с тюленями. И как только англичане попадают в Париж, начинаются совершенно невероятные приключения...


Видео: 1920x768, ~10.2 Мбит/сек
Аудио1: AC3, 2 ch, 192 Kbps - РусскийРусский, Дублированный (Союзмультфильм)
Аудио2: AC3, 6 ch, 448 Kbps - УкраинскийУкраинский, Многоголосый (Цікава ідея)
Аудио3: AC3, 2 ch, 192 Kbps - ФранцузскийФранцузский, Оригинал
Субтитры: Русские, английские

Как за пару секунд удалить ненужные аудиодорожки и субтитры (Внимание! После удаления вы не сможете поддержать раздачу)

Лог (x265 info)
x265 [info]: frame I: Avg QP:18.82 kb/s
x265 [info]: frame P: Avg QP:20.14 kb/s
x265 [info]: frame B: Avg QP:22.24 kb/s
Медиаинфо
General
Unique ID : 144112201779454690351502628211651767133 (0x6C6B001F2FA6DB0CA8D0526454F3EB5D)
Complete name : E:\Torrent\La Grande Vadrouille (1966).mkv
Format : Matroska
Format version : Version 4
File size : 9.51 GiB
Duration : 2 h 3 min
Overall bit rate : 11.0 Mb/s
Movie name : La Grande Vadrouille (1966)
Encoded date : UTC 2021-03-25 19:50:52
Writing application : mkvmerge v54.0.0 ('F Maj Pixie') 64-bit
Writing library : libebml v1.4.2 + libmatroska v1.6.3
Cover : Yes
Attachments : cover

Video
ID : 1
Format : HEVC
Format/Info : High Efficiency Video Coding
Format profile : Main 10@L4.1@High
Codec ID : V_MPEGH/ISO/HEVC
Duration : 2 h 3 min
Bit rate : 10.2 Mb/s
Width : 1 920 pixels
Height : 768 pixels
Display aspect ratio : 2.500
Frame rate mode : Constant
Frame rate : 24.000 FPS
Color space : YUV
Chroma subsampling : 4:2:0
Bit depth : 10 bits
Bits/(Pixel*Frame) : 0.287
Stream size : 8.79 GiB (92%)
Writing library : x265 3.4+10-g25b2c0703:[Windows][MSVC 1927][64 bit] 10bit
Encoding settings : cpuid=1111039 / frame-threads=4 / numa-pools=16 / wpp / no-pmode / no-pme / no-psnr / no-ssim / log-level=2 / input-csp=1 / input-res=1920x768 / interlace=0 / total-frames=178312 / level-idc=41 / high-tier=1 / uhd-bd=0 / ref=5 / no-allow-non-conformance / no-repeat-headers / annexb / no-aud / no-hrd / info / hash=0 / no-temporal-layers / open-gop / min-keyint=23 / keyint=240 / gop-lookahead=0 / bframes=10 / b-adapt=2 / b-pyramid / bframe-bias=0 / rc-lookahead=60 / lookahead-slices=4 / scenecut=40 / hist-scenecut=0 / radl=0 / no-splice / no-intra-refresh / ctu=32 / min-cu-size=8 / rect / amp / max-tu-size=32 / tu-inter-depth=4 / tu-intra-depth=4 / limit-tu=1 / rdoq-level=2 / dynamic-rd=0.00 / no-ssim-rd / signhide / no-tskip / nr-intra=0 / nr-inter=0 / no-constrained-intra / no-strong-intra-smoothing / max-merge=4 / limit-refs=2 / limit-modes / me=3 / subme=7 / merange=57 / temporal-mvp / no-frame-dup / no-hme / weightp / weightb / no-analyze-src-pics / deblock=-3:-3 / no-sao / no-sao-non-deblock / rd=6 / selective-sao=0 / no-early-skip / no-rskip / no-fast-intra / no-tskip-fast / no-cu-lossless / no-b-intra / no-splitrd-skip / rdpenalty=0 / psy-rd=2.00 / psy-rdoq=1.00 / no-rd-refine / no-lossless / cbqpoffs=0 / crqpoffs=0 / rc=crf / crf=20.0 / qcomp=0.70 / qpstep=4 / stats-write=0 / stats-read=0 / vbv-maxrate=50000 / vbv-bufsize=50000 / vbv-init=0.9 / crf-max=0.0 / crf-min=0.0 / ipratio=1.40 / pbratio=1.30 / aq-mode=1 / aq-strength=1.00 / no-cutree / zone-count=0 / no-strict-cbr / qg-size=32 / no-rc-grain / qpmax=69 / qpmin=0 / no-const-vbv / sar=1 / overscan=0 / videoformat=5 / range=0 / colorprim=1 / transfer=1 / colormatrix=1 / chromaloc=0 / display-window=0 / cll=0,0 / min-luma=0 / max-luma=1023 / log2-max-poc-lsb=8 / vui-timing-info / vui-hrd-info / slices=1 / no-opt-qp-pps / no-opt-ref-list-length-pps / no-multi-pass-opt-rps / scenecut-bias=0.05 / hist-threshold=0.01 / no-opt-cu-delta-qp / no-aq-motion / no-hdr10 / no-hdr10-opt / no-dhdr10-opt / no-idr-recovery-sei / analysis-reuse-level=0 / analysis-save-reuse-level=0 / analysis-load-reuse-level=0 / scale-factor=0 / refine-intra=0 / refine-inter=0 / refine-mv=1 / refine-ctu-distortion=0 / no-limit-sao / ctu-info=0 / no-lowpass-dct / refine-analysis-type=0 / copy-pic=1 / max-ausize-factor=1.0 / no-dynamic-refine / no-single-sei / no-hevc-aq / no-svt / no-field / qp-adaptation-range=1.00 / no-scenecut-aware-qpconformance-window-offsets / right=0 / bottom=0 / decoder-max-rate=0
Default : Yes
Forced : No
Color range : Limited
Color primaries : BT.709
Transfer characteristics : BT.709
Matrix coefficients : BT.709

Audio #1
ID : 2
Format : AC-3
Format/Info : Audio Coding 3
Commercial name : Dolby Digital
Codec ID : A_AC3
Duration : 2 h 3 min
Bit rate mode : Constant
Bit rate : 192 kb/s
Channel(s) : 2 channels
Channel layout : L R
Sampling rate : 48.0 kHz
Frame rate : 31.250 FPS (1536 SPF)
Compression mode : Lossy
Delay relative to video : 101 ms
Stream size : 170 MiB (2%)
Title : Дубляж (Союзмультфильм)
Language : Russian
Service kind : Complete Main
Default : Yes
Forced : Yes

Audio #2
ID : 3
Format : AC-3
Format/Info : Audio Coding 3
Commercial name : Dolby Digital
Codec ID : A_AC3
Duration : 2 h 3 min
Bit rate mode : Constant
Bit rate : 448 kb/s
Channel(s) : 6 channels
Channel layout : L R C LFE Ls Rs
Sampling rate : 48.0 kHz
Frame rate : 31.250 FPS (1536 SPF)
Compression mode : Lossy
Delay relative to video : 101 ms
Stream size : 396 MiB (4%)
Title : MVO (Цікава ідея)
Language : Ukrainian
Service kind : Complete Main
Default : No
Forced : No

Audio #3
ID : 4
Format : AC-3
Format/Info : Audio Coding 3
Commercial name : Dolby Digital
Codec ID : A_AC3
Duration : 2 h 3 min
Bit rate mode : Constant
Bit rate : 192 kb/s
Channel(s) : 2 channels
Channel layout : L R
Sampling rate : 48.0 kHz
Frame rate : 31.250 FPS (1536 SPF)
Compression mode : Lossy
Delay relative to video : 101 ms
Stream size : 170 MiB (2%)
Language : French
Service kind : Complete Main
Default : No
Forced : No

Text #1
ID : 5
Format : UTF-8
Codec ID : S_TEXT/UTF8
Codec ID/Info : UTF-8 Plain Text
Duration : 2 h 1 min
Bit rate : 52 b/s
Count of elements : 888
Stream size : 47.1 KiB (0%)
Language : Russian
Default : No
Forced : No

Text #2
ID : 6
Format : UTF-8
Codec ID : S_TEXT/UTF8
Codec ID/Info : UTF-8 Plain Text
Duration : 2 h 1 min
Bit rate : 31 b/s
Count of elements : 774
Stream size : 28.4 KiB (0%)
Language : English
Default : No
Forced : No

Menu
00:00:00.000 : :01
00:10:25.000 : :02
00:20:03.208 : :03
00:31:49.833 : :04
00:40:11.583 : :05
00:50:46.167 : :06
00:59:48.958 : :07
01:10:54.875 : :08
01:20:26.958 : :09
01:30:56.917 : :10
01:40:02.375 : :11
01:51:08.083 : :12
Загрузка...Cкриншот1 Большая прогулка / La grande vadrouille (1966) [UK 50th Anniversary Edition] BDRip 1080p [HEVC] 10 bit от Mr. FoxЗагрузка...Cкриншот2 Большая прогулка / La grande vadrouille (1966) [UK 50th Anniversary Edition] BDRip 1080p [HEVC] 10 bit от Mr. FoxЗагрузка...Cкриншот3 Большая прогулка / La grande vadrouille (1966) [UK 50th Anniversary Edition] BDRip 1080p [HEVC] 10 bit от Mr. FoxЗагрузка...Cкриншот4 Большая прогулка / La grande vadrouille (1966) [UK 50th Anniversary Edition] BDRip 1080p [HEVC] 10 bit от Mr. Fox
Сэмпл Торрент🧲 Магнет

Рейтинги КП и IMDB, кнопки "Позвать в чате" и "Спасибо", а также мультитрекерная статистика доступны только зарегистрированным/авторизованным пользователям!

Файлы: 1
  • La Grande Vadrouille (1966).mkv   9.51 ГБ
Поблагодарили: 20
alenu, alexyak, and50, Andrey_alex, D16T, donadar, Elico1977, FFantasy, HANNIBAL, ivan_1965, joker63, makss333, michael90, NoMaD, Nuclear70, OldGamer, Rezident, SoulBoy, Spartanec1308, StarLord
Admin
62613529.51 ГБ

Добавление нового комментария

Добавление комментариев доступно только зарегистрированным/авторизованным пользователям.
Аватар alenu
  alenu  (Отредактировал alenu: )    
mafo2 писал(а):
this is a rip from the remaster - http://kinozal.tv/details.php?id=1494482
only there is no 6 sec. black screen at the beginning
True, both versions may be remastered, but the colors are different :

https://i3.imageban.ru/out/2017/11/30/470bb8a20569e7777472d0d31a3355d3.png

https://s019.radikal.ru/i618/1709/a5/4d839802d017.png
Аватар mafo2
  mafo2  (Отредактировал mafo2: )    
this is a rip from the remaster - http://kinozal.tv/details.php?id=1494482
only there is no 6 sec. black screen at the beginning
Аватар OldGamer
  OldGamer  
https://caps-a-holic.com/c_list.php?c=3775
Аватар alenu
  alenu  
OldGamer писал(а):
Are you talking about UK 50th Anniversary Edition ?
I do not know which version it is, but the time is 02:03:55
Аватар OldGamer
  OldGamer  
alenu писал(а):
I wish you rip the remastered version Because the remastered version of this movie has a more attractive color quality! Of course, you also ripped this version well. Thank you very much.
Are you talking about UK 50th Anniversary Edition ?
Аватар alenu
  alenu  
I wish you rip the remastered version Because the remastered version of this movie has a more attractive color quality! Of course, you also ripped this version well. Thank you very much.