💬 Мини-чат

OldGamerнет
Giggaloнет ли у кого в планах "Давайте потанцуем" 2004
GiggaloСообщение удалено (удалил: Giggalo)
StarLordOldGamer, как дела?)
StarLordOldGamer, ура, вернулся 😄
OldGamerRezident, можете скачать этот фильм от другого релизёра, там невелика разница, а раздающие точно есть
OldGamerGiggalo, https://tsya.ru/mnemonic.html
NoMaDСообщение удалено (удалил: NoMaD)
NoMaDСообщение удалено (удалил: NoMaD)
GiggaloСообщение удалено (удалил: Giggalo)
GiggaloСообщение удалено (удалил: Giggalo)
Spartanec1308Был днём
StarLordGiggalo, наверное отрубало беднягу, целый день его нету 😅
GiggaloСообщение удалено (удалил: Giggalo)
OldGamerДоброе. Работы много, некогда на перинах валяться.
GiggaloСообщение удалено (удалил: Giggalo)
GiggaloСообщение удалено (удалил: Giggalo)
  • OldGamer
  • StarLord
  • Andrey_alex
  • garant3v
  • mr_nikitin
Отправка сообщений доступна только зарегистрированным/авторизованным пользователям.
Онлайн (за 10 мин.): 5

Пушки Акимбо / Guns Akimbo (2019) [iTunes] BDRip 1080p [HEVC] 10 bit от -Star-Lord- (RG RIPS CLUB)

HEVC
10 bit
Обложка Пушки Акимбо / Guns Akimbo (2019) [iTunes] BDRip 1080p [HEVC] 10 bit от -Star-Lord- (RG RIPS CLUB) Год: 2019
Страна: Великобритания, Германия, Новая Зеландия
Студия: Altitude Film Entertainment, Electric Shadow Company, The, Four Knights Film
Жанр: Боевик, Комедия
Продолжительность: 01:37:49

Режиссер: Джейсон Ли Хауден
В ролях: Дэниэл Рэдклифф, Самара Уивинг, Риз Дэрби, Нед Деннехи, Наташа Лю Бордиццо, Марк Роули, Грант Боулер, Ханако Футман, Джош Роберт Томпсон, Сет Сьостранд

Описание: Майлз был обычным разработчиком видеоигр, пока его не втянули в кровавый квест. Незнакомцы вломились в дом, прибили к рукам два пистолета и похитили любимую девушку. Теперь Майлзу придётся сразиться с Никс - безжалостной чемпионкой подпольных игр на выживание.


Исходник: Guns.Akimbo.2019.1080p.BluRay.REMUX.AVC.DTS-HD.MA5.1-iFT
Видео: 1920x804, ~5414 Кбит/сек
Аудио1: AC3, 6 ch, 384 Kbps - РусскийРусский, Дублированный (iTunes)
Аудио2: AC3, 6 ch, 448 Kbps - РусскийРусский, Многоголосый (HDRezka Studio)
Аудио3: AC3, 6 ch, 448 Kbps - РусскийРусский, Многоголосый (Mallorn)
Аудио4: AC3, 2 ch, 192 Kbps - РусскийРусский, Двухголосый (LakeFilms)
Аудио5: AC3, 2 ch, 192 Kbps - РусскийРусский, Двухголосый (Кубик в Кубе, Ненорматив)
Аудио6: AC3, 6 ch, 384 Kbps - РусскийРусский, Одноголосый (М. Яроцкий)
Аудио7: AC3, 2 ch, 192 Kbps - УкраинскийУкраинский, Дублированный (iTunes)
Аудио8: AC3, 6 ch, 448 Kbps - УкраинскийУкраинский, Одноголосый (Burton Jey)
Аудио9: AC3, 6 ch, 640 Kbps - АнглийскийАнглийский, Оригинал
Аудио10: AC3, 2 ch, 192 Kbps - АнглийскийАнглийский, Commentary by Director:Writer Jason Lei Howden
Субтитры: русские (форс., полные х2), украинские (форсированные), английские (полные, SDH)

Как за пару секунд удалить ненужные аудиодорожки и субтитры (Внимание! После удаления вы не сможете поддержать раздачу)

Лог (x265 info)
x265 [info]: frame I: 1795, Avg QP:16.41 kb/s: 17490.48
x265 [info]: frame P: 30400, Avg QP:17.52 kb/s: 9649.19
x265 [info]: frame B: 108518, Avg QP:19.74 kb/s: 4026.69
x265 [info]: Weighted P-Frames: Y:9.4% UV:8.3%
x265 [info]: Weighted B-Frames: Y:9.2% UV:7.6%
x265 [info]: consecutive B-frames: 13.8% 10.7% 8.2% 27.3% 11.5% 13.8% 4.4% 4.9% 1.9% 1.4% 0.7% 0.7% 0.3% 0.2% 0.1% 0.1% 0.1%

encoded 140713 frames in 134788.45s (1.04 fps), 5413.14 kb/s, Avg QP:19.22
Медиаинфо
General
Unique ID : 86473926770238191023072255874511336627 (0x410E45C2665748EEE0AB3B65E68AF4B3)
Complete name : Guns Akimbo (2019) BDRip 1080p H.265 [6xRUS_2xUKR_ENG] [RIPS-CLUB].mkv
Format : Matroska
Format version : Version 4
File size : 6.11 GiB
Duration : 1 h 37 min
Overall bit rate : 8 942 kb/s
Movie name : Пушки Акимбо / Стволи Акімбо / Guns Akimbo (2019)
Encoded date : UTC 2021-04-04 08:04:05
Writing application : mkvmerge v20.0.0 ('I Am The Sun') 64-bit
Writing library : libebml v1.3.5 + libmatroska v1.4.8
Cover : Yes
Attachments : Cover.jpg

Video
ID : 1
Format : HEVC
Format/Info : High Efficiency Video Coding
Format profile : Main 10@L4.1@High
Codec ID : V_MPEGH/ISO/HEVC
Duration : 1 h 37 min
Bit rate : 5 414 kb/s
Width : 1 920 pixels
Height : 804 pixels
Display aspect ratio : 2.40:1
Frame rate mode : Constant
Frame rate : 23.976 (24000/1001) FPS
Color space : YUV
Chroma subsampling : 4:2:0
Bit depth : 10 bits
Bits/(Pixel*Frame) : 0.146
Stream size : 3.70 GiB (61%)
Title : Пушки Акимбо / Стволи Акімбо / Guns Akimbo (2019)
Writing library : x265 3.5+1-ce882936d:[Windows][GCC 10.2.0][64 bit] 10bit
Encoding settings : cpuid=1111039 / frame-threads=3 / numa-pools=12 / wpp / no-pmode / no-pme / no-psnr / no-ssim / log-level=2 / input-csp=1 / input-res=1920x804 / interlace=0 / total-frames=140713 / level-idc=41 / high-tier=1 / uhd-bd=0 / ref=5 / no-allow-non-conformance / no-repeat-headers / annexb / no-aud / no-hrd / info / hash=0 / no-temporal-layers / open-gop / min-keyint=23 / keyint=240 / gop-lookahead=0 / bframes=16 / b-adapt=2 / b-pyramid / bframe-bias=0 / rc-lookahead=60 / lookahead-slices=4 / scenecut=40 / hist-scenecut=0 / radl=0 / no-splice / no-intra-refresh / ctu=32 / min-cu-size=8 / rect / amp / max-tu-size=32 / tu-inter-depth=4 / tu-intra-depth=4 / limit-tu=1 / rdoq-level=2 / dynamic-rd=0.00 / no-ssim-rd / signhide / no-tskip / nr-intra=0 / nr-inter=0 / no-constrained-intra / no-strong-intra-smoothing / max-merge=5 / limit-refs=2 / limit-modes / me=3 / subme=7 / merange=57 / temporal-mvp / no-frame-dup / no-hme / weightp / weightb / no-analyze-src-pics / deblock=-3:-3 / no-sao / no-sao-non-deblock / rd=6 / selective-sao=0 / no-early-skip / no-rskip / no-fast-intra / no-tskip-fast / no-cu-lossless / no-b-intra / no-splitrd-skip / rdpenalty=0 / psy-rd=2.00 / psy-rdoq=1.00 / no-rd-refine / no-lossless / cbqpoffs=0 / crqpoffs=0 / rc=crf / crf=20.6 / qcomp=0.70 / qpstep=4 / stats-write=0 / stats-read=0 / vbv-maxrate=50000 / vbv-bufsize=50000 / vbv-init=0.9 / min-vbv-fullness=50.0 / max-vbv-fullness=80.0 / crf-max=0.0 / crf-min=0.0 / ipratio=1.40 / pbratio=1.30 / aq-mode=1 / aq-strength=1.00 / no-cutree / zone-count=0 / no-strict-cbr / qg-size=32 / no-rc-grain / qpmax=69 / qpmin=0 / no-const-vbv / sar=1 / overscan=0 / videoformat=5 / range=0 / colorprim=2 / transfer=2 / colormatrix=2 / chromaloc=0 / display-window=0 / cll=0,0 / min-luma=0 / max-luma=1023 / log2-max-poc-lsb=8 / vui-timing-info / vui-hrd-info / slices=1 / no-opt-qp-pps / no-opt-ref-list-length-pps / no-multi-pass-opt-rps / scenecut-bias=0.05 / hist-threshold=0.03 / no-opt-cu-delta-qp / no-aq-motion / no-hdr10 / no-hdr10-opt / no-dhdr10-opt / no-idr-recovery-sei / analysis-reuse-level=0 / analysis-save-reuse-level=0 / analysis-load-reuse-level=0 / scale-factor=0 / refine-intra=0 / refine-inter=0 / refine-mv=1 / refine-ctu-distortion=0 / no-limit-sao / ctu-info=0 / no-lowpass-dct / refine-analysis-type=0 / copy-pic=1 / max-ausize-factor=1.0 / no-dynamic-refine / no-single-sei / no-hevc-aq / no-svt / no-field / qp-adaptation-range=1.00 / scenecut-aware-qp=0conformance-window-offsets / right=0 / bottom=0 / decoder-max-rate=0 / no-vbv-live-multi-pass
Language : English
Default : Yes
Forced : Yes

Audio #1
ID : 2
Format : AC-3
Format/Info : Audio Coding 3
Commercial name : Dolby Digital
Codec ID : A_AC3
Duration : 1 h 37 min
Bit rate mode : Constant
Bit rate : 384 kb/s
Channel(s) : 6 channels
Channel layout : L R C LFE Ls Rs
Sampling rate : 48.0 kHz
Frame rate : 31.250 FPS (1536 SPF)
Compression mode : Lossy
Stream size : 269 MiB (4%)
Title : AC-3 / 5.1 Ch / 384 kbps / DUB / iTunes
Language : Russian
Service kind : Complete Main
Default : Yes
Forced : Yes

Audio #2
ID : 3
Format : AC-3
Format/Info : Audio Coding 3
Commercial name : Dolby Digital
Codec ID : A_AC3
Duration : 1 h 37 min
Bit rate mode : Constant
Bit rate : 448 kb/s
Channel(s) : 6 channels
Channel layout : L R C LFE Ls Rs
Sampling rate : 48.0 kHz
Frame rate : 31.250 FPS (1536 SPF)
Compression mode : Lossy
Stream size : 313 MiB (5%)
Title : AC-3 / 5.1 Ch / 448 kbps / MVO / HDRezka Studio
Language : Russian
Service kind : Complete Main
Default : No
Forced : No

Audio #3
ID : 4
Format : AC-3
Format/Info : Audio Coding 3
Commercial name : Dolby Digital
Codec ID : A_AC3
Duration : 1 h 37 min
Bit rate mode : Constant
Bit rate : 448 kb/s
Channel(s) : 6 channels
Channel layout : L R C LFE Ls Rs
Sampling rate : 48.0 kHz
Frame rate : 31.250 FPS (1536 SPF)
Compression mode : Lossy
Stream size : 313 MiB (5%)
Title : AC-3 / 5.1 Ch / 448 kbps / MVO / Mallorn
Language : Russian
Service kind : Complete Main
Default : No
Forced : No

Audio #4
ID : 5
Format : AC-3
Format/Info : Audio Coding 3
Commercial name : Dolby Digital
Codec ID : A_AC3
Duration : 1 h 37 min
Bit rate mode : Constant
Bit rate : 192 kb/s
Channel(s) : 2 channels
Channel layout : L R
Sampling rate : 48.0 kHz
Frame rate : 31.250 FPS (1536 SPF)
Compression mode : Lossy
Stream size : 134 MiB (2%)
Title : AC-3 / 2.0 Ch / 192 kbps / DVO / LakeFilms
Language : Russian
Service kind : Complete Main
Default : No
Forced : No

Audio #5
ID : 6
Format : AC-3
Format/Info : Audio Coding 3
Commercial name : Dolby Digital
Codec ID : A_AC3
Duration : 1 h 37 min
Bit rate mode : Constant
Bit rate : 192 kb/s
Channel(s) : 2 channels
Channel layout : L R
Sampling rate : 48.0 kHz
Frame rate : 31.250 FPS (1536 SPF)
Compression mode : Lossy
Stream size : 134 MiB (2%)
Title : AC-3 / 2.0 Ch / 192 kbps / DVO / Кубик в Кубе (Ненорматив)
Language : Russian
Service kind : Complete Main
Default : No
Forced : No

Audio #6
ID : 7
Format : AC-3
Format/Info : Audio Coding 3
Commercial name : Dolby Digital
Codec ID : A_AC3
Duration : 1 h 37 min
Bit rate mode : Constant
Bit rate : 384 kb/s
Channel(s) : 6 channels
Channel layout : L R C LFE Ls Rs
Sampling rate : 48.0 kHz
Frame rate : 31.250 FPS (1536 SPF)
Compression mode : Lossy
Stream size : 269 MiB (4%)
Title : AC-3 / 5.1 Ch / 384 kbps / AVO / М. Яроцкий
Language : Russian
Service kind : Complete Main
Default : No
Forced : No

Audio #7
ID : 8
Format : AC-3
Format/Info : Audio Coding 3
Commercial name : Dolby Digital
Codec ID : A_AC3
Duration : 1 h 37 min
Bit rate mode : Constant
Bit rate : 192 kb/s
Channel(s) : 2 channels
Channel layout : L R
Sampling rate : 48.0 kHz
Frame rate : 31.250 FPS (1536 SPF)
Compression mode : Lossy
Stream size : 134 MiB (2%)
Title : AC-3 / 2.0 Ch / 192 kbps / DUB
Language : Ukrainian
Service kind : Complete Main
Default : No
Forced : No

Audio #8
ID : 9
Format : AC-3
Format/Info : Audio Coding 3
Commercial name : Dolby Digital
Codec ID : A_AC3
Duration : 1 h 37 min
Bit rate mode : Constant
Bit rate : 448 kb/s
Channel(s) : 6 channels
Channel layout : L R C LFE Ls Rs
Sampling rate : 48.0 kHz
Frame rate : 31.250 FPS (1536 SPF)
Compression mode : Lossy
Stream size : 313 MiB (5%)
Title : AC-3 / 5.1 Ch / 448 kbps / VO / Burton Jey
Language : Ukrainian
Service kind : Complete Main
Default : No
Forced : No

Audio #9
ID : 10
Format : AC-3
Format/Info : Audio Coding 3
Commercial name : Dolby Digital
Codec ID : A_AC3
Duration : 1 h 37 min
Bit rate mode : Constant
Bit rate : 640 kb/s
Channel(s) : 6 channels
Channel layout : L R C LFE Ls Rs
Sampling rate : 48.0 kHz
Frame rate : 31.250 FPS (1536 SPF)
Compression mode : Lossy
Stream size : 448 MiB (7%)
Title : AC-3 / 5.1 Ch / 640 kbps / Original
Language : English
Service kind : Complete Main
Default : No
Forced : No

Audio #10
ID : 11
Format : AC-3
Format/Info : Audio Coding 3
Commercial name : Dolby Digital
Codec ID : A_AC3
Duration : 1 h 37 min
Bit rate mode : Constant
Bit rate : 192 kb/s
Channel(s) : 2 channels
Channel layout : L R
Sampling rate : 48.0 kHz
Frame rate : 31.250 FPS (1536 SPF)
Compression mode : Lossy
Stream size : 134 MiB (2%)
Title : AC-3 / 2.0 Ch / 192 kbps / Original / Commentary by Director:Writer Jason Lei Howden
Language : English
Service kind : Complete Main
Default : No
Forced : No

Text #1
ID : 12
Format : UTF-8
Codec ID : S_TEXT/UTF8
Codec ID/Info : UTF-8 Plain Text
Duration : 1 h 27 min
Bit rate : 12 b/s
Count of elements : 70
Stream size : 7.87 KiB (0%)
Title : Forced
Language : Russian
Default : Yes
Forced : Yes

Text #2
ID : 13
Format : UTF-8
Codec ID : S_TEXT/UTF8
Codec ID/Info : UTF-8 Plain Text
Duration : 1 h 28 min
Bit rate : 108 b/s
Count of elements : 1270
Stream size : 70.5 KiB (0%)
Title : Full by Кубик в Кубе (Ненорматив)
Language : Russian
Default : No
Forced : No

Text #3
ID : 14
Format : UTF-8
Codec ID : S_TEXT/UTF8
Codec ID/Info : UTF-8 Plain Text
Duration : 1 h 28 min
Bit rate : 106 b/s
Count of elements : 1263
Stream size : 69.1 KiB (0%)
Title : Full by chrevodoll
Language : Russian
Default : No
Forced : No

Text #4
ID : 15
Format : UTF-8
Codec ID : S_TEXT/UTF8
Codec ID/Info : UTF-8 Plain Text
Duration : 1 h 27 min
Bit rate : 4 b/s
Count of elements : 38
Stream size : 2.87 KiB (0%)
Title : Forced
Language : Ukrainian
Default : No
Forced : No

Text #5
ID : 16
Format : UTF-8
Codec ID : S_TEXT/UTF8
Codec ID/Info : UTF-8 Plain Text
Duration : 1 h 28 min
Bit rate : 57 b/s
Count of elements : 1089
Stream size : 37.3 KiB (0%)
Title : Full
Language : English
Default : No
Forced : No

Text #6
ID : 17
Format : UTF-8
Codec ID : S_TEXT/UTF8
Codec ID/Info : UTF-8 Plain Text
Duration : 1 h 29 min
Bit rate : 76 b/s
Count of elements : 1490
Stream size : 50.0 KiB (0%)
Title : SDH
Language : English
Default : No
Forced : No

Menu
00:00:00.000 : en:Chapter 01
00:04:14.588 : en:Chapter 02
00:12:10.438 : en:Chapter 03
00:18:55.384 : en:Chapter 04
00:23:15.686 : en:Chapter 05
00:30:08.598 : en:Chapter 06
00:34:46.418 : en:Chapter 07
00:42:15.491 : en:Chapter 08
00:47:14.123 : en:Chapter 09
00:52:14.673 : en:Chapter 10
00:55:57.145 : en:Chapter 11
00:58:56.783 : en:Chapter 12
01:04:05.508 : en:Chapter 13
01:10:56.752 : en:Chapter 14
01:17:35.192 : en:Chapter 15
01:29:03.129 : en:Chapter 16
Загрузка...Cкриншот1 Пушки Акимбо / Guns Akimbo (2019) [iTunes] BDRip 1080p [HEVC] 10 bit от -Star-Lord- (RG RIPS CLUB)Загрузка...Cкриншот2 Пушки Акимбо / Guns Akimbo (2019) [iTunes] BDRip 1080p [HEVC] 10 bit от -Star-Lord- (RG RIPS CLUB)Загрузка...Cкриншот3 Пушки Акимбо / Guns Akimbo (2019) [iTunes] BDRip 1080p [HEVC] 10 bit от -Star-Lord- (RG RIPS CLUB)Загрузка...Cкриншот4 Пушки Акимбо / Guns Akimbo (2019) [iTunes] BDRip 1080p [HEVC] 10 bit от -Star-Lord- (RG RIPS CLUB)
Релиз-группа: RIPS CLUB
Сэмпл Торрент🧲 Магнет

Рейтинги КП и IMDB, кнопки "Позвать в чате" и "Спасибо", а также мультитрекерная статистика доступны только зарегистрированным/авторизованным пользователям!

Файлы: 1
  • Guns Akimbo (2019) BDRip 1080p H.265 [6xRUS_2xUKR_ENG] [RIPS-CLUB].mkv   6.11 ГБ
Поблагодарили: 4
anderb, donadar, makss333, Nuclear70
StarLord
089826.11 ГБ

Добавление нового комментария

Добавление комментариев доступно только зарегистрированным/авторизованным пользователям.