💬 Мини-чат

OldGamerнет
Giggaloнет ли у кого в планах "Давайте потанцуем" 2004
GiggaloСообщение удалено (удалил: Giggalo)
StarLordOldGamer, как дела?)
StarLordOldGamer, ура, вернулся 😄
OldGamerRezident, можете скачать этот фильм от другого релизёра, там невелика разница, а раздающие точно есть
OldGamerGiggalo, https://tsya.ru/mnemonic.html
NoMaDСообщение удалено (удалил: NoMaD)
NoMaDСообщение удалено (удалил: NoMaD)
GiggaloСообщение удалено (удалил: Giggalo)
GiggaloСообщение удалено (удалил: Giggalo)
Spartanec1308Был днём
StarLordGiggalo, наверное отрубало беднягу, целый день его нету 😅
GiggaloСообщение удалено (удалил: Giggalo)
OldGamerДоброе. Работы много, некогда на перинах валяться.
GiggaloСообщение удалено (удалил: Giggalo)
GiggaloСообщение удалено (удалил: Giggalo)
  • OldGamer
  • anderb
  • Andrey_alex
  • gridzhio
  • hunter
  • mr_nikitin
  • sabretooth
Отправка сообщений доступна только зарегистрированным/авторизованным пользователям.
Онлайн (за 10 мин.): 7

Зависнуть в Палм-Спрингс / Palm Springs (2020) [iTunes] BDRip 1080p [HEVC] 10 bit от -Star-Lord- (RG RIPS CLUB)

HEVC
10 bit
Обложка Зависнуть в Палм-Спрингс / Palm Springs (2020) [iTunes] BDRip 1080p [HEVC] 10 bit от -Star-Lord- (RG RIPS CLUB) Год: 2020
Страна: США, Гонконг
Студия: Culmination Productions, Limelight, The Lonely Island, Sun Entertainment Culture
Жанр: Комедия, Мелодрама, Фантастика
Продолжительность: 01:29:59

Режиссер: Макс Барбаков
В ролях: Энди Сэмберг, Кристин Милиоти, Дж.К. Симмонс, Питер Галлахер, Мередит Хагнер, Камила Мендес, Тайлер Хэклин, Крис Пэнг, Жаклин Обрадорс, Джун Скуиб

Описание: 9 ноября неподалёку от Палм-Спрингс идёт подготовка к свадьбе. Найлз, парень одной из подружек невесты, не торопится облачаться в смокинг — в шортах и гавайской рубашке он запрыгивает в бассейн и целый день расслабленно выпивает, а вечером произносит трогательную речь для молодожёнов. Последнее особенно впечатляет старшую сестру невесты Сару, и вот уже девушка оказывается с Найлзом наедине под звёздным небом. Но тут события принимают неожиданный поворот, и Сара вслед за своим новым приятелем заходит в загадочную пещеру, а на следующий день обнаруживает, что на календаре снова 9 ноября.


Видео: 1920x804, ~5322 Кбит/сек
Аудио1: AC3, 6 ch, 384 Kbps - РусскийРусский, Дублированный (iTunes)
Аудио2: AC3, 6 ch, 448 Kbps - РусскийРусский, Многоголосый (HDRezka Studio)
Аудио3: AC3, 6 ch, 384 Kbps - РусскийРусский, Многоголосый (NewStudio)
Аудио4: AC3, 2 ch, 192 Kbps - РусскийРусский, Двухголосый (Кубик в Кубе)
Аудио5: AC3, 6 ch, 640 Kbps - РусскийРусский, Одноголосый (Goblin aka. Дмитрий Пучков)
Аудио6: AC3, 2 ch, 192 Kbps - РусскийРусский, Одноголосый (Кураж-Бамбей)
Аудио7: AC3, 2 ch, 192 Kbps - УкраинскийУкраинский, Дублированный (Студія "ААА-sound")
Аудио8: AC3, 6 ch, 640 Kbps - АнглийскийАнглийский, Оригинал
Аудио9: AAC, 2 ch, 64 Kbps - АнглийскийАнглийский, Commentary by actors Andy Samberg and Cristin Milioti, writer Andy Siara, and director Max Barbakow
Субтитры: Русские (форс., полные x3), Украинские (форс.), английские (полные, SDH, комментарии)

Как за пару секунд удалить ненужные аудиодорожки и субтитры (Внимание! После удаления вы не сможете поддержать раздачу)

Лог (x265 info)
x265 [info]: frame I: 1361, Avg QP:17.19 kb/s: 16403.14
x265 [info]: frame P: 22872, Avg QP:18.29 kb/s: 9726.58
x265 [info]: frame B: 105358, Avg QP:20.41 kb/s: 4221.52
x265 [info]: Weighted P-Frames: Y:4.3% UV:3.5%
x265 [info]: Weighted B-Frames: Y:4.4% UV:3.4%
x265 [info]: consecutive B-frames: 8.5% 3.1% 5.6% 15.4% 5.3% 52.4% 1.9% 1.0% 1.0% 0.3% 0.2% 5.0% 0.1% 0.0% 0.0% 0.0% 0.2%

encoded 129591 frames in 135937.59s (0.95 fps), 5321.06 kb/s, Avg QP:20.00
Медиаинфо
General
Unique ID : 99353170466011442036577622459159141938 (0x4ABEB97FD8A8B90157C3201399C7DE32)
Complete name : Palm Springs (2020) BDRip 1080p H.265 [6xRUS_UKR_ENG] [RIPS-CLUB].mkv
Format : Matroska
Format version : Version 4
File size : 5.32 GiB
Duration : 1 h 29 min
Overall bit rate : 8 465 kb/s
Movie name : Зависнути у Палм-Спрінгз / Palm Springs (2020)
Encoded date : UTC 2021-03-26 12:50:57
Writing application : mkvmerge v20.0.0 ('I Am The Sun') 64-bit
Writing library : libebml v1.3.5 + libmatroska v1.4.8
Cover : Yes
Attachments : Cover.jpg

Video
ID : 1
Format : HEVC
Format/Info : High Efficiency Video Coding
Format profile : Main 10@L4.1@High
Codec ID : V_MPEGH/ISO/HEVC
Duration : 1 h 29 min
Bit rate : 5 322 kb/s
Width : 1 920 pixels
Height : 804 pixels
Display aspect ratio : 2.40:1
Frame rate mode : Constant
Frame rate : 24.000 FPS
Color space : YUV
Chroma subsampling : 4:2:0
Bit depth : 10 bits
Bits/(Pixel*Frame) : 0.144
Stream size : 3.35 GiB (63%)
Title : Зависнути у Палм-Спрінгз / Palm Springs (2020)
Writing library : x265 3.5+1-ce882936d:[Windows][GCC 10.2.0][64 bit] 10bit
Encoding settings : cpuid=1111039 / frame-threads=3 / numa-pools=12 / wpp / no-pmode / no-pme / no-psnr / no-ssim / log-level=2 / input-csp=1 / input-res=1920x804 / interlace=0 / total-frames=129591 / level-idc=41 / high-tier=1 / uhd-bd=0 / ref=5 / no-allow-non-conformance / no-repeat-headers / annexb / no-aud / no-hrd / info / hash=0 / no-temporal-layers / open-gop / min-keyint=24 / keyint=240 / gop-lookahead=0 / bframes=16 / b-adapt=2 / b-pyramid / bframe-bias=0 / rc-lookahead=60 / lookahead-slices=4 / scenecut=40 / hist-scenecut=0 / radl=0 / no-splice / no-intra-refresh / ctu=32 / min-cu-size=8 / rect / amp / max-tu-size=32 / tu-inter-depth=4 / tu-intra-depth=4 / limit-tu=1 / rdoq-level=2 / dynamic-rd=0.00 / no-ssim-rd / signhide / no-tskip / nr-intra=0 / nr-inter=0 / no-constrained-intra / no-strong-intra-smoothing / max-merge=5 / limit-refs=2 / limit-modes / me=3 / subme=7 / merange=57 / temporal-mvp / no-frame-dup / no-hme / weightp / weightb / no-analyze-src-pics / deblock=-3:-3 / no-sao / no-sao-non-deblock / rd=6 / selective-sao=0 / no-early-skip / no-rskip / no-fast-intra / no-tskip-fast / no-cu-lossless / no-b-intra / no-splitrd-skip / rdpenalty=0 / psy-rd=2.00 / psy-rdoq=1.00 / no-rd-refine / no-lossless / cbqpoffs=0 / crqpoffs=0 / rc=crf / crf=20.3 / qcomp=0.65 / qpstep=4 / stats-write=0 / stats-read=0 / vbv-maxrate=50000 / vbv-bufsize=50000 / vbv-init=0.9 / min-vbv-fullness=50.0 / max-vbv-fullness=80.0 / crf-max=0.0 / crf-min=0.0 / ipratio=1.40 / pbratio=1.30 / aq-mode=1 / aq-strength=1.00 / no-cutree / zone-count=0 / no-strict-cbr / qg-size=32 / no-rc-grain / qpmax=69 / qpmin=0 / no-const-vbv / sar=1 / overscan=0 / videoformat=5 / range=0 / colorprim=2 / transfer=2 / colormatrix=2 / chromaloc=0 / display-window=0 / cll=0,0 / min-luma=0 / max-luma=1023 / log2-max-poc-lsb=8 / vui-timing-info / vui-hrd-info / slices=1 / no-opt-qp-pps / no-opt-ref-list-length-pps / no-multi-pass-opt-rps / scenecut-bias=0.05 / hist-threshold=0.03 / no-opt-cu-delta-qp / no-aq-motion / no-hdr10 / no-hdr10-opt / no-dhdr10-opt / no-idr-recovery-sei / analysis-reuse-level=0 / analysis-save-reuse-level=0 / analysis-load-reuse-level=0 / scale-factor=0 / refine-intra=0 / refine-inter=0 / refine-mv=1 / refine-ctu-distortion=0 / no-limit-sao / ctu-info=0 / no-lowpass-dct / refine-analysis-type=0 / copy-pic=1 / max-ausize-factor=1.0 / no-dynamic-refine / no-single-sei / no-hevc-aq / no-svt / no-field / qp-adaptation-range=1.00 / scenecut-aware-qp=0conformance-window-offsets / right=0 / bottom=0 / decoder-max-rate=0 / no-vbv-live-multi-pass
Language : English
Default : Yes
Forced : Yes

Audio #1
ID : 2
Format : AC-3
Format/Info : Audio Coding 3
Commercial name : Dolby Digital
Codec ID : A_AC3
Duration : 1 h 29 min
Bit rate mode : Constant
Bit rate : 384 kb/s
Channel(s) : 6 channels
Channel layout : L R C LFE Ls Rs
Sampling rate : 48.0 kHz
Frame rate : 31.250 FPS (1536 SPF)
Compression mode : Lossy
Stream size : 247 MiB (5%)
Title : AC-3 / 5.1 Ch / 384 kbps / DUB / iTunes
Language : Russian
Service kind : Complete Main
Default : Yes
Forced : Yes

Audio #2
ID : 3
Format : AC-3
Format/Info : Audio Coding 3
Commercial name : Dolby Digital
Codec ID : A_AC3
Duration : 1 h 29 min
Bit rate mode : Constant
Bit rate : 448 kb/s
Channel(s) : 6 channels
Channel layout : L R C LFE Ls Rs
Sampling rate : 48.0 kHz
Frame rate : 31.250 FPS (1536 SPF)
Compression mode : Lossy
Stream size : 288 MiB (5%)
Title : AC-3 / 5.1 Ch / 448 kbps / MVO / HDRezka Studio
Language : Russian
Service kind : Complete Main
Default : No
Forced : No

Audio #3
ID : 4
Format : AC-3
Format/Info : Audio Coding 3
Commercial name : Dolby Digital
Codec ID : A_AC3
Duration : 1 h 29 min
Bit rate mode : Constant
Bit rate : 384 kb/s
Channel(s) : 6 channels
Channel layout : L R C LFE Ls Rs
Sampling rate : 48.0 kHz
Frame rate : 31.250 FPS (1536 SPF)
Compression mode : Lossy
Stream size : 247 MiB (5%)
Title : AC-3 / 5.1 Ch / 384 kbps / MVO / NewStudio
Language : Russian
Service kind : Complete Main
Default : No
Forced : No

Audio #4
ID : 5
Format : AC-3
Format/Info : Audio Coding 3
Commercial name : Dolby Digital
Codec ID : A_AC3
Duration : 1 h 29 min
Bit rate mode : Constant
Bit rate : 192 kb/s
Channel(s) : 2 channels
Channel layout : L R
Sampling rate : 48.0 kHz
Frame rate : 31.250 FPS (1536 SPF)
Compression mode : Lossy
Stream size : 124 MiB (2%)
Title : AC-3 / 2.0 Ch / 192 kbps / DVO / Кубик в Кубе
Language : Russian
Service kind : Complete Main
Default : No
Forced : No

Audio #5
ID : 6
Format : AC-3
Format/Info : Audio Coding 3
Commercial name : Dolby Digital
Codec ID : A_AC3
Duration : 1 h 29 min
Bit rate mode : Constant
Bit rate : 640 kb/s
Channel(s) : 6 channels
Channel layout : L R C LFE Ls Rs
Sampling rate : 48.0 kHz
Frame rate : 31.250 FPS (1536 SPF)
Compression mode : Lossy
Stream size : 412 MiB (8%)
Title : AC-3 / 5.1 Ch / 640 kbps / AVO / Goblin aka. Дмитрий Пучков
Language : Russian
Service kind : Complete Main
Default : No
Forced : No

Audio #6
ID : 7
Format : AC-3
Format/Info : Audio Coding 3
Commercial name : Dolby Digital
Codec ID : A_AC3
Duration : 1 h 29 min
Bit rate mode : Constant
Bit rate : 192 kb/s
Channel(s) : 2 channels
Channel layout : L R
Sampling rate : 48.0 kHz
Frame rate : 31.250 FPS (1536 SPF)
Compression mode : Lossy
Stream size : 124 MiB (2%)
Title : AC-3 / 2.0 Ch / 192 kbps / AVO / Кураж-Бамбей
Language : Russian
Service kind : Complete Main
Default : No
Forced : No

Audio #7
ID : 8
Format : AC-3
Format/Info : Audio Coding 3
Commercial name : Dolby Digital
Codec ID : A_AC3
Duration : 1 h 29 min
Bit rate mode : Constant
Bit rate : 192 kb/s
Channel(s) : 2 channels
Channel layout : L R
Sampling rate : 48.0 kHz
Frame rate : 31.250 FPS (1536 SPF)
Compression mode : Lossy
Stream size : 124 MiB (2%)
Title : AC-3 / 2.0 Ch / 192 kbps / DUB / Студія ААА-sound
Language : Ukrainian
Service kind : Complete Main
Default : No
Forced : No

Audio #8
ID : 9
Format : AC-3
Format/Info : Audio Coding 3
Commercial name : Dolby Digital
Codec ID : A_AC3
Duration : 1 h 29 min
Bit rate mode : Constant
Bit rate : 640 kb/s
Channel(s) : 6 channels
Channel layout : L R C LFE Ls Rs
Sampling rate : 48.0 kHz
Frame rate : 31.250 FPS (1536 SPF)
Compression mode : Lossy
Stream size : 412 MiB (8%)
Title : AC-3 / 5.1 Ch / 640 kbps / Original
Language : English
Service kind : Complete Main
Default : No
Forced : No

Audio #9
ID : 10
Format : AAC LC SBR
Format/Info : Advanced Audio Codec Low Complexity with Spectral Band Replication
Commercial name : HE-AAC
Format settings : Explicit
Codec ID : A_AAC-2
Duration : 1 h 29 min
Bit rate : 64.0 kb/s
Channel(s) : 2 channels
Channel layout : L R
Sampling rate : 48.0 kHz
Frame rate : 23.438 FPS (2048 SPF)
Compression mode : Lossy
Stream size : 41.2 MiB (1%)
Title : AAC / 2.0 Ch / 64 kbps / Original / Commentary by actors Andy Samberg and Cristin Milioti, writer Andy Siara, and director Max Barbakow
Language : English
Default : No
Forced : No

Text #1
ID : 11
Format : UTF-8
Codec ID : S_TEXT/UTF8
Codec ID/Info : UTF-8 Plain Text
Duration : 1 h 3 min
Bit rate : 2 b/s
Count of elements : 19
Stream size : 1.01 KiB (0%)
Title : Forced
Language : Russian
Default : Yes
Forced : Yes

Text #2
ID : 12
Format : UTF-8
Codec ID : S_TEXT/UTF8
Codec ID/Info : UTF-8 Plain Text
Duration : 1 h 24 min
Bit rate : 98 b/s
Count of elements : 1257
Stream size : 60.6 KiB (0%)
Title : Full
Language : Russian
Default : No
Forced : No

Text #3
ID : 13
Format : UTF-8
Codec ID : S_TEXT/UTF8
Codec ID/Info : UTF-8 Plain Text
Duration : 1 h 24 min
Bit rate : 106 b/s
Count of elements : 1450
Stream size : 65.8 KiB (0%)
Title : Full by lebowski
Language : Russian
Default : No
Forced : No

Text #4
ID : 14
Format : UTF-8
Codec ID : S_TEXT/UTF8
Codec ID/Info : UTF-8 Plain Text
Duration : 1 h 22 min
Bit rate : 100 b/s
Count of elements : 1179
Stream size : 61.0 KiB (0%)
Title : Full (Кубик в Кубе)
Language : Russian
Default : No
Forced : No

Text #5
ID : 15
Format : UTF-8
Codec ID : S_TEXT/UTF8
Codec ID/Info : UTF-8 Plain Text
Duration : 1 h 3 min
Bit rate : 2 b/s
Count of elements : 19
Stream size : 990 Bytes (0%)
Title : Forced
Language : Ukrainian
Default : No
Forced : No

Text #6
ID : 16
Format : UTF-8
Codec ID : S_TEXT/UTF8
Codec ID/Info : UTF-8 Plain Text
Duration : 1 h 29 min
Bit rate : 71 b/s
Count of elements : 1609
Stream size : 46.9 KiB (0%)
Title : Full
Language : English
Default : No
Forced : No

Text #7
ID : 17
Format : UTF-8
Codec ID : S_TEXT/UTF8
Codec ID/Info : UTF-8 Plain Text
Duration : 1 h 29 min
Bit rate : 76 b/s
Count of elements : 1762
Stream size : 50.7 KiB (0%)
Title : SDH
Language : English
Default : No
Forced : No

Text #8
ID : 18
Format : UTF-8
Codec ID : S_TEXT/UTF8
Codec ID/Info : UTF-8 Plain Text
Duration : 1 h 29 min
Bit rate : 97 b/s
Count of elements : 1998
Stream size : 63.9 KiB (0%)
Title : Commentary by actors Andy Samberg and Cristin Milioti, writer Andy Siara, and director Max Barbakow
Language : English
Default : No
Forced : No

Menu
00:00:00.000 : en:Studio Logos
00:00:24.292 : en:Pre-wedding jitters
00:02:48.083 : en:Wedding celebrations
00:08:21.208 : en:Finding connections at the wedding
00:11:29.750 : en:A crazy night in the desert
00:13:44.792 : en:A twist in the story
00:17:59.792 : en:Stuck in a loop
00:21:17.250 : en:Running away
00:23:41.167 : en:Learning to suffer existence
00:33:59.500 : en:Selfless acts
00:36:10.458 : en:Starting again
00:36:40.625 : en:Wasting time
00:41:02.250 : en:A special night in the desert
00:46:49.792 : en:Revelations
00:53:51.542 : en:Where is Sarah
00:59:52.042 : en:Nyles gives up
01:04:32.875 : en:Sarah takes matters into her own hands
01:06:42.083 : en:A new plan
01:15:29.542 : en:Finding out how to live
01:16:52.750 : en:Confessions
01:21:55.334 : en:Another sunny day in Palm Springs
01:24:40.667 : en:End Credits
Загрузка...Cкриншот1 Зависнуть в Палм-Спрингс / Palm Springs (2020) [iTunes] BDRip 1080p [HEVC] 10 bit от -Star-Lord- (RG RIPS CLUB)Загрузка...Cкриншот2 Зависнуть в Палм-Спрингс / Palm Springs (2020) [iTunes] BDRip 1080p [HEVC] 10 bit от -Star-Lord- (RG RIPS CLUB)Загрузка...Cкриншот3 Зависнуть в Палм-Спрингс / Palm Springs (2020) [iTunes] BDRip 1080p [HEVC] 10 bit от -Star-Lord- (RG RIPS CLUB)Загрузка...Cкриншот4 Зависнуть в Палм-Спрингс / Palm Springs (2020) [iTunes] BDRip 1080p [HEVC] 10 bit от -Star-Lord- (RG RIPS CLUB)
Релиз-группа: RIPS CLUB
Сэмпл Торрент🧲 Магнет

Рейтинги КП и IMDB, кнопки "Позвать в чате" и "Спасибо", а также мультитрекерная статистика доступны только зарегистрированным/авторизованным пользователям!

Файлы: 1
  • Palm Springs (2020) BDRip 1080p H.265 [6xRUS_UKR_ENG] [RIPS-CLUB].mkv   5.32 ГБ
Поблагодарили: 8
and50, Andrey_alex, donadar, Kilop77, ko1ob, makss333, NoMaD, x750
StarLord
076515.32 ГБ

Добавление нового комментария

Добавление комментариев доступно только зарегистрированным/авторизованным пользователям.