💬 Мини-чат

OldGamerнет
Giggaloнет ли у кого в планах "Давайте потанцуем" 2004
GiggaloСообщение удалено (удалил: Giggalo)
StarLordOldGamer, как дела?)
StarLordOldGamer, ура, вернулся 😄
OldGamerRezident, можете скачать этот фильм от другого релизёра, там невелика разница, а раздающие точно есть
OldGamerGiggalo, https://tsya.ru/mnemonic.html
NoMaDСообщение удалено (удалил: NoMaD)
NoMaDСообщение удалено (удалил: NoMaD)
GiggaloСообщение удалено (удалил: Giggalo)
GiggaloСообщение удалено (удалил: Giggalo)
Spartanec1308Был днём
StarLordGiggalo, наверное отрубало беднягу, целый день его нету 😅
GiggaloСообщение удалено (удалил: Giggalo)
OldGamerДоброе. Работы много, некогда на перинах валяться.
GiggaloСообщение удалено (удалил: Giggalo)
GiggaloСообщение удалено (удалил: Giggalo)
  • OldGamer
  • qvnvqygospcocittov
  • Херсонец
Отправка сообщений доступна только зарегистрированным/авторизованным пользователям.
Онлайн (за 10 мин.): 3

Храброе сердце / Braveheart (1995) BDRip 1080p [HEVC] 10 bit от Spartanec1308

HEVC
10 bit
Обложка Храброе сердце / Braveheart (1995) BDRip 1080p [HEVC] 10 bit от Spartanec1308 Год: 1995
Страна: США
Студия: B.H. Finance C.V., Icon Entertainmnet International, The Ladd Company
Жанр: Боевик, Драма, Биография, История
Продолжительность: 02:57:43

Режиссер: Мэл Гибсон
В ролях: Мэл Гибсон, Софи Марсо, Патрик МакГуэн, Энгус Макфадьен, Брендан Глисон, Кэтрин МакКормак, Брайан Кокс, Джерард МакСорли, Мартин Мерфи, Томми Флэнаган, Джон Мурта, Джеймс Робинсон, Шон Лоулор, Сэнди Нельсон, Джеймс Космо, Шон МакГинли, Алан Толл, Эндрю Вейр, Герда Стивенсон, Ральф Райч

Описание: Что делать, если и умея мыслить на трех языках, все равно думаешь об одном: как жить и растить своих детей в стране, которая тебе не принадлежит?.. Но, кажется, сам Господь дает ответ на этот вопрос, приглашая к себе раньше срока ту, с которой хотелось бы прожить жизнь... В такой ситуации, потеряв всякий смысл, так легко опустить руки... обычному человеку. Но к вящей славе всего нашего рода, по земле во все времена ходили и такие люди, что выделялись из толпы не ростом или голосом, а невидимым на первый взгляд отличием – по настоящему Храбрым Сердцем!...


Видео: 1920x818, 7622 Кбит/сек, 0.206 бит/(Пиксели*Кадры), 23,976 кадр/сек, HEVC (Main10@L.4.1@High) 10 бит
Аудио1: AC3, 6 ch, 448 Kbps - РусскийРусский, Дублированный (Лицензия)
Аудио2: AC3, 6 ch, 640 Kbps - РусскийРусский, Многоголосый
Аудио3: AC3, 6 ch, 640 Kbps - РусскийРусский, Многоголосый (LDV)
Аудио4: AC3, 6 ch, 640 Kbps - РусскийРусский, Одноголосый (Андрей Гаврилов)
Аудио5: AC3, 6 ch, 640 Kbps - РусскийРусский, Одноголосый (Дмитрий Есарев)
Аудио6: AC3, 6 ch, 640 Kbps - РусскийРусский, Оригинал
Субтитры: Русские , английские

Как за пару секунд удалить ненужные аудиодорожки и субтитры (Внимание! После удаления вы не сможете поддержать раздачу)

Лог (x265 info)
x265 [info]: frame I: 3175, Avg QP:17.27 kb/s: 34751.88
x265 [info]: frame P: 55615, Avg QP:18.59 kb/s: 17990.45
x265 [info]: frame B: 196870, Avg QP:21.22 kb/s: 4425.98
x265 [info]: Weighted P-Frames: Y:5.1% UV:3.5%
x265 [info]: Weighted B-Frames: Y:3.0% UV:1.7%
x265 [info]: consecutive B-frames: 9.6% 5.6% 9.9% 34.3% 9.5% 23.7% 3.0% 4.3% 0.2% 0.1% 0.1%
Медиаинфо
Формат : Matroska
Версия формата : Version 4
Размер файла : 14,2 Гбайт
Продолжительность : 2 ч. 57 м.
Общий поток : 11,4 Мбит/сек
Название фильма : by Spartanec
Дата кодирования : UTC 2021-03-18 12:02:22
Программа кодирования : mkvmerge v7.0.0 ('Where We Going') 64bit built on Jun 9 2014 15:16:27
Библиотека кодирования : libebml v1.3.0 + libmatroska v1.4.1 / Lavf57.71.100
Обложка : Yes
Attachments : cover.jpg

Видео
Идентификатор : 1
Формат : HEVC
Формат/Информация : High Efficiency Video Coding
Профиль формата : Main 10@L4.1@High
Идентификатор кодека : V_MPEGH/ISO/HEVC
Продолжительность : 2 ч. 57 м.
Битрейт : 7754 Кбит/сек
Ширина : 1920 пикселей
Высота : 818 пикселей
Соотношение сторон : 2,35:1
Режим частоты кадров : Постоянный
Частота кадров : 23,976 (23976/1000) кадра/сек
Частота кадров в оригинале : 23,976 (24000/1001) кадра/сек
Цветовое пространство : YUV
Субдискретизация насыщенности : 4:2:0
Битовая глубина : 10 бит
Бит/(Пиксели*Кадры) : 0.206
Размер потока : 9,63 Гбайт (68%)
Заголовок : Spartanec
Библиотека кодирования : x265 3.5_RC1:[Windows][GCC 10.2.1][64 bit] 10bit
Настройки программы : cpuid=1111039 / frame-threads=4 / numa-pools=16 / wpp / no-pmode / no-pme / no-psnr / no-ssim / log-level=2 / input-csp=1 / input-res=1920x818 / interlace=0 / total-frames=255660 / level-idc=41 / high-tier=1 / uhd-bd=0 / ref=5 / no-allow-non-conformance / no-repeat-headers / annexb / no-aud / no-hrd / info / hash=0 / no-temporal-layers / open-gop / min-keyint=23 / keyint=240 / gop-lookahead=0 / bframes=10 / b-adapt=2 / b-pyramid / bframe-bias=0 / rc-lookahead=60 / lookahead-slices=1 / scenecut=40 / hist-scenecut=0 / radl=0 / no-splice / no-intra-refresh / ctu=32 / min-cu-size=8 / rect / amp / max-tu-size=32 / tu-inter-depth=4 / tu-intra-depth=4 / limit-tu=1 / rdoq-level=1 / dynamic-rd=0.00 / no-ssim-rd / signhide / no-tskip / nr-intra=0 / nr-inter=0 / no-constrained-intra / no-strong-intra-smoothing / max-merge=5 / limit-refs=0 / no-limit-modes / me=3 / subme=7 / merange=57 / temporal-mvp / no-frame-dup / no-hme / weightp / weightb / no-analyze-src-pics / deblock=-2:-2 / no-sao / no-sao-non-deblock / rd=6 / selective-sao=0 / no-early-skip / no-rskip / no-fast-intra / no-tskip-fast / no-cu-lossless / b-intra / no-splitrd-skip / rdpenalty=0 / psy-rd=2.00 / psy-rdoq=1.00 / no-rd-refine / no-lossless / cbqpoffs=0 / crqpoffs=0 / rc=crf / crf=20.0 / qcomp=0.70 / qpstep=4 / stats-write=0 / stats-read=0 / vbv-maxrate=50000 / vbv-bufsize=50000 / vbv-init=0.9 / min-vbv-fullness=50.0 / max-vbv-fullness=80.0 / crf-max=0.0 / crf-min=0.0 / ipratio=1.40 / pbratio=1.30 / aq-mode=2 / aq-strength=1.00 / no-cutree / zone-count=0 / no-strict-cbr / qg-size=32 / no-rc-grain / qpmax=69 / qpmin=0 / no-const-vbv / sar=1 / overscan=0 / videoformat=5 / range=0 / colorprim=1 / transfer=1 / colormatrix=1 / chromaloc=0 / display-window=0 / cll=0,0 / min-luma=0 / max-luma=1023 / log2-max-poc-lsb=8 / vui-timing-info / vui-hrd-info / slices=1 / no-opt-qp-pps / no-opt-ref-list-length-pps / no-multi-pass-opt-rps / scenecut-bias=0.05 / hist-threshold=0.03 / no-opt-cu-delta-qp / no-aq-motion / no-hdr10 / no-hdr10-opt / no-dhdr10-opt / no-idr-recovery-sei / analysis-reuse-level=0 / analysis-save-reuse-level=0 / analysis-load-reuse-level=0 / scale-factor=0 / refine-intra=0 / refine-inter=0 / refine-mv=0 / refine-ctu-distortion=0 / no-limit-sao / ctu-info=0 / no-lowpass-dct / refine-analysis-type=0 / copy-pic=1 / max-ausize-factor=1.0 / no-dynamic-refine / no-single-sei / no-hevc-aq / no-svt / no-field / qp-adaptation-range=1.00 / scenecut-aware-qp=0conformance-window-offsets / right=0 / bottom=0 / decoder-max-rate=0 / no-vbv-live-multi-pass
Язык : English
Default : Да
Forced : Нет
Цветовой диапазон : Limited
Основные цвета : BT.709
Характеристики трансфера : BT.709
Коэффициенты матрицы : BT.709

Аудио #1
Идентификатор : 2
Формат : AC-3
Формат/Информация : Audio Coding 3
Коммерческое название : Dolby Digital
Идентификатор кодека : A_AC3
Продолжительность : 2 ч. 57 м.
Вид битрейта : Постоянный
Битрейт : 448 Кбит/сек
Каналы : 6 каналов
ChannelLayout : L R C LFE Ls Rs
Частота : 48,0 КГц
Частота кадров : 31,250 кадров/сек (1536 SPF)
Битовая глубина : 16 бит
Метод сжатия : С потерями
Размер потока : 569 Мбайт (4%)
Заголовок : Дубляж
Язык : Russian
ServiceKind/ : Complete Main
Default : Да
Forced : Нет

Аудио #2
Идентификатор : 3
Формат : AC-3
Формат/Информация : Audio Coding 3
Коммерческое название : Dolby Digital
Идентификатор кодека : A_AC3
Продолжительность : 2 ч. 57 м.
Вид битрейта : Постоянный
Битрейт : 640 Кбит/сек
Каналы : 6 каналов
ChannelLayout : L R C LFE Ls Rs
Частота : 48,0 КГц
Частота кадров : 31,250 кадров/сек (1536 SPF)
Битовая глубина : 16 бит
Метод сжатия : С потерями
Размер потока : 814 Мбайт (6%)
Заголовок : Многоголосый
Язык : Russian
ServiceKind/ : Complete Main
Default : Нет
Forced : Нет

Аудио #3
Идентификатор : 4
Формат : AC-3
Формат/Информация : Audio Coding 3
Коммерческое название : Dolby Digital
Идентификатор кодека : A_AC3
Продолжительность : 2 ч. 57 м.
Вид битрейта : Постоянный
Битрейт : 640 Кбит/сек
Каналы : 6 каналов
ChannelLayout : L R C LFE Ls Rs
Частота : 48,0 КГц
Частота кадров : 31,250 кадров/сек (1536 SPF)
Битовая глубина : 16 бит
Метод сжатия : С потерями
Размер потока : 813 Мбайт (6%)
Заголовок : Профессиональный многоголосый (LDV)
Язык : Russian
ServiceKind/ : Complete Main
Default : Нет
Forced : Нет

Аудио #4
Идентификатор : 5
Формат : AC-3
Формат/Информация : Audio Coding 3
Коммерческое название : Dolby Digital
Идентификатор кодека : A_AC3
Продолжительность : 2 ч. 57 м.
Вид битрейта : Постоянный
Битрейт : 640 Кбит/сек
Каналы : 6 каналов
ChannelLayout : L R C LFE Ls Rs
Частота : 48,0 КГц
Частота кадров : 31,250 кадров/сек (1536 SPF)
Битовая глубина : 16 бит
Метод сжатия : С потерями
Размер потока : 814 Мбайт (6%)
Заголовок : Авторский (ГАВРИЛОВ)
Язык : Russian
ServiceKind/ : Complete Main
Default : Нет
Forced : Нет

Аудио #5
Идентификатор : 6
Формат : AC-3
Формат/Информация : Audio Coding 3
Коммерческое название : Dolby Digital
Идентификатор кодека : A_AC3
Продолжительность : 2 ч. 57 м.
Вид битрейта : Постоянный
Битрейт : 640 Кбит/сек
Каналы : 6 каналов
ChannelLayout : L R C LFE Ls Rs
Частота : 48,0 КГц
Частота кадров : 31,250 кадров/сек (1536 SPF)
Битовая глубина : 16 бит
Метод сжатия : С потерями
Размер потока : 814 Мбайт (6%)
Заголовок : Авторский (ЕСАРЕВ)
Язык : Russian
ServiceKind/ : Complete Main
Default : Нет
Forced : Нет

Аудио #6
Идентификатор : 7
Формат : AC-3
Формат/Информация : Audio Coding 3
Коммерческое название : Dolby Digital
Идентификатор кодека : A_AC3
Продолжительность : 2 ч. 57 м.
Вид битрейта : Постоянный
Битрейт : 640 Кбит/сек
Каналы : 6 каналов
ChannelLayout : L R C LFE Ls Rs
Частота : 48,0 КГц
Частота кадров : 31,250 кадров/сек (1536 SPF)
Битовая глубина : 16 бит
Метод сжатия : С потерями
Размер потока : 814 Мбайт (6%)
Заголовок : Оригинал
Язык : English
ServiceKind/ : Complete Main
Default : Нет
Forced : Нет

Текст #1
Идентификатор : 8
Формат : UTF-8
Идентификатор кодека : S_TEXT/UTF8
Идентификатор кодека/Информация : UTF-8 Plain Text
Продолжительность : 1 ч. 57 м.
Битрейт : 2 бит/сек
ElementCount : 39
Размер потока : 1,87 Кбайт (0%)
Заголовок : Русские - французские диалоги и английские надписи
Язык : Russian
Default : Да
Forced : Да

Текст #2
Идентификатор : 9
Формат : UTF-8
Идентификатор кодека : S_TEXT/UTF8
Идентификатор кодека/Информация : UTF-8 Plain Text
Продолжительность : 2 ч. 49 м.
Битрейт : 49 бит/сек
ElementCount : 1013
Размер потока : 61,8 Кбайт (0%)
Заголовок : Русские
Язык : Russian
Default : Нет
Forced : Нет

Текст #3
Идентификатор : 10
Формат : UTF-8
Идентификатор кодека : S_TEXT/UTF8
Идентификатор кодека/Информация : UTF-8 Plain Text
Продолжительность : 2 ч. 49 м.
Битрейт : 28 бит/сек
ElementCount : 1084
Размер потока : 36,0 Кбайт (0%)
Заголовок : Английские
Язык : English
Default : Нет
Forced : Нет

Меню
00:00:00.000 : :Chapter 01
00:07:25.528 : :Chapter 02
00:16:24.441 : :Chapter 03
00:22:00.694 : :Chapter 04
00:34:16.888 : :Chapter 05
00:39:49.678 : :Chapter 06
00:56:04.986 : :Chapter 07
01:00:01.264 : :Chapter 08
01:07:28.044 : :Chapter 09
01:11:51.932 : :Chapter 10
01:19:01.528 : :Chapter 11
01:33:03.202 : :Chapter 12
01:43:44.718 : :Chapter 13
01:53:55.453 : :Chapter 14
01:58:58.464 : :Chapter 15
02:17:15.477 : :Chapter 16
02:24:18.900 : :Chapter 17
02:28:49.795 : :Chapter 18
02:34:12.409 : :Chapter 19
02:36:32.091 : :Chapter 20
02:46:53.878 : :Chapter 21
02:50:43.066 : :Chapter 22
Загрузка...Cкриншот1 Храброе сердце / Braveheart (1995) BDRip 1080p [HEVC] 10 bit от Spartanec1308Загрузка...Cкриншот2 Храброе сердце / Braveheart (1995) BDRip 1080p [HEVC] 10 bit от Spartanec1308Загрузка...Cкриншот3 Храброе сердце / Braveheart (1995) BDRip 1080p [HEVC] 10 bit от Spartanec1308Загрузка...Cкриншот4 Храброе сердце / Braveheart (1995) BDRip 1080p [HEVC] 10 bit от Spartanec1308
Сэмпл Торрент🧲 Магнет

Рейтинги КП и IMDB, кнопки "Позвать в чате" и "Спасибо", а также мультитрекерная статистика доступны только зарегистрированным/авторизованным пользователям!

Файлы: 1
  • Храброе сердце (1995) BDRip 1080p [HEVC] 10bit by Spartanec.mkv   14.16 ГБ
Поблагодарили: 15
alexyak, ancestor87, Andrey_alex, Brooklyn, Diman, donadar, ko1ob, mafo2, makss333, michael90, MIGRANT, NoMaD, OldGamer, StarLord, Tony
Spartanec1308
5412114.16 ГБ

Добавление нового комментария

Добавление комментариев доступно только зарегистрированным/авторизованным пользователям.
Аватар не указан
  MIGRANT  
Такой сильный файл, но дорожек так мало нужных... Пытался добавить из других файлов, так звук с изображением не совпадает все время... Может стоит добавить "Примьер видео," "Лазер видео", "ОРТ".... Был бы шикарный коллекционный файл...
Аватар не указан
  Tony  
mafo2 писал(а):
Спасибо! Судя по всему UHD достойные, особенно немецкий.
Ну, вроде бы, да))
Аватар mafo2
  mafo2  
Tony писал(а):
Вот посмотри детальный обзор 4К этого фильма от немцев https://blu-ray-rezensionen.net/braveheart-4k-uhd/
Спасибо! Судя по всему UHD достойные, особенно немецкий.
Аватар не указан
  Tony  
mafo2 писал(а):
Крутяк! Спасибо!
В ближайшие пару месяцев в HDR планирую сделать.
ПС. Лишь бы исходник был на уровне, а не такой как в Назад в будущее.
Вот посмотри детальный обзор 4К этого фильма от немцев https://blu-ray-rezensionen.net/braveheart-4k-uhd/
Аватар mafo2
  mafo2  (Отредактировал mafo2: )    
Крутяк! Спасибо!
В ближайшие пару месяцев в HDR планирую сделать.
ПС. Лишь бы исходник был на уровне, а не такой как в Назад в будущее.