💬 Мини-чат

Giggaloнет ли у кого в планах "Давайте потанцуем" 2004
GiggaloСообщение удалено (удалил: Giggalo)
StarLordOldGamer, как дела?)
StarLordOldGamer, ура, вернулся 😄
OldGamerRezident, можете скачать этот фильм от другого релизёра, там невелика разница, а раздающие точно есть
OldGamerGiggalo, https://tsya.ru/mnemonic.html
NoMaDСообщение удалено (удалил: NoMaD)
NoMaDСообщение удалено (удалил: NoMaD)
GiggaloСообщение удалено (удалил: Giggalo)
GiggaloСообщение удалено (удалил: Giggalo)
Spartanec1308Был днём
StarLordGiggalo, наверное отрубало беднягу, целый день его нету 😅
GiggaloСообщение удалено (удалил: Giggalo)
OldGamerДоброе. Работы много, некогда на перинах валяться.
GiggaloСообщение удалено (удалил: Giggalo)
GiggaloСообщение удалено (удалил: Giggalo)
  • Giggalo
  • alexyak
  • Priest2017
Отправка сообщений доступна только зарегистрированным/авторизованным пользователям.
Онлайн (за 10 мин.): 3

Родина / Homeland (2018) [7 сезон] BDRip 1080p [HEVC] 10 bit от OldGamer (RG RIPS CLUB)

HEVC
10 bit
Обложка Родина / Homeland (2018) [7 сезон] BDRip 1080p [HEVC] 10 bit от OldGamer (RG RIPS CLUB) Год: 2018
Страна: США
Студия: Cherry Pie Productions, Fox 21, Keshet Broadcasting, Showtime
Жанр: Триллер, Драма, Криминал, Детектив
Продолжительность: 10:47:50

Режиссер: Лесли Линка Глаттер, Майкл Куэста, Дэниэл Эттиэс
В ролях: Клэр Дэйнс, Мэнди Пэтинкин, Руперт Френд, Мори Стерлинг, Ф. Мюррэй Абрахам, Дэмиэн Льюис, Морена Баккарин, Джексон Пэйс, Морган Сэйлор, Диего Клаттенхофф

Описание: Кэрри оставила работу в Белом доме и переехала обратно в Вашингтон, и теперь она живёт вместе со своей сестрой Мэгги, чтобы бороться с администрацией Кин и обеспечить освобождение 200 членов разведывательного сообщества, которые были арестованы по приказу президента Кин в прошлом.


Исходник: Blu-Ray Remux 1080p (eXcommunicado)
Видео: 1920x1080 (16:9), 3697-8085 Кбит/сек, HEVC (Main10@L.4.1@High)
Аудио1: E-AC3, 6 ch, 640 Kbps - РусскийРусский, Многоголосый (LostFilm)
Аудио2: E-AC3, 6 ch, 640 Kbps - EnglishEnglish, Original
Субтитры: Русские полные (SRT), English full (SRT, SDH)

Как за пару секунд удалить ненужные аудиодорожки и субтитры (Внимание! После удаления вы не сможете поддержать раздачу)

Лог (x265 info)
x265 [info]: frame I: 308, Avg QP:17.90 kb/s: 17150.73
x265 [info]: frame P: 13409, Avg QP:19.28 kb/s: 11099.79
x265 [info]: frame B: 58883, Avg QP:21.39 kb/s: 4399.58
x265 [info]: Weighted P-Frames: Y:2.5% UV:2.0%
x265 [info]: Weighted B-Frames: Y:2.1% UV:1.6%
x265 [info]: consecutive B-frames: 2.0% 2.6% 7.5% 27.2% 16.8% 22.9% 7.9% 8.1% 2.6% 1.6% 0.4% 0.5%
x265 [info]: encoded 72600 frames in 69806.30s (1.04 fps), 5691.18 kb/s, Avg QP:20.99
Медиаинфо
Общее
Уникальный идентификатор : 245012156791732868233134690202341874321 (0xB8539FFCC0040DCA8374ADA0E5D41A91)
Полное имя : \\.\Родина.Homeland.BDRip-HEVC.1080p\Родина.Homeland.S07.2018.BDRip-HEVC.1080p\Homeland.S07E03.Standoff.mkv
Формат : Matroska
Версия формата : Version 4
Размер файла : 2,46 Гбайт
Продолжительность : 50 м. 35 с.
Общий поток : 6 960 Кбит/сек
Название фильма : Homeland.S07E03.Standoff
Дата кодирования : UTC 2021-03-13 12:19:37
Программа кодирования : mkvmerge v55.0.0 ('Waiting For Space') 64-bit
Библиотека кодирования : libebml v1.4.2 + libmatroska v1.6.4

Видео
Идентификатор : 1
Формат : HEVC
Формат/Информация : High Efficiency Video Coding
Профиль формата : Main 10@L4.1@High
Идентификатор кодека : V_MPEGH/ISO/HEVC
Продолжительность : 50 м. 28 с.
Битрейт : 5 692 Кбит/сек
Ширина : 1 920 пикселей
Высота : 1 080 пикселей
Соотношение сторон : 16:9
Режим частоты кадров : Постоянный
Частота кадров : 23,976 (24000/1001) кадра/сек
Цветовое пространство : YUV
Субдискретизация насыщенности : 4:2:0
Битовая глубина : 10 бит
Бит/(Пиксели*Кадры) : 0.114
Размер потока : 2,01 Гбайт (82%)
Заголовок : Homeland.S07E03.Standoff / Rip by OldGamer
Библиотека кодирования : x265 3.4+12-g9103319fc:[Windows][GCC 10.2.0][64 bit] 10bit
Настройки программы : cpuid=1111039 / frame-threads=3 / numa-pools=12 / wpp / no-pmode / no-pme / no-psnr / no-ssim / log-level=2 / input-csp=1 / input-res=1920x1080 / interlace=0 / total-frames=72600 / level-idc=41 / high-tier=1 / uhd-bd=0 / ref=5 / no-allow-non-conformance / no-repeat-headers / annexb / no-aud / no-hrd / info / hash=0 / no-temporal-layers / open-gop / min-keyint=23 / keyint=240 / gop-lookahead=0 / bframes=11 / b-adapt=2 / b-pyramid / bframe-bias=0 / rc-lookahead=40 / lookahead-slices=0 / scenecut=40 / hist-scenecut=0 / radl=0 / no-splice / no-intra-refresh / ctu=32 / min-cu-size=8 / rect / amp / max-tu-size=32 / tu-inter-depth=4 / tu-intra-depth=4 / limit-tu=1 / rdoq-level=2 / dynamic-rd=0.00 / no-ssim-rd / signhide / no-tskip / nr-intra=0 / nr-inter=0 / no-constrained-intra / no-strong-intra-smoothing / max-merge=5 / limit-refs=3 / no-limit-modes / me=3 / subme=7 / merange=57 / temporal-mvp / no-frame-dup / no-hme / weightp / weightb / no-analyze-src-pics / deblock=-3:-3 / no-sao / no-sao-non-deblock / rd=6 / selective-sao=0 / no-early-skip / rskip / no-fast-intra / no-tskip-fast / no-cu-lossless / b-intra / no-splitrd-skip / rdpenalty=0 / psy-rd=1.50 / psy-rdoq=0.75 / no-rd-refine / no-lossless / cbqpoffs=0 / crqpoffs=0 / rc=crf / crf=21.0 / qcomp=0.60 / qpstep=4 / stats-write=0 / stats-read=0 / vbv-maxrate=50000 / vbv-bufsize=50000 / vbv-init=0.9 / crf-max=0.0 / crf-min=0.0 / ipratio=1.40 / pbratio=1.30 / aq-mode=2 / aq-strength=1.00 / no-cutree / zone-count=0 / no-strict-cbr / qg-size=32 / no-rc-grain / qpmax=69 / qpmin=0 / no-const-vbv / sar=1 / overscan=0 / videoformat=5 / range=0 / colorprim=2 / transfer=2 / colormatrix=2 / chromaloc=0 / display-window=0 / cll=0,0 / min-luma=0 / max-luma=1023 / log2-max-poc-lsb=8 / vui-timing-info / vui-hrd-info / slices=1 / no-opt-qp-pps / no-opt-ref-list-length-pps / no-multi-pass-opt-rps / scenecut-bias=0.00 / hist-threshold=0.01 / no-opt-cu-delta-qp / no-aq-motion / no-hdr10 / no-hdr10-opt / no-dhdr10-opt / no-idr-recovery-sei / analysis-reuse-level=0 / analysis-save-reuse-level=0 / analysis-load-reuse-level=0 / scale-factor=0 / refine-intra=0 / refine-inter=0 / refine-mv=1 / refine-ctu-distortion=0 / no-limit-sao / ctu-info=0 / no-lowpass-dct / refine-analysis-type=0 / copy-pic=1 / max-ausize-factor=1.0 / no-dynamic-refine / no-single-sei / no-hevc-aq / no-svt / no-field / qp-adaptation-range=1.00 / no-scenecut-aware-qpconformance-window-offsets / right=0 / bottom=0 / decoder-max-rate=0
Язык : English
Default : Да
Forced : Нет

Аудио #1
Идентификатор : 2
Формат : E-AC-3
Формат/Информация : Enhanced AC-3
Коммерческое название : Dolby Digital Plus
Идентификатор кодека : A_EAC3
Продолжительность : 50 м. 35 с.
Вид битрейта : Постоянный
Битрейт : 640 Кбит/сек
Каналы : 6 каналов
Channel layout : L R C LFE Ls Rs
Частота : 48,0 КГц
Частота кадров : 31,250 кадров/сек (1536 SPF)
Метод сжатия : С потерями
Задержка видео : 2 мс.
Размер потока : 232 Мбайт (9%)
Заголовок : MVO (LostFilm)
Язык : Russian
Service kind : Complete Main
Default : Да
Forced : Нет

Аудио #2
Идентификатор : 3
Формат : E-AC-3
Формат/Информация : Enhanced AC-3
Коммерческое название : Dolby Digital Plus
Идентификатор кодека : A_EAC3
Продолжительность : 50 м. 35 с.
Вид битрейта : Постоянный
Битрейт : 640 Кбит/сек
Каналы : 6 каналов
Channel layout : L R C LFE Ls Rs
Частота : 48,0 КГц
Частота кадров : 31,250 кадров/сек (1536 SPF)
Метод сжатия : С потерями
Задержка видео : 2 мс.
Размер потока : 232 Мбайт (9%)
Язык : English
Service kind : Complete Main
Default : Нет
Forced : Нет

Текст #1
Идентификатор : 4
Формат : UTF-8
Идентификатор кодека : S_TEXT/UTF8
Идентификатор кодека/Информация : UTF-8 Plain Text
Продолжительность : 49 м. 1 с.
Битрейт : 100 бит/сек
Count of elements : 677
Размер потока : 36,1 Кбайт (0%)
Заголовок : Full |Amedia|
Язык : Russian
Default : Нет
Forced : Нет

Текст #2
Идентификатор : 5
Формат : UTF-8
Идентификатор кодека : S_TEXT/UTF8
Идентификатор кодека/Информация : UTF-8 Plain Text
Продолжительность : 49 м. 45 с.
Битрейт : 64 бит/сек
Count of elements : 761
Размер потока : 23,5 Кбайт (0%)
Заголовок : Full
Язык : English
Default : Нет
Forced : Нет

Текст #3
Идентификатор : 6
Формат : UTF-8
Идентификатор кодека : S_TEXT/UTF8
Идентификатор кодека/Информация : UTF-8 Plain Text
Продолжительность : 49 м. 45 с.
Битрейт : 76 бит/сек
Count of elements : 895
Размер потока : 27,7 Кбайт (0%)
Заголовок : SDH
Язык : English
Default : Нет
Forced : Нет

Меню
00:00:00.000 : en:Studio Logo
00:00:04.000 : en:Previously On
00:01:29.000 : en:Opening Credits
00:02:54.000 : en:Carrie has a session with Dr. Meyer
00:06:08.000 : en:Saul searches for O'Keefe
00:07:59.000 : en:Carrie begins a new medication
00:10:37.000 : en:Saul confronts O'Keefe
00:13:08.000 : en:Keane is encouraged to let O'Keefe go
00:16:00.000 : en:O'Keefe contemplates his next move
00:18:02.000 : en:Dante has an update for Carrie
00:22:56.000 : en:O'Keefe discusses terms with Saul
00:27:05.000 : en:Carrie and Dante stake out Simone Martin's house
00:31:58.000 : en:O'Keefe isn't prepared to leave yet
00:34:12.000 : en:The police question Carrie
00:36:07.000 : en:Backup arrives
00:38:33.000 : en:Carrie is taken into police custody
00:40:48.000 : en:Keane refuses to attack the convoy
00:43:24.000 : en:The FBI prepares to attack
00:44:14.000 : en:Carrie is released
00:45:14.000 : en:Wellington authorizes the strike
00:46:59.000 : en:Carrie takes a minute to process the day
00:49:42.000 : en:End Credits
Загрузка...Cкриншот1 Родина / Homeland (2018) [7 сезон] BDRip 1080p [HEVC] 10 bit от OldGamer (RG RIPS CLUB)Загрузка...Cкриншот2 Родина / Homeland (2018) [7 сезон] BDRip 1080p [HEVC] 10 bit от OldGamer (RG RIPS CLUB)Загрузка...Cкриншот3 Родина / Homeland (2018) [7 сезон] BDRip 1080p [HEVC] 10 bit от OldGamer (RG RIPS CLUB)Загрузка...Cкриншот4 Родина / Homeland (2018) [7 сезон] BDRip 1080p [HEVC] 10 bit от OldGamer (RG RIPS CLUB)
Релиз-группа: RIPS CLUB
Сэмпл Торрент🧲 Магнет

Рейтинги КП и IMDB, кнопки "Позвать в чате" и "Спасибо", а также мультитрекерная статистика доступны только зарегистрированным/авторизованным пользователям!

Файлы: 12
  • Родина.Homeland.S07.2018.BDRip-HEVC.1080p
    • Homeland.S07E01.Enemy.of.the.State.mkv   2.89 ГБ
    • Homeland.S07E02.Rebel.Rebel.mkv   2.9 ГБ
    • Homeland.S07E03.Standoff.mkv   2.46 ГБ
    • Homeland.S07E04.Like.Bad.at.Things.mkv   3.1 ГБ
    • Homeland.S07E05.Active.Measures.mkv   2.52 ГБ
    • Homeland.S07E06.Species.Jump.mkv   3.07 ГБ
    • Homeland.S07E07.Andante.mkv   2.64 ГБ
    • Homeland.S07E08.Lies.Amplifiers.Fucking.Twitter.mkv   2.79 ГБ
    • Homeland.S07E09.Useful.Idiot.mkv   2.77 ГБ
    • Homeland.S07E10.Clarity.mkv   3.12 ГБ
    • Homeland.S07E11.All.In.mkv   1.99 ГБ
    • Homeland.S07E12.Paean.to.the.People.mkv   2.18 ГБ
Поблагодарили: 2
ko1ob, StarLord
OldGamer
03051 (12)  32.43 ГБ

Добавление нового комментария

Добавление комментариев доступно только зарегистрированным/авторизованным пользователям.