💬 Мини-чат

GiggaloСообщение удалено (удалил: Giggalo)
StarLordOldGamer, как дела?)
StarLordOldGamer, ура, вернулся 😄
OldGamerRezident, можете скачать этот фильм от другого релизёра, там невелика разница, а раздающие точно есть
OldGamerGiggalo, https://tsya.ru/mnemonic.html
NoMaDСообщение удалено (удалил: NoMaD)
NoMaDСообщение удалено (удалил: NoMaD)
GiggaloСообщение удалено (удалил: Giggalo)
GiggaloСообщение удалено (удалил: Giggalo)
Spartanec1308Был днём
StarLordGiggalo, наверное отрубало беднягу, целый день его нету 😅
GiggaloСообщение удалено (удалил: Giggalo)
OldGamerДоброе. Работы много, некогда на перинах валяться.
GiggaloСообщение удалено (удалил: Giggalo)
GiggaloСообщение удалено (удалил: Giggalo)
  • Spartanec1308
  • Giggalo
  • alenu
  • Blaster
Отправка сообщений доступна только зарегистрированным/авторизованным пользователям.
Онлайн (за 10 мин.): 4

Двойник / Counterpart (2017) [1 сезон] BDRip 1080p [HEVC] 10 bit от OldGamer (RG RIPS CLUB)

HEVC
10 bit
Обложка Двойник / Counterpart (2017) [1 сезон] BDRip 1080p [HEVC] 10 bit от OldGamer (RG RIPS CLUB) Год: 2017
Страна: США
Студия: Anonymous Content, Gate 34 Productions, Gilbert Films, Media Rights Capital, Starz Originals
Жанр: Фантастика, Триллер, Драма
Продолжительность: 09:07:42

Режиссер: Дженнифер Гетцингер, Алик Сахаров, Стивен Уильямс
В ролях: Дж.К. Симмонс, Оливия Уильямс, Гарри Ллойд, Назанин Бониади, Джон Фанк, Сара Серайокко, Николас Пиннок, Ульрих Томсен, Кристиана Пауль, Бетти Гэбриел

Описание: Говард Силк - незначительный винтик в бюрократической системе. Однажды герой обнаруживает, что агентство, в котором он работает, на самом деле занимается охраной переходов в параллельное измерение.


Исходник: Blu-Ray Remux 1080p (eXcommunicado)
Видео: 1920x1080 (16:9), 3049-5098 Кбит/сек, HEVC (Main10@L.4.1@High)
Аудио1: AC3, 6 ch, 640 Kbps - РусскийРусский, Двухголосый (Кубик в Кубе, без цензуры)
Аудио2: AC3, 6 ch, 448 Kbps - РусскийРусский, Многоголосый (TVShow)
Аудио3: AC3, 6 ch, 384 Kbps - РусскийРусский, Многоголосый (LostFilm)
Аудио4: AC3, 6 ch, 384 Kbps - РусскийРусский, Многоголосый (NewStudio, без цензуры)
Аудио5: AC3, 2 ch, 192 Kbps - РусскийРусский, Многоголосый (Кириллица)
Аудио6: AC3, 6 ch, 640 Kbps - EnglishEnglish, Original
Субтитры: Русские форсированные и полные (SRT), English full (SRT)

Как за пару секунд удалить ненужные аудиодорожки и субтитры (Внимание! После удаления вы не сможете поддержать раздачу)

Лог (x265 info)
x265 [info]: frame I: 349, Avg QP:17.83 kb/s: 16190.73
x265 [info]: frame P: 9105, Avg QP:18.88 kb/s: 14148.33
x265 [info]: frame B: 72074, Avg QP:21.22 kb/s: 3899.60
x265 [info]: Weighted P-Frames: Y:13.5% UV:11.4%
x265 [info]: Weighted B-Frames: Y:8.5% UV:6.3%
x265 [info]: consecutive B-frames: 3.5% 1.1% 3.8% 8.9% 6.7% 11.3% 6.6% 11.1% 6.7% 7.9% 6.6% 6.5% 5.2% 3.8% 3.7% 3.4% 3.0%
x265 [info]: encoded 81528 frames in 73312.08s (1.11 fps), 5096.79 kb/s, Avg QP:20.94
Медиаинфо
Общее
Уникальный идентификатор : 223438139200296114925338390245336215630 (0xA8189ECC01D19B03AAA55FF7C04CF04E)
Полное имя : \\.\Двойник.Counterpart.S01.2017.BDRip-HEVC.1080p\Counterpart.S01E02.Birds.of.a.Feather.mkv
Формат : Matroska
Версия формата : Version 4
Размер файла : 3,10 Гбайт
Продолжительность : 59 м. 14 с.
Общий поток : 7 491 Кбит/сек
Название фильма : Counterpart.S01E02.Birds.of.a.Feather
Дата кодирования : UTC 2021-03-22 17:00:44
Программа кодирования : mkvmerge v55.0.0 ('Waiting For Space') 64-bit
Библиотека кодирования : libebml v1.4.2 + libmatroska v1.6.4

Видео
Идентификатор : 1
Формат : HEVC
Формат/Информация : High Efficiency Video Coding
Профиль формата : Main 10@L4.1@High
Идентификатор кодека : V_MPEGH/ISO/HEVC
Продолжительность : 56 м. 40 с.
Битрейт : 5 098 Кбит/сек
Ширина : 1 920 пикселей
Высота : 1 080 пикселей
Соотношение сторон : 16:9
Режим частоты кадров : Постоянный
Частота кадров : 23,976 (24000/1001) кадра/сек
Цветовое пространство : YUV
Субдискретизация насыщенности : 4:2:0
Битовая глубина : 10 бит
Бит/(Пиксели*Кадры) : 0.103
Размер потока : 2,02 Гбайт (65%)
Заголовок : Counterpart.S01E02.Birds.of.a.Feather / Rip by OldGamer
Библиотека кодирования : x265 3.4+12-g9103319fc:[Windows][GCC 10.2.0][64 bit] 10bit
Настройки программы : cpuid=1111039 / frame-threads=3 / numa-pools=12 / wpp / no-pmode / no-pme / no-psnr / no-ssim / log-level=2 / input-csp=1 / input-res=1920x1080 / interlace=0 / total-frames=81528 / level-idc=41 / high-tier=1 / uhd-bd=0 / ref=5 / no-allow-non-conformance / no-repeat-headers / annexb / no-aud / no-hrd / info / hash=0 / no-temporal-layers / open-gop / min-keyint=23 / keyint=240 / gop-lookahead=0 / bframes=16 / b-adapt=2 / b-pyramid / bframe-bias=0 / rc-lookahead=40 / lookahead-slices=0 / scenecut=40 / hist-scenecut=0 / radl=0 / no-splice / no-intra-refresh / ctu=32 / min-cu-size=8 / rect / amp / max-tu-size=32 / tu-inter-depth=4 / tu-intra-depth=4 / limit-tu=1 / rdoq-level=2 / dynamic-rd=0.00 / no-ssim-rd / signhide / no-tskip / nr-intra=0 / nr-inter=0 / no-constrained-intra / no-strong-intra-smoothing / max-merge=5 / limit-refs=3 / no-limit-modes / me=3 / subme=7 / merange=57 / temporal-mvp / no-frame-dup / no-hme / weightp / weightb / no-analyze-src-pics / deblock=-3:-3 / no-sao / no-sao-non-deblock / rd=6 / selective-sao=0 / no-early-skip / rskip / no-fast-intra / no-tskip-fast / no-cu-lossless / b-intra / no-splitrd-skip / rdpenalty=0 / psy-rd=2.00 / psy-rdoq=1.00 / no-rd-refine / no-lossless / cbqpoffs=0 / crqpoffs=0 / rc=crf / crf=21.0 / qcomp=0.60 / qpstep=4 / stats-write=0 / stats-read=0 / vbv-maxrate=50000 / vbv-bufsize=50000 / vbv-init=0.9 / crf-max=0.0 / crf-min=0.0 / ipratio=1.40 / pbratio=1.30 / aq-mode=2 / aq-strength=1.00 / no-cutree / zone-count=1 / zones: / start-frame=79988 / end-frame=81528 / qp=36 / no-strict-cbr / qg-size=32 / no-rc-grain / qpmax=69 / qpmin=0 / no-const-vbv / sar=1 / overscan=0 / videoformat=5 / range=0 / colorprim=2 / transfer=2 / colormatrix=2 / chromaloc=0 / display-window=0 / cll=0,0 / min-luma=0 / max-luma=1023 / log2-max-poc-lsb=8 / vui-timing-info / vui-hrd-info / slices=1 / no-opt-qp-pps / no-opt-ref-list-length-pps / no-multi-pass-opt-rps / scenecut-bias=0.00 / hist-threshold=0.01 / no-opt-cu-delta-qp / no-aq-motion / no-hdr10 / no-hdr10-opt / no-dhdr10-opt / no-idr-recovery-sei / analysis-reuse-level=0 / analysis-save-reuse-level=0 / analysis-load-reuse-level=0 / scale-factor=0 / refine-intra=0 / refine-inter=0 / refine-mv=1 / refine-ctu-distortion=0 / no-limit-sao / ctu-info=0 / no-lowpass-dct / refine-analysis-type=0 / copy-pic=1 / max-ausize-factor=1.0 / no-dynamic-refine / no-single-sei / no-hevc-aq / no-svt / no-field / qp-adaptation-range=1.00 / no-scenecut-aware-qpconformance-window-offsets / right=0 / bottom=0 / decoder-max-rate=0
Язык : English
Default : Да
Forced : Нет

Аудио #1
Идентификатор : 2
Формат : AC-3
Формат/Информация : Audio Coding 3
Коммерческое название : Dolby Digital
Идентификатор кодека : A_AC3
Продолжительность : 56 м. 38 с.
Вид битрейта : Постоянный
Битрейт : 640 Кбит/сек
Каналы : 6 каналов
Channel layout : L R C LFE Ls Rs
Частота : 48,0 КГц
Частота кадров : 31,250 кадров/сек (1536 SPF)
Метод сжатия : С потерями
Задержка видео : 27 мс.
Размер потока : 259 Мбайт (8%)
Заголовок : MVO (Кубик в Кубе, без цензуры)
Язык : Russian
Service kind : Complete Main
Default : Нет
Forced : Нет

Аудио #2
Идентификатор : 3
Формат : AC-3
Формат/Информация : Audio Coding 3
Коммерческое название : Dolby Digital
Идентификатор кодека : A_AC3
Продолжительность : 56 м. 38 с.
Вид битрейта : Постоянный
Битрейт : 448 Кбит/сек
Каналы : 6 каналов
Channel layout : L R C LFE Ls Rs
Частота : 48,0 КГц
Частота кадров : 31,250 кадров/сек (1536 SPF)
Метод сжатия : С потерями
Задержка видео : 27 мс.
Размер потока : 181 Мбайт (6%)
Заголовок : MVO (TVShow)
Язык : Russian
Service kind : Complete Main
Default : Нет
Forced : Нет

Аудио #3
Идентификатор : 4
Формат : AC-3
Формат/Информация : Audio Coding 3
Коммерческое название : Dolby Digital
Идентификатор кодека : A_AC3
Продолжительность : 59 м. 14 с.
Вид битрейта : Постоянный
Битрейт : 384 Кбит/сек
Каналы : 6 каналов
Channel layout : L R C LFE Ls Rs
Частота : 48,0 КГц
Частота кадров : 31,250 кадров/сек (1536 SPF)
Метод сжатия : С потерями
Задержка видео : 27 мс.
Размер потока : 163 Мбайт (5%)
Заголовок : MVO (LostFilm)
Язык : Russian
Service kind : Complete Main
Default : Да
Forced : Нет

Аудио #4
Идентификатор : 5
Формат : AC-3
Формат/Информация : Audio Coding 3
Коммерческое название : Dolby Digital
Идентификатор кодека : A_AC3
Продолжительность : 59 м. 14 с.
Вид битрейта : Постоянный
Битрейт : 384 Кбит/сек
Каналы : 6 каналов
Channel layout : L R C LFE Ls Rs
Частота : 48,0 КГц
Частота кадров : 31,250 кадров/сек (1536 SPF)
Метод сжатия : С потерями
Задержка видео : 27 мс.
Размер потока : 163 Мбайт (5%)
Заголовок : MVO (NewStudio, без цензуры)
Язык : Russian
Service kind : Complete Main
Default : Нет
Forced : Нет

Аудио #5
Идентификатор : 6
Формат : AC-3
Формат/Информация : Audio Coding 3
Коммерческое название : Dolby Digital
Идентификатор кодека : A_AC3
Продолжительность : 59 м. 14 с.
Вид битрейта : Постоянный
Битрейт : 192 Кбит/сек
Каналы : 2 канала
Channel layout : L R
Частота : 48,0 КГц
Частота кадров : 31,250 кадров/сек (1536 SPF)
Метод сжатия : С потерями
Задержка видео : 27 мс.
Размер потока : 81,4 Мбайт (3%)
Заголовок : MVO (Кириллица)
Язык : Russian
Service kind : Complete Main
Default : Нет
Forced : Нет

Аудио #6
Идентификатор : 7
Формат : AC-3
Формат/Информация : Audio Coding 3
Коммерческое название : Dolby Digital
Идентификатор кодека : A_AC3
Продолжительность : 56 м. 38 с.
Вид битрейта : Постоянный
Битрейт : 640 Кбит/сек
Каналы : 6 каналов
Channel layout : L R C LFE Ls Rs
Частота : 48,0 КГц
Частота кадров : 31,250 кадров/сек (1536 SPF)
Метод сжатия : С потерями
Задержка видео : 27 мс.
Размер потока : 259 Мбайт (8%)
Язык : English
Service kind : Complete Main
Default : Нет
Forced : Нет

Текст #1
Идентификатор : 8
Формат : UTF-8
Идентификатор кодека : S_TEXT/UTF8
Идентификатор кодека/Информация : UTF-8 Plain Text
Продолжительность : 28 м. 16 с.
Битрейт : 5 бит/сек
Count of elements : 33
Размер потока : 1,17 Кбайт (0%)
Заголовок : Forced
Язык : Russian
Default : Да
Forced : Нет

Текст #2
Идентификатор : 9
Формат : UTF-8
Идентификатор кодека : S_TEXT/UTF8
Идентификатор кодека/Информация : UTF-8 Plain Text
Продолжительность : 55 м. 18 с.
Битрейт : 59 бит/сек
Count of elements : 559
Размер потока : 24,3 Кбайт (0%)
Заголовок : Full
Язык : Russian
Default : Нет
Forced : Нет

Текст #3
Идентификатор : 10
Формат : UTF-8
Идентификатор кодека : S_TEXT/UTF8
Идентификатор кодека/Информация : UTF-8 Plain Text
Продолжительность : 55 м. 27 с.
Битрейт : 42 бит/сек
Count of elements : 678
Размер потока : 17,4 Кбайт (0%)
Заголовок : Eng sub
Язык : English
Default : Нет
Forced : Нет

Меню
00:00:00.000 : en:Chapter 1
00:00:56.056 : en:Chapter 2
00:04:01.616 : en:Chapter 3
00:05:22.989 : en:Chapter 4
00:09:28.568 : en:Chapter 5
00:20:28.894 : en:Chapter 6
00:30:02.134 : en:Chapter 7
00:39:50.221 : en:Chapter 8
00:48:51.762 : en:Chapter 9
00:55:38.001 : en:Chapter 10
Загрузка...Cкриншот1 Двойник / Counterpart (2017) [1 сезон] BDRip 1080p [HEVC] 10 bit от OldGamer (RG RIPS CLUB)Загрузка...Cкриншот2 Двойник / Counterpart (2017) [1 сезон] BDRip 1080p [HEVC] 10 bit от OldGamer (RG RIPS CLUB)Загрузка...Cкриншот3 Двойник / Counterpart (2017) [1 сезон] BDRip 1080p [HEVC] 10 bit от OldGamer (RG RIPS CLUB)Загрузка...Cкриншот4 Двойник / Counterpart (2017) [1 сезон] BDRip 1080p [HEVC] 10 bit от OldGamer (RG RIPS CLUB)
Релиз-группа: RIPS CLUB
Сэмпл Торрент🧲 Магнет

Рейтинги КП и IMDB, кнопки "Позвать в чате" и "Спасибо", а также мультитрекерная статистика доступны только зарегистрированным/авторизованным пользователям!

Файлы: 10
  • Двойник.Counterpart.S01.2017.BDRip-HEVC.1080p
    • Counterpart.S01E01.The.Crossing.mkv   2.48 ГБ
    • Counterpart.S01E02.Birds.of.a.Feather.mkv   3.1 ГБ
    • Counterpart.S01E03.The.Lost.Art.of.Diplomacy.mkv   2.85 ГБ
    • Counterpart.S01E04.Both.Sides.Now.mkv   2.46 ГБ
    • Counterpart.S01E05.Shaking.the.Tree.mkv   2.74 ГБ
    • Counterpart.S01E06.Act.Like.Youve.Been.Here.Before.mkv   2.36 ГБ
    • Counterpart.S01E07.The.Sincerest.Form.of.Flattery.mkv   2.55 ГБ
    • Counterpart.S01E08.Love.the.Lie.mkv   2.25 ГБ
    • Counterpart.S01E09.No.Mans.Land.Part.One.mkv   2.82 ГБ
    • Counterpart.S01E10.No.Mans.Land.Part.Two.mkv   2.47 ГБ
Поблагодарили: 5
donadar, Elico1977, Kilop77, makss333, Rendre
OldGamer
05773 (10)  26.08 ГБ

Добавление нового комментария

Добавление комментариев доступно только зарегистрированным/авторизованным пользователям.