💬 Мини-чат

GiggaloСообщение удалено (удалил: Giggalo)
StarLordOldGamer, как дела?)
StarLordOldGamer, ура, вернулся 😄
OldGamerRezident, можете скачать этот фильм от другого релизёра, там невелика разница, а раздающие точно есть
OldGamerGiggalo, https://tsya.ru/mnemonic.html
NoMaDСообщение удалено (удалил: NoMaD)
NoMaDСообщение удалено (удалил: NoMaD)
GiggaloСообщение удалено (удалил: Giggalo)
GiggaloСообщение удалено (удалил: Giggalo)
Spartanec1308Был днём
StarLordGiggalo, наверное отрубало беднягу, целый день его нету 😅
GiggaloСообщение удалено (удалил: Giggalo)
OldGamerДоброе. Работы много, некогда на перинах валяться.
GiggaloСообщение удалено (удалил: Giggalo)
GiggaloСообщение удалено (удалил: Giggalo)
  • Spartanec1308
  • Giggalo
  • alenu
  • Blaster
Отправка сообщений доступна только зарегистрированным/авторизованным пользователям.
Онлайн (за 10 мин.): 4

ВАЛЛ·И / WALL·E (2008) UHD-BDRip 1080p [HEVC] 10 bit [HDR] от Mr. Fox

HEVC
HDR
10 bit
Обложка ВАЛЛ·И / WALL·E (2008) UHD-BDRip 1080p [HEVC] 10 bit [HDR] от Mr. Fox Год: 2008
Страна: США
Студия: Pixar Animation Studios, Walt Disney Pictures
Жанр: Мультфильм, Фантастика, Приключения, Семейный
Продолжительность: 01:38:42

Режиссер: Эндрю Стэнтон
В ролях: Бен Бертт, Элисса Найт, Джефф Гарлин, Фред Уиллард, Джон Ратценбергер, Кэти Нэджими, Сигурни Уивер, Ники МакЭлрой, Гаррет Палмер, Кай Стил Смит

Описание: Робот ВАЛЛ·И из года в год прилежно трудится на опустевшей Земле, очищая нашу планету от гор мусора, которые оставили после себя улетевшие в космос люди. Он и не представляет, что совсем скоро произойдут невероятные события, благодаря которым он встретит друзей, поднимется к звездам и даже сумеет изменить к лучшему своих бывших хозяев, совсем позабывших родную Землю.


Видео: 1920x802, ~3713 Кбит/сек
Аудио1: AC3, 6 ch, 640 Kbps - РусскийРусский, Дублированный
Аудио2: AC3, 6 ch, 384 Kbps - УкраинскийУкраинский, Дублированный
Аудио3: AC3, 6 ch, 640 Kbps - АнглийскийАнглийский, Оригинал
Субтитры: Русские (форсированные, полные), украинские (форсированные, полные), английские (полные, SDH)

Как за пару секунд удалить ненужные аудиодорожки и субтитры (Внимание! После удаления вы не сможете поддержать раздачу)

Лог (x265 info)
x265 [info]: frame I: Avg QP:10.35 kb/s
x265 [info]: frame P: Avg QP:12.12 kb/s
x265 [info]: frame B: Avg QP:14.56 kb/s
Медиаинфо
General
Unique ID : 83725168192955607284250004853005331012 (0x3EFCE17F871249D5A4A418F102D1AA44)
Complete name : E:\Torrent\WALL-E (2008).mkv
Format : Matroska
Format version : Version 4
File size : 3.70 GiB
Duration : 1 h 38 min
Overall bit rate : 5 361 kb/s
Movie name : WALL-E (2008)
Encoded date : UTC 2021-03-29 08:59:51
Writing application : mkvmerge v54.0.0 ('F Maj Pixie') 64-bit
Writing library : libebml v1.4.2 + libmatroska v1.6.3
Cover : Yes
Attachments : cover.jpg

Video
ID : 1
Format : HEVC
Format/Info : High Efficiency Video Coding
Format profile : Main 10@L4.1@High
HDR format : SMPTE ST 2086, HDR10 compatible
Codec ID : V_MPEGH/ISO/HEVC
Duration : 1 h 38 min
Bit rate : 3 713 kb/s
Width : 1 920 pixels
Height : 802 pixels
Display aspect ratio : 2.40:1
Frame rate mode : Constant
Frame rate : 23.976 (23976/1000) FPS
Original frame rate : 23.976 (24000/1001) FPS
Color space : YUV
Chroma subsampling : 4:2:0 (Type 2)
Bit depth : 10 bits
Bits/(Pixel*Frame) : 0.101
Stream size : 2.55 GiB (69%)
Writing library : x265 3.4+10-g25b2c0703:[Windows][MSVC 1927][64 bit] 10bit
Encoding settings : cpuid=1111039 / frame-threads=4 / numa-pools=16 / wpp / no-pmode / no-pme / no-psnr / no-ssim / log-level=2 / input-csp=1 / input-res=1920x802 / interlace=0 / total-frames=141281 / level-idc=41 / high-tier=1 / uhd-bd=0 / ref=5 / no-allow-non-conformance / repeat-headers / annexb / no-aud / no-hrd / info / hash=0 / no-temporal-layers / open-gop / min-keyint=23 / keyint=240 / gop-lookahead=0 / bframes=16 / b-adapt=2 / b-pyramid / bframe-bias=0 / rc-lookahead=60 / lookahead-slices=4 / scenecut=40 / hist-scenecut=0 / radl=0 / no-splice / no-intra-refresh / ctu=32 / min-cu-size=8 / rect / no-amp / max-tu-size=32 / tu-inter-depth=4 / tu-intra-depth=4 / limit-tu=1 / rdoq-level=2 / dynamic-rd=0.00 / no-ssim-rd / signhide / no-tskip / nr-intra=0 / nr-inter=0 / no-constrained-intra / no-strong-intra-smoothing / max-merge=4 / limit-refs=2 / limit-modes / me=3 / subme=7 / merange=57 / temporal-mvp / no-frame-dup / no-hme / weightp / weightb / no-analyze-src-pics / deblock=-3:-3 / no-sao / no-sao-non-deblock / rd=6 / selective-sao=0 / no-early-skip / no-rskip / no-fast-intra / no-tskip-fast / no-cu-lossless / no-b-intra / no-splitrd-skip / rdpenalty=0 / psy-rd=2.00 / psy-rdoq=1.00 / no-rd-refine / no-lossless / cbqpoffs=0 / crqpoffs=0 / rc=crf / crf=16.0 / qcomp=0.60 / qpstep=4 / stats-write=0 / stats-read=0 / vbv-maxrate=50000 / vbv-bufsize=50000 / vbv-init=0.9 / crf-max=0.0 / crf-min=0.0 / ipratio=1.40 / pbratio=1.30 / aq-mode=1 / aq-strength=1.00 / no-cutree / zone-count=0 / no-strict-cbr / qg-size=32 / no-rc-grain / qpmax=69 / qpmin=0 / no-const-vbv / sar=1 / overscan=0 / videoformat=5 / range=0 / colorprim=9 / transfer=16 / colormatrix=9 / chromaloc=1 / chromaloc-top=2 / chromaloc-bottom=2 / display-window=0 / master-display=G(13250,34500)B(7500,3000)R(34000,16000)WP(15635,16450)L(10000000,0) / cll=0,0 / min-luma=0 / max-luma=1023 / log2-max-poc-lsb=8 / vui-timing-info / vui-hrd-info / slices=1 / no-opt-qp-pps / no-opt-ref-list-length-pps / no-multi-pass-opt-rps / scenecut-bias=0.05 / hist-threshold=0.01 / no-opt-cu-delta-qp / no-aq-motion / hdr10 / hdr10-opt / no-dhdr10-opt / no-idr-recovery-sei / analysis-reuse-level=0 / analysis-save-reuse-level=0 / analysis-load-reuse-level=0 / scale-factor=0 / refine-intra=0 / refine-inter=0 / refine-mv=1 / refine-ctu-distortion=0 / no-limit-sao / ctu-info=0 / no-lowpass-dct / refine-analysis-type=0 / copy-pic=1 / max-ausize-factor=1.0 / no-dynamic-refine / no-single-sei / no-hevc-aq / no-svt / no-field / qp-adaptation-range=1.00 / no-scenecut-aware-qpconformance-window-offsets / right=0 / bottom=0 / decoder-max-rate=0
Default : Yes
Forced : No
Color range : Limited
Color primaries : BT.2020
Transfer characteristics : PQ
Matrix coefficients : BT.2020 non-constant
Mastering display color primar : Display P3
Mastering display luminance : min: 0.0000 cd/m2, max: 1000 cd/m2

Audio #1
ID : 2
Format : AC-3
Format/Info : Audio Coding 3
Commercial name : Dolby Digital
Codec ID : A_AC3
Duration : 1 h 38 min
Bit rate mode : Constant
Bit rate : 640 kb/s
Channel(s) : 6 channels
Channel layout : L R C LFE Ls Rs
Sampling rate : 48.0 kHz
Frame rate : 31.250 FPS (1536 SPF)
Compression mode : Lossy
Delay relative to video : 700 ms
Stream size : 452 MiB (12%)
Title : Dub
Language : Russian
Service kind : Complete Main
Default : No
Forced : No

Audio #2
ID : 3
Format : AC-3
Format/Info : Audio Coding 3
Commercial name : Dolby Digital
Codec ID : A_AC3
Duration : 1 h 38 min
Bit rate mode : Constant
Bit rate : 384 kb/s
Channel(s) : 6 channels
Channel layout : L R C LFE Ls Rs
Sampling rate : 48.0 kHz
Frame rate : 31.250 FPS (1536 SPF)
Compression mode : Lossy
Delay relative to video : 700 ms
Stream size : 271 MiB (7%)
Title : dub
Language : Ukrainian
Service kind : Complete Main
Default : No
Forced : No

Audio #3
ID : 4
Format : AC-3
Format/Info : Audio Coding 3
Commercial name : Dolby Digital
Codec ID : A_AC3
Duration : 1 h 38 min
Bit rate mode : Constant
Bit rate : 640 kb/s
Channel(s) : 6 channels
Channel layout : L R C LFE Ls Rs
Sampling rate : 48.0 kHz
Frame rate : 31.250 FPS (1536 SPF)
Compression mode : Lossy
Delay relative to video : 700 ms
Stream size : 452 MiB (12%)
Title : Original
Language : English
Service kind : Complete Main
Default : No
Forced : No

Text #1
ID : 5
Format : UTF-8
Codec ID : S_TEXT/UTF8
Codec ID/Info : UTF-8 Plain Text
Duration : 1 h 23 min
Bit rate : 1 b/s
Count of elements : 18
Stream size : 889 Bytes (0%)
Title : Forced
Language : Russian
Default : Yes
Forced : No

Text #2
ID : 6
Format : UTF-8
Codec ID : S_TEXT/UTF8
Codec ID/Info : UTF-8 Plain Text
Duration : 1 h 26 min
Bit rate : 35 b/s
Count of elements : 507
Stream size : 22.6 KiB (0%)
Title : Full
Language : Russian
Default : No
Forced : No

Text #3
ID : 7
Format : UTF-8
Codec ID : S_TEXT/UTF8
Codec ID/Info : UTF-8 Plain Text
Duration : 1 h 24 min
Bit rate : 2 b/s
Count of elements : 31
Stream size : 1.41 KiB (0%)
Title : Forced
Language : Ukrainian
Default : No
Forced : No

Text #4
ID : 8
Format : UTF-8
Codec ID : S_TEXT/UTF8
Codec ID/Info : UTF-8 Plain Text
Duration : 1 h 27 min
Bit rate : 35 b/s
Count of elements : 519
Stream size : 22.7 KiB (0%)
Title : Full
Language : Ukrainian
Default : No
Forced : No

Text #5
ID : 9
Format : UTF-8
Codec ID : S_TEXT/UTF8
Codec ID/Info : UTF-8 Plain Text
Duration : 1 h 25 min
Bit rate : 21 b/s
Count of elements : 484
Stream size : 13.3 KiB (0%)
Title : Full
Language : English
Default : No
Forced : No

Text #6
ID : 10
Format : UTF-8
Codec ID : S_TEXT/UTF8
Codec ID/Info : UTF-8 Plain Text
Duration : 1 h 35 min
Bit rate : 44 b/s
Count of elements : 1362
Stream size : 31.0 KiB (0%)
Title : Full SDH
Language : English
Default : No
Forced : No

Menu
00:00:00.000 : :Chapter 01
00:03:36.299 : :Chapter 02
00:05:49.682 : :Chapter 03
00:09:18.766 : :Chapter 04
00:12:03.430 : :Chapter 05
00:17:56.450 : :Chapter 06
00:19:33.380 : :Chapter 07
00:21:10.143 : :Chapter 08
00:23:46.800 : :Chapter 09
00:29:18.006 : :Chapter 10
00:31:25.091 : :Chapter 11
00:33:27.755 : :Chapter 12
00:35:20.117 : :Chapter 13
00:38:49.535 : :Chapter 14
00:42:53.529 : :Chapter 15
00:43:31.650 : :Chapter 16
00:51:08.940 : :Chapter 17
00:52:07.582 : :Chapter 18
00:54:47.450 : :Chapter 19
00:56:05.778 : :Chapter 20
00:57:58.016 : :Chapter 21
00:58:41.184 : :Chapter 22
01:02:14.897 : :Chapter 23
01:03:21.047 : :Chapter 24
01:05:49.695 : :Chapter 25
01:11:44.883 : :Chapter 26
01:15:54.215 : :Chapter 27
01:19:22.799 : :Chapter 28
01:20:14.684 : :Chapter 29
01:24:14.090 : :Chapter 30
01:25:45.765 : :Chapter 31
01:30:17.494 : :Chapter 32
01:38:41.748 : :Chapter 33
Загрузка...Cкриншот1 ВАЛЛ·И / WALL·E (2008) UHD-BDRip 1080p [HEVC] 10 bit [HDR] от Mr. FoxЗагрузка...Cкриншот2 ВАЛЛ·И / WALL·E (2008) UHD-BDRip 1080p [HEVC] 10 bit [HDR] от Mr. FoxЗагрузка...Cкриншот3 ВАЛЛ·И / WALL·E (2008) UHD-BDRip 1080p [HEVC] 10 bit [HDR] от Mr. FoxЗагрузка...Cкриншот4 ВАЛЛ·И / WALL·E (2008) UHD-BDRip 1080p [HEVC] 10 bit [HDR] от Mr. Fox
Сэмпл Торрент🧲 Магнет

Рейтинги КП и IMDB, кнопки "Позвать в чате" и "Спасибо", а также мультитрекерная статистика доступны только зарегистрированным/авторизованным пользователям!

Файлы: 1
  • WALL-E (2008).mkv   3.7 ГБ
Поблагодарили: 12
alexyak, anderb, bright, Brooklyn, donadar, FFantasy, ko1ob, makss333, MIGRANT, NoMaD, Nuclear70, StarLord
Admin
101171333.7 ГБ

Добавление нового комментария

Добавление комментариев доступно только зарегистрированным/авторизованным пользователям.
Аватар StarLord
  StarLord  
OldGamer писал(а):
Для начала смотри, чтобы видеоряд не загнать в состояние пластилинового мыла; ориентируйся не столько на лог квантов (который даже может вызвать удивление и внушить, что ты переливаешь битрейт), сколько на визуальный результат.
Понял, учту при кодировании.
Аватар OldGamer
  OldGamer  
StarLord писал(а):
А какие именно мерки для мультфильмов? Как раз хочу сделать несколько.
Для начала смотри, чтобы видеоряд не загнать в состояние пластилинового мыла; ориентируйся не столько на лог квантов (который даже может вызвать удивление и внушить, что ты переливаешь битрейт), сколько на визуальный результат.
Аватар OldGamer
  OldGamer  
StarLord писал(а):
"групповые брачные игры карликовых муравьёв в тени пальмы на песочном пляже, вид сверху, с пальмы, с трёх метров"
Это ж надо было такое придумать 😂
зато наглядный пример очень детализированного видеоряда, который можно погубить обычным подходом
Аватар StarLord
  StarLord  
OldGamer писал(а):
в мультиках и аниме немного другие мерки
А какие именно мерки для мультфильмов? Как раз хочу сделать несколько.
Аватар StarLord
  StarLord  
OldGamer писал(а):
Ну я не вижу, чему тут удивляться. Не надо сравнивать мягкое и тёплое. Бывает и в фильмах необходимо к такому приходить. Как говорится "Для видеоряда а-ля "групповые брачные игры карликовых муравьёв в тени пальмы на песочном пляже, вид сверху, с пальмы, с трёх метров" потеря деталей на уровне CRF 18 может оказаться губительной и это сразу будет видно глазами, части тел муравьёв утонут в песке и недостаточных квантах, что безусловно потревожит режиссёрскую задумку."
"групповые брачные игры карликовых муравьёв в тени пальмы на песочном пляже, вид сверху, с пальмы, с трёх метров"
Это ж надо было такое придумать 😂
Аватар OldGamer
  OldGamer  
StarLord писал(а):
настолько другие?)
Ну я не вижу, чему тут удивляться. Не надо сравнивать мягкое и тёплое. Бывает и в фильмах необходимо к такому приходить. Как говорится "Для видеоряда а-ля "групповые брачные игры карликовых муравьёв в тени пальмы на песочном пляже, вид сверху, с пальмы, с трёх метров" потеря деталей на уровне CRF 18 может оказаться губительной и это сразу будет видно глазами, части тел муравьёв утонут в песке и недостаточных квантах, что безусловно потревожит режиссёрскую задумку."
Аватар mafo2
  mafo2  
StarLord писал(а):
настолько другие?)
получается настолько )
Аватар StarLord
  StarLord  
OldGamer писал(а):
в мультиках и аниме немного другие мерки
настолько другие?)
Аватар OldGamer
  OldGamer  
в мультиках и аниме немного другие мерки
Аватар StarLord
  StarLord  
crf=16.0, x265 [info]: frame B: Avg QP:14.56 kb/s, 3.7 ГБ

Ого 😳