💬 Мини-чат

GiggaloА что есть? Помимо того, что у Вас в анонсе
OldGamerнет
Giggaloнет ли у кого в планах "Давайте потанцуем" 2004
GiggaloСообщение удалено (удалил: Giggalo)
StarLordOldGamer, как дела?)
StarLordOldGamer, ура, вернулся 😄
OldGamerRezident, можете скачать этот фильм от другого релизёра, там невелика разница, а раздающие точно есть
OldGamerGiggalo, https://tsya.ru/mnemonic.html
NoMaDСообщение удалено (удалил: NoMaD)
NoMaDСообщение удалено (удалил: NoMaD)
GiggaloСообщение удалено (удалил: Giggalo)
GiggaloСообщение удалено (удалил: Giggalo)
Spartanec1308Был днём
StarLordGiggalo, наверное отрубало беднягу, целый день его нету 😅
GiggaloСообщение удалено (удалил: Giggalo)
OldGamerДоброе. Работы много, некогда на перинах валяться.
GiggaloСообщение удалено (удалил: Giggalo)
GiggaloСообщение удалено (удалил: Giggalo)
  • OldGamer
  • Giggalo
  • adybas
  • DKV
  • Don digidon
Отправка сообщений доступна только зарегистрированным/авторизованным пользователям.
Онлайн (за 10 мин.): 5

Матрица: Трилогия / The Matrix: Trilogy (1999-2003) UHD-BDRip 1080p [HEVC] 10 bit [HDR] от Mr. Fox

HEVC
HDR
10 bit
Обложка Матрица: Трилогия / The Matrix: Trilogy (1999-2003) UHD-BDRip 1080p [HEVC] 10 bit [HDR] от Mr. Fox Год: 1999-2003
Страна: США
Жанр: Фантастика, Боевик

1. Матрица / The Matrix (1999) UHD-BDRip 1080p [HEVC] 10 bit [HDR] от Mr. Fox
HEVC
10 bit
Обложка Матрица / The Matrix (1999) UHD-BDRip 1080p [HEVC] 10 bit [HDR] от Mr. Fox Год: 1999
Страна: США
Студия: Groucho II Film Partnership, Silver Pictures, Village Roadshow Pictures, Warner Bros. Pictures Co.
Жанр: Фантастика, Боевик
Продолжительность: 02:16:18

Режиссер: Лана Вачовски, Лилли Вачовски
В ролях: Киану Ривз, Лоренс Фишбёрн, Кэрри-Энн Мосс, Хьюго Уивинг, Глория Фостер, Джо Пантольяно, Маркус Чонг, Джулиан Араханга, Мэтт Доран, Белинда МакКлори

Описание: Жизнь Томаса Андерсона разделена на две части: днём он — самый обычный офисный работник, получающий нагоняи от начальства, а ночью превращается в хакера по имени Нео, и нет места в сети, куда он бы не смог проникнуть. Но однажды всё меняется. Томас узнаёт ужасающую правду о реальности.


Видео: 1920x800, ~8714 Кбит/сек
Аудио1: AC3, 6 ch, 640 Kbps - РусскийРусский, Дублированный
Аудио2: AC3, 2 ch, 192 Kbps - УкраинскийУкраинский, Дублированный
Аудио3: AC3, 6 ch, 640 Kbps - АнглийскийАнглийский, Оригинал
Субтитры: Русские, украинские, английские

Как за пару секунд удалить ненужные аудиодорожки и субтитры (Внимание! После удаления вы не сможете поддержать раздачу)

Лог (x265 info)
x265 [info]: frame I: Avg QP:16.85 kb/s
x265 [info]: frame P: Avg QP:17.91 kb/s
x265 [info]: frame B: Avg QP:19.92 kb/s
Медиаинфо
General
Unique ID : 285512571359553830634021678328868226669 (0xD6CBB897EA31C35E368439CE7CEBC66D)
Complete name : E:\Torrent\The Matrix\The Matrix (1999).mkv
Format : Matroska
Format version : Version 4
File size : 9.70 GiB
Duration : 2 h 16 min
Overall bit rate : 10.2 Mb/s
Movie name : The Matrix (1999)
Encoded date : UTC 2021-04-02 05:20:40
Writing application : mkvmerge v54.0.0 ('F Maj Pixie') 64-bit
Writing library : libebml v1.4.2 + libmatroska v1.6.3
Cover : Yes
Attachments : cover

Video
ID : 1
Format : HEVC
Format/Info : High Efficiency Video Coding
Format profile : Main 10@L4.1@High
HDR format : SMPTE ST 2086, HDR10 compatible
Codec ID : V_MPEGH/ISO/HEVC
Duration : 2 h 16 min
Bit rate : 8 714 kb/s
Width : 1 920 pixels
Height : 800 pixels
Display aspect ratio : 2.40:1
Frame rate mode : Constant
Frame rate : 23.976 (23976/1000) FPS
Original frame rate : 23.976 (24000/1001) FPS
Color space : YUV
Chroma subsampling : 4:2:0 (Type 2)
Bit depth : 10 bits
Bits/(Pixel*Frame) : 0.237
Stream size : 8.30 GiB (86%)
Writing library : x265 3.4+10-g25b2c0703:[Windows][MSVC 1927][64 bit] 10bit
Encoding settings : cpuid=1111039 / frame-threads=4 / numa-pools=16 / wpp / no-pmode / no-pme / no-psnr / no-ssim / log-level=2 / input-csp=1 / input-res=1920x800 / interlace=0 / total-frames=196092 / level-idc=41 / high-tier=1 / uhd-bd=0 / ref=5 / no-allow-non-conformance / repeat-headers / annexb / no-aud / no-hrd / info / hash=0 / no-temporal-layers / open-gop / min-keyint=23 / keyint=240 / gop-lookahead=0 / bframes=16 / b-adapt=2 / b-pyramid / bframe-bias=0 / rc-lookahead=60 / lookahead-slices=4 / scenecut=40 / hist-scenecut=0 / radl=0 / no-splice / no-intra-refresh / ctu=32 / min-cu-size=8 / rect / no-amp / max-tu-size=32 / tu-inter-depth=4 / tu-intra-depth=4 / limit-tu=1 / rdoq-level=2 / dynamic-rd=0.00 / no-ssim-rd / signhide / no-tskip / nr-intra=0 / nr-inter=0 / no-constrained-intra / no-strong-intra-smoothing / max-merge=4 / limit-refs=2 / limit-modes / me=3 / subme=7 / merange=57 / temporal-mvp / no-frame-dup / no-hme / weightp / weightb / no-analyze-src-pics / deblock=-3:-3 / no-sao / no-sao-non-deblock / rd=6 / selective-sao=0 / no-early-skip / no-rskip / no-fast-intra / no-tskip-fast / no-cu-lossless / no-b-intra / no-splitrd-skip / rdpenalty=0 / psy-rd=2.00 / psy-rdoq=1.00 / no-rd-refine / no-lossless / cbqpoffs=0 / crqpoffs=0 / rc=crf / crf=19.0 / qcomp=0.70 / qpstep=4 / stats-write=0 / stats-read=0 / vbv-maxrate=50000 / vbv-bufsize=50000 / vbv-init=0.9 / crf-max=0.0 / crf-min=0.0 / ipratio=1.40 / pbratio=1.30 / aq-mode=1 / aq-strength=1.00 / no-cutree / zone-count=0 / no-strict-cbr / qg-size=32 / no-rc-grain / qpmax=69 / qpmin=0 / no-const-vbv / sar=1 / overscan=0 / videoformat=5 / range=0 / colorprim=9 / transfer=16 / colormatrix=9 / chromaloc=1 / chromaloc-top=2 / chromaloc-bottom=2 / display-window=0 / master-display=G(8500,39850)B(6550,2300)R(35400,14600)WP(15635,16450)L(10000000,20) / cll=992,518 / min-luma=0 / max-luma=1023 / log2-max-poc-lsb=8 / vui-timing-info / vui-hrd-info / slices=1 / no-opt-qp-pps / no-opt-ref-list-length-pps / no-multi-pass-opt-rps / scenecut-bias=0.05 / hist-threshold=0.01 / no-opt-cu-delta-qp / no-aq-motion / hdr10 / hdr10-opt / no-dhdr10-opt / no-idr-recovery-sei / analysis-reuse-level=0 / analysis-save-reuse-level=0 / analysis-load-reuse-level=0 / scale-factor=0 / refine-intra=0 / refine-inter=0 / refine-mv=1 / refine-ctu-distortion=0 / no-limit-sao / ctu-info=0 / no-lowpass-dct / refine-analysis-type=0 / copy-pic=1 / max-ausize-factor=1.0 / no-dynamic-refine / no-single-sei / no-hevc-aq / no-svt / no-field / qp-adaptation-range=1.00 / no-scenecut-aware-qpconformance-window-offsets / right=0 / bottom=0 / decoder-max-rate=0
Default : Yes
Forced : No
Color range : Limited
Color primaries : BT.2020
Transfer characteristics : PQ
Matrix coefficients : BT.2020 non-constant
Mastering display color primar : BT.2020
Mastering display luminance : min: 0.0020 cd/m2, max: 1000 cd/m2
Maximum Content Light Level : 992 cd/m2
Maximum Frame-Average Light Le : 518 cd/m2

Audio #1
ID : 2
Format : AC-3
Format/Info : Audio Coding 3
Commercial name : Dolby Digital
Codec ID : A_AC3
Duration : 2 h 16 min
Bit rate mode : Constant
Bit rate : 640 kb/s
Channel(s) : 6 channels
Channel layout : L R C LFE Ls Rs
Sampling rate : 48.0 kHz
Frame rate : 31.250 FPS (1536 SPF)
Compression mode : Lossy
Delay relative to video : 200 ms
Stream size : 624 MiB (6%)
Title : Дубляж
Language : Russian
Service kind : Complete Main
Default : Yes
Forced : No

Audio #2
ID : 3
Format : AC-3
Format/Info : Audio Coding 3
Commercial name : Dolby Digital
Codec ID : A_AC3
Duration : 2 h 16 min
Bit rate mode : Constant
Bit rate : 192 kb/s
Channel(s) : 2 channels
Channel layout : L R
Sampling rate : 48.0 kHz
Frame rate : 31.250 FPS (1536 SPF)
Compression mode : Lossy
Stream size : 187 MiB (2%)
Title : Дубляж
Language : Ukrainian
Service kind : Complete Main
Default : No
Forced : Yes

Audio #3
ID : 4
Format : AC-3
Format/Info : Audio Coding 3
Commercial name : Dolby Digital
Codec ID : A_AC3
Duration : 2 h 16 min
Bit rate mode : Constant
Bit rate : 640 kb/s
Channel(s) : 6 channels
Channel layout : L R C LFE Ls Rs
Sampling rate : 48.0 kHz
Frame rate : 31.250 FPS (1536 SPF)
Compression mode : Lossy
Stream size : 624 MiB (6%)
Title : Origina
Language : English
Service kind : Complete Main
Default : No
Forced : No

Text #1
ID : 5
Format : UTF-8
Codec ID : S_TEXT/UTF8
Codec ID/Info : UTF-8 Plain Text
Duration : 2 h 15 min
Bit rate : 63 b/s
Count of elements : 1370
Stream size : 63.0 KiB (0%)
Title : Full
Language : Russian
Default : No
Forced : No

Text #2
ID : 6
Format : UTF-8
Codec ID : S_TEXT/UTF8
Codec ID/Info : UTF-8 Plain Text
Duration : 2 h 8 min
Bit rate : 66 b/s
Count of elements : 1313
Stream size : 62.1 KiB (0%)
Title : Full
Language : Ukrainian
Default : No
Forced : No

Text #3
ID : 7
Format : UTF-8
Codec ID : S_TEXT/UTF8
Codec ID/Info : UTF-8 Plain Text
Duration : 2 h 7 min
Bit rate : 41 b/s
Count of elements : 1343
Stream size : 38.8 KiB (0%)
Title : Full
Language : English
Default : No
Forced : No

Menu
00:00:00.000 : :Chapter 1
00:03:25.788 : :Chapter 2
00:06:35.645 : :Chapter 3
00:09:42.665 : :Chapter 4
00:11:58.300 : :Chapter 5
00:16:47.423 : :Chapter 6
00:21:33.542 : :Chapter 7
00:25:08.590 : :Chapter 8
00:28:51.146 : :Chapter 9
00:32:25.193 : :Chapter 10
00:35:21.869 : :Chapter 11
00:38:40.901 : :Chapter 12
00:44:22.576 : :Chapter 13
00:46:33.540 : :Chapter 14
00:48:57.851 : :Chapter 15
00:53:31.291 : :Chapter 16
00:56:32.138 : :Chapter 17
00:59:01.287 : :Chapter 18
01:01:08.581 : :Chapter 19
01:05:16.495 : :Chapter 20
01:07:46.812 : :Chapter 21
01:12:33.432 : :Chapter 22
01:17:49.581 : :Chapter 23
01:21:03.108 : :Chapter 24
01:25:05.350 : :Chapter 25
01:29:45.129 : :Chapter 26
01:31:27.565 : :Chapter 27
01:37:25.256 : :Chapter 28
01:41:04.975 : :Chapter 29
01:44:20.337 : :Chapter 30
01:47:00.497 : :Chapter 31
01:50:18.528 : :Chapter 32
01:52:56.686 : :Chapter 33
01:56:36.906 : :Chapter 34
01:58:49.372 : :Chapter 35
02:02:27.423 : :Chapter 36
02:05:41.784 : :Chapter 37
02:08:46.802 : :Chapter 38
Загрузка...Cкриншот1 Матрица / The Matrix (1999) UHD-BDRip 1080p [HEVC] 10 bit [HDR] от Mr. FoxЗагрузка...Cкриншот2 Матрица / The Matrix (1999) UHD-BDRip 1080p [HEVC] 10 bit [HDR] от Mr. FoxЗагрузка...Cкриншот3 Матрица / The Matrix (1999) UHD-BDRip 1080p [HEVC] 10 bit [HDR] от Mr. FoxЗагрузка...Cкриншот4 Матрица / The Matrix (1999) UHD-BDRip 1080p [HEVC] 10 bit [HDR] от Mr. Fox
Сэмпл
2. Матрица: Перезагрузка / The Matrix Reloaded (2003) UHD-BDRip 1080p [HEVC] 10 bit [HDR] от Mr. Fox
HEVC
10 bit
Обложка Матрица: Перезагрузка / The Matrix Reloaded (2003) UHD-BDRip 1080p [HEVC] 10 bit [HDR] от Mr. Fox Год: 2003
Страна: США
Студия: Heineken Branded Entertainment, NPV Entertainment, Silver Pictures, Village Roadshow Pictures, Warner Bros. Pictures Co.
Жанр: Фантастика, Боевик
Продолжительность: 02:18:17

Режиссер: Лана Вачовски, Лилли Вачовски
В ролях: Киану Ривз, Лоренс Фишбёрн, Хьюго Уивинг, Кэрри-Энн Мосс, Джада Пинкетт Смит, Глория Фостер, Хэролд Перрино, Моника Беллуччи, Ламбер Вильсон, Рэндолл Дак Ким

Описание: Борцы за свободу Нео, Тринити и Морфеус продолжают руководить восстанием людей против Армии Машин. Для уничтожения системы репрессий и эксплуатации они вынуждены прибегнуть не только к арсеналу превосходного оружия, но и к своим выдающимся навыкам. Участие в миссии по спасению человеческой расы от ее полного истребления приносит им более глубокое понимание конструкции Матрицы и осознание центральной роли Нео в судьбе человечества.


Видео: 1920x800, ~8383 Кбит/сек
Аудио1: AC3, 6 ch, 640 Kbps - РусскийРусский, Дублированный
Аудио2: AC3, 2 ch, 192 Kbps - УкраинскийУкраинский, Дублированный
Аудио3: AC3, 6 ch, 448 Kbps - АнглийскийАнглийский, Оригинал
Субтитры: Русские, украинские, английские

Как за пару секунд удалить ненужные аудиодорожки и субтитры (Внимание! После удаления вы не сможете поддержать раздачу)

Лог (x265 info)
x265 [info]: frame I: Avg QP:17.23 kb/s
x265 [info]: frame P: Avg QP:18.47 kb/s
x265 [info]: frame B: Avg QP:20.54 kb/s
Медиаинфо
General
Unique ID : 158818738048822526313495433391483216296 (0x777B6057697BDC51E3B78DD1793D61A8)
Complete name : E:\Torrent\The Matrix\The Matrix Reloaded (2003).mkv
Format : Matroska
Format version : Version 4
File size : 9.34 GiB
Duration : 2 h 18 min
Overall bit rate : 9 666 kb/s
Movie name : The Matrix Reloaded (2003)
Encoded date : UTC 2021-03-27 20:39:42
Writing application : mkvmerge v54.0.0 ('F Maj Pixie') 64-bit
Writing library : libebml v1.4.2 + libmatroska v1.6.3
Cover : Yes
Attachments : cover

Video
ID : 1
Format : HEVC
Format/Info : High Efficiency Video Coding
Format profile : Main 10@L4.1@High
HDR format : SMPTE ST 2086, HDR10 compatible
Codec ID : V_MPEGH/ISO/HEVC
Duration : 2 h 18 min
Bit rate : 8 383 kb/s
Width : 1 920 pixels
Height : 800 pixels
Display aspect ratio : 2.40:1
Frame rate mode : Constant
Frame rate : 23.976 (23976/1000) FPS
Original frame rate : 23.976 (24000/1001) FPS
Color space : YUV
Chroma subsampling : 4:2:0 (Type 2)
Bit depth : 10 bits
Bits/(Pixel*Frame) : 0.228
Stream size : 8.10 GiB (87%)
Writing library : x265 3.4+10-g25b2c0703:[Windows][MSVC 1927][64 bit] 10bit
Encoding settings : cpuid=1111039 / frame-threads=4 / numa-pools=16 / wpp / no-pmode / no-pme / no-psnr / no-ssim / log-level=2 / input-csp=1 / input-res=1920x800 / interlace=0 / total-frames=198941 / level-idc=41 / high-tier=1 / uhd-bd=0 / ref=5 / no-allow-non-conformance / repeat-headers / annexb / no-aud / no-hrd / info / hash=0 / no-temporal-layers / open-gop / min-keyint=23 / keyint=240 / gop-lookahead=0 / bframes=16 / b-adapt=2 / b-pyramid / bframe-bias=0 / rc-lookahead=60 / lookahead-slices=4 / scenecut=40 / hist-scenecut=0 / radl=0 / no-splice / no-intra-refresh / ctu=32 / min-cu-size=8 / rect / no-amp / max-tu-size=32 / tu-inter-depth=4 / tu-intra-depth=4 / limit-tu=1 / rdoq-level=2 / dynamic-rd=0.00 / no-ssim-rd / signhide / no-tskip / nr-intra=0 / nr-inter=0 / no-constrained-intra / no-strong-intra-smoothing / max-merge=4 / limit-refs=2 / limit-modes / me=3 / subme=7 / merange=57 / temporal-mvp / no-frame-dup / no-hme / weightp / weightb / no-analyze-src-pics / deblock=-3:-3 / no-sao / no-sao-non-deblock / rd=6 / selective-sao=0 / no-early-skip / no-rskip / no-fast-intra / no-tskip-fast / no-cu-lossless / no-b-intra / no-splitrd-skip / rdpenalty=0 / psy-rd=2.00 / psy-rdoq=1.00 / no-rd-refine / no-lossless / cbqpoffs=0 / crqpoffs=0 / rc=crf / crf=19.0 / qcomp=0.70 / qpstep=4 / stats-write=0 / stats-read=0 / vbv-maxrate=50000 / vbv-bufsize=50000 / vbv-init=0.9 / crf-max=0.0 / crf-min=0.0 / ipratio=1.40 / pbratio=1.30 / aq-mode=1 / aq-strength=1.00 / no-cutree / zone-count=0 / no-strict-cbr / qg-size=32 / no-rc-grain / qpmax=69 / qpmin=0 / no-const-vbv / sar=1 / overscan=0 / videoformat=5 / range=0 / colorprim=9 / transfer=16 / colormatrix=9 / chromaloc=1 / chromaloc-top=2 / chromaloc-bottom=2 / display-window=0 / master-display=G(8500,39850)B(6550,2300)R(35400,14600)WP(15635,16450)L(10000000,20) / cll=996,246 / min-luma=0 / max-luma=1023 / log2-max-poc-lsb=8 / vui-timing-info / vui-hrd-info / slices=1 / no-opt-qp-pps / no-opt-ref-list-length-pps / no-multi-pass-opt-rps / scenecut-bias=0.05 / hist-threshold=0.01 / no-opt-cu-delta-qp / no-aq-motion / hdr10 / hdr10-opt / no-dhdr10-opt / no-idr-recovery-sei / analysis-reuse-level=0 / analysis-save-reuse-level=0 / analysis-load-reuse-level=0 / scale-factor=0 / refine-intra=0 / refine-inter=0 / refine-mv=1 / refine-ctu-distortion=0 / no-limit-sao / ctu-info=0 / no-lowpass-dct / refine-analysis-type=0 / copy-pic=1 / max-ausize-factor=1.0 / no-dynamic-refine / no-single-sei / no-hevc-aq / no-svt / no-field / qp-adaptation-range=1.00 / no-scenecut-aware-qpconformance-window-offsets / right=0 / bottom=0 / decoder-max-rate=0
Default : Yes
Forced : No
Color range : Limited
Color primaries : BT.2020
Transfer characteristics : PQ
Matrix coefficients : BT.2020 non-constant
Mastering display color primar : BT.2020
Mastering display luminance : min: 0.0020 cd/m2, max: 1000 cd/m2
Maximum Content Light Level : 996 cd/m2
Maximum Frame-Average Light Le : 246 cd/m2

Audio #1
ID : 2
Format : AC-3
Format/Info : Audio Coding 3
Commercial name : Dolby Digital
Codec ID : A_AC3
Duration : 2 h 18 min
Bit rate mode : Constant
Bit rate : 640 kb/s
Channel(s) : 6 channels
Channel layout : L R C LFE Ls Rs
Sampling rate : 48.0 kHz
Frame rate : 31.250 FPS (1536 SPF)
Compression mode : Lossy
Delay relative to video : 2 s 244 ms
Stream size : 633 MiB (7%)
Title : Дубляж
Language : Russian
Service kind : Complete Main
Default : No
Forced : No

Audio #2
ID : 3
Format : AC-3
Format/Info : Audio Coding 3
Commercial name : Dolby Digital
Codec ID : A_AC3
Duration : 2 h 18 min
Bit rate mode : Constant
Bit rate : 192 kb/s
Channel(s) : 2 channels
Channel layout : L R
Sampling rate : 48.0 kHz
Frame rate : 31.250 FPS (1536 SPF)
Compression mode : Lossy
Delay relative to video : 2 s 44 ms
Stream size : 190 MiB (2%)
Title : Дубляж
Language : Ukrainian
Service kind : Complete Main
Default : Yes
Forced : Yes

Audio #3
ID : 4
Format : AC-3
Format/Info : Audio Coding 3
Commercial name : Dolby Digital
Codec ID : A_AC3
Duration : 2 h 18 min
Bit rate mode : Constant
Bit rate : 448 kb/s
Channel(s) : 6 channels
Channel layout : L R C LFE Ls Rs
Sampling rate : 48.0 kHz
Frame rate : 31.250 FPS (1536 SPF)
Compression mode : Lossy
Stream size : 443 MiB (5%)
Title : Original
Language : English
Service kind : Complete Main
Default : No
Forced : No

Text #1
ID : 5
Format : UTF-8
Codec ID : S_TEXT/UTF8
Codec ID/Info : UTF-8 Plain Text
Duration : 2 h 17 min
Bit rate : 67 b/s
Count of elements : 1186
Stream size : 67.8 KiB (0%)
Title : Full
Language : Russian
Default : No
Forced : No

Text #2
ID : 6
Format : UTF-8
Codec ID : S_TEXT/UTF8
Codec ID/Info : UTF-8 Plain Text
Duration : 2 h 17 min
Bit rate : 66 b/s
Count of elements : 1187
Stream size : 66.8 KiB (0%)
Title : Full
Language : Ukrainian
Default : No
Forced : No

Text #3
ID : 7
Format : UTF-8
Codec ID : S_TEXT/UTF8
Codec ID/Info : UTF-8 Plain Text
Duration : 2 h 16 min
Bit rate : 44 b/s
Count of elements : 1193
Stream size : 44.9 KiB (0%)
Title : Full
Language : English
Default : No
Forced : No

Menu
00:00:00.000 : :Trinity's In
00:03:50.229 : :Trust Me
00:08:55.368 : :Upgrades
00:12:16.903 : :Zion
00:16:24.317 : :Matter of Time
00:19:43.182 : :Homecomings
00:23:29.407 : :We Are Still Here
00:27:26.811 : :Celebrating Humanity
00:32:01.252 : :Smith Will Suffice
00:33:43.188 : :What Is Control?
00:37:57.442 : :Summoned
00:40:55.619 : :Seraph
00:43:44.956 : :The Oracle
00:50:42.706 : :Swarm of Smiths
00:55:08.472 : :Sticking It to Them
01:00:03.099 : :The Volunteer
01:02:49.766 : :Taste of Merovingian
01:08:52.295 : :Persephone's Kiss
01:13:06.881 : :Unlocking the Keymaker
01:16:21.408 : :Blade Leapers
01:20:31.827 : :Twin Trouble
01:22:47.128 : :Freeway Entrance
01:26:12.501 : :Cross-Vehicular Traffic
01:29:52.886 : :Biker Girl
01:32:50.899 : :Trucks Amuck
01:37:10.823 : :The Reason We're Here
01:40:51.378 : :Sacrifice and Sabotage
01:44:57.791 : :So Many of Me
01:48:12.152 : :The Architect
01:52:25.572 : :The One's Function
01:55:42.935 : :Neo's Choice
01:57:37.550 : :Not Letting Go
02:01:51.470 : :Bomb's Target
02:04:18.451 : :Feeling the Enemy
02:07:04.115 : :End Credits
02:16:29.680 : :The Matrix Revolutions Trailer
Загрузка...Cкриншот1 Матрица: Перезагрузка / The Matrix Reloaded (2003) UHD-BDRip 1080p [HEVC] 10 bit [HDR] от Mr. FoxЗагрузка...Cкриншот2 Матрица: Перезагрузка / The Matrix Reloaded (2003) UHD-BDRip 1080p [HEVC] 10 bit [HDR] от Mr. FoxЗагрузка...Cкриншот3 Матрица: Перезагрузка / The Matrix Reloaded (2003) UHD-BDRip 1080p [HEVC] 10 bit [HDR] от Mr. FoxЗагрузка...Cкриншот4 Матрица: Перезагрузка / The Matrix Reloaded (2003) UHD-BDRip 1080p [HEVC] 10 bit [HDR] от Mr. Fox
Сэмпл
3. Матрица: Революция / The Matrix Revolutions (2003) UHD-BDRip 1080p [HEVC] 10 bit [HDR] от Mr. Fox
HEVC
10 bit
Обложка Матрица: Революция / The Matrix Revolutions (2003) UHD-BDRip 1080p [HEVC] 10 bit [HDR] от Mr. Fox Год: 2003
Страна: США
Студия: NPV Entertainment, Silver Pictures, Village Roadshow Pictures, Warner Bros. Pictures Co.
Жанр: Фантастика, Боевик
Продолжительность: 02:09:15

Режиссер: Лана Вачовски, Лилли Вачовски
В ролях: Киану Ривз, Хьюго Уивинг, Кэрри-Энн Мосс, Лоренс Фишбёрн, Хэролд Перрино, Джина Торрес, Джада Пинкетт Смит, Моника Беллуччи, Гарри Дж. Ленникс, Мэри Элис

Описание: Пока армия Машин пытается уничтожить Зион, его жители из последних сил держат оборону. Но удастся ли им предотвратить полное вторжение в город кишащей орды беспощадных машин до того, как Нео соберет все свои силы и положит конец войне?


Видео: 1920x800, ~9067 Кбит/сек
Аудио1: AC3, 6 ch, 640 Kbps - РусскийРусский, Дублированный
Аудио2: AC3, 2 ch, 192 Kbps - УкраинскийУкраинский, Дублированный
Аудио3: AC3, 6 ch, 640 Kbps - АнглийскийАнглийский, Оригинал
Субтитры: Русские, украинские, английские

Как за пару секунд удалить ненужные аудиодорожки и субтитры (Внимание! После удаления вы не сможете поддержать раздачу)

Лог (x265 info)
x265 [info]: frame I: Avg QP:17.61 kb/s
x265 [info]: frame P: Avg QP:19.01 kb/s
x265 [info]: frame B: Avg QP:20.96 kb/s
Медиаинфо
General
Unique ID : 252802360690039864497760704469861262529 (0xBE2FF6B189069E80E194F6218545E4C1)
Complete name : E:\Torrent\The Matrix\The Matrix Revolution (2003).mkv
Format : Matroska
Format version : Version 4
File size : 9.52 GiB
Duration : 2 h 9 min
Overall bit rate : 10.5 Mb/s
Movie name : The Matrix: Revolutions (2003)
Encoded date : UTC 2021-03-28 19:08:11
Writing application : mkvmerge v54.0.0 ('F Maj Pixie') 64-bit
Writing library : libebml v1.4.2 + libmatroska v1.6.3
Cover : Yes
Attachments : cover

Video
ID : 1
Format : HEVC
Format/Info : High Efficiency Video Coding
Format profile : Main 10@L4.1@High
HDR format : SMPTE ST 2086, HDR10 compatible
Codec ID : V_MPEGH/ISO/HEVC
Duration : 2 h 9 min
Bit rate : 9 067 kb/s
Width : 1 920 pixels
Height : 800 pixels
Display aspect ratio : 2.40:1
Frame rate mode : Constant
Frame rate : 23.976 (23976/1000) FPS
Original frame rate : 23.976 (24000/1001) FPS
Color space : YUV
Chroma subsampling : 4:2:0 (Type 2)
Bit depth : 10 bits
Bits/(Pixel*Frame) : 0.246
Stream size : 8.19 GiB (86%)
Writing library : x265 3.4+10-g25b2c0703:[Windows][MSVC 1927][64 bit] 10bit
Encoding settings : cpuid=1111039 / frame-threads=4 / numa-pools=16 / wpp / no-pmode / no-pme / no-psnr / no-ssim / log-level=2 / input-csp=1 / input-res=1920x800 / interlace=0 / total-frames=185954 / level-idc=41 / high-tier=1 / uhd-bd=0 / ref=5 / no-allow-non-conformance / repeat-headers / annexb / no-aud / no-hrd / info / hash=0 / no-temporal-layers / open-gop / min-keyint=23 / keyint=240 / gop-lookahead=0 / bframes=16 / b-adapt=2 / b-pyramid / bframe-bias=0 / rc-lookahead=60 / lookahead-slices=4 / scenecut=40 / hist-scenecut=0 / radl=0 / no-splice / no-intra-refresh / ctu=32 / min-cu-size=8 / rect / no-amp / max-tu-size=32 / tu-inter-depth=4 / tu-intra-depth=4 / limit-tu=1 / rdoq-level=2 / dynamic-rd=0.00 / no-ssim-rd / signhide / no-tskip / nr-intra=0 / nr-inter=0 / no-constrained-intra / no-strong-intra-smoothing / max-merge=4 / limit-refs=2 / limit-modes / me=3 / subme=7 / merange=57 / temporal-mvp / no-frame-dup / no-hme / weightp / weightb / no-analyze-src-pics / deblock=-3:-3 / no-sao / no-sao-non-deblock / rd=6 / selective-sao=0 / no-early-skip / no-rskip / no-fast-intra / no-tskip-fast / no-cu-lossless / no-b-intra / no-splitrd-skip / rdpenalty=0 / psy-rd=2.00 / psy-rdoq=1.00 / no-rd-refine / no-lossless / cbqpoffs=0 / crqpoffs=0 / rc=crf / crf=19.0 / qcomp=0.70 / qpstep=4 / stats-write=0 / stats-read=0 / vbv-maxrate=50000 / vbv-bufsize=50000 / vbv-init=0.9 / crf-max=0.0 / crf-min=0.0 / ipratio=1.40 / pbratio=1.30 / aq-mode=1 / aq-strength=1.00 / no-cutree / zone-count=1 / zones: / start-frame=172900 / end-frame=185954 / qp=21 / no-strict-cbr / qg-size=32 / no-rc-grain / qpmax=69 / qpmin=0 / no-const-vbv / sar=1 / overscan=0 / videoformat=5 / range=0 / colorprim=9 / transfer=16 / colormatrix=9 / chromaloc=1 / chromaloc-top=2 / chromaloc-bottom=2 / display-window=0 / master-display=G(8500,39850)B(6550,2300)R(35400,14600)WP(15635,16450)L(10000000,20) / cll=996,249 / min-luma=0 / max-luma=1023 / log2-max-poc-lsb=8 / vui-timing-info / vui-hrd-info / slices=1 / no-opt-qp-pps / no-opt-ref-list-length-pps / no-multi-pass-opt-rps / scenecut-bias=0.05 / hist-threshold=0.01 / no-opt-cu-delta-qp / no-aq-motion / hdr10 / hdr10-opt / no-dhdr10-opt / no-idr-recovery-sei / analysis-reuse-level=0 / analysis-save-reuse-level=0 / analysis-load-reuse-level=0 / scale-factor=0 / refine-intra=0 / refine-inter=0 / refine-mv=1 / refine-ctu-distortion=0 / no-limit-sao / ctu-info=0 / no-lowpass-dct / refine-analysis-type=0 / copy-pic=1 / max-ausize-factor=1.0 / no-dynamic-refine / no-single-sei / no-hevc-aq / no-svt / no-field / qp-adaptation-range=1.00 / no-scenecut-aware-qpconformance-window-offsets / right=0 / bottom=0 / decoder-max-rate=0
Default : Yes
Forced : No
Color range : Limited
Color primaries : BT.2020
Transfer characteristics : PQ
Matrix coefficients : BT.2020 non-constant
Mastering display color primar : BT.2020
Mastering display luminance : min: 0.0020 cd/m2, max: 1000 cd/m2
Maximum Content Light Level : 996 cd/m2
Maximum Frame-Average Light Le : 249 cd/m2

Audio #1
ID : 2
Format : AC-3
Format/Info : Audio Coding 3
Commercial name : Dolby Digital
Codec ID : A_AC3
Duration : 2 h 9 min
Bit rate mode : Constant
Bit rate : 640 kb/s
Channel(s) : 6 channels
Channel layout : L R C LFE Ls Rs
Sampling rate : 48.0 kHz
Frame rate : 31.250 FPS (1536 SPF)
Compression mode : Lossy
Stream size : 592 MiB (6%)
Title : Дубляж
Language : Russian
Service kind : Complete Main
Default : Yes
Forced : No

Audio #2
ID : 3
Format : AC-3
Format/Info : Audio Coding 3
Commercial name : Dolby Digital
Codec ID : A_AC3
Duration : 2 h 9 min
Bit rate mode : Constant
Bit rate : 192 kb/s
Channel(s) : 2 channels
Channel layout : L R
Sampling rate : 48.0 kHz
Frame rate : 31.250 FPS (1536 SPF)
Compression mode : Lossy
Stream size : 178 MiB (2%)
Title : Дубляэ
Language : Ukrainian
Service kind : Complete Main
Default : No
Forced : Yes

Audio #3
ID : 4
Format : AC-3
Format/Info : Audio Coding 3
Commercial name : Dolby Digital
Codec ID : A_AC3
Duration : 2 h 9 min
Bit rate mode : Constant
Bit rate : 640 kb/s
Channel(s) : 6 channels
Channel layout : L R C LFE Ls Rs
Sampling rate : 48.0 kHz
Frame rate : 31.250 FPS (1536 SPF)
Compression mode : Lossy
Stream size : 592 MiB (6%)
Title : Original
Language : English
Service kind : Complete Main
Default : No
Forced : No

Text #1
ID : 5
Format : UTF-8
Codec ID : S_TEXT/UTF8
Codec ID/Info : UTF-8 Plain Text
Duration : 2 h 8 min
Bit rate : 60 b/s
Count of elements : 1085
Stream size : 56.9 KiB (0%)
Title : Full
Language : Russian
Default : No
Forced : No

Text #2
ID : 6
Format : UTF-8
Codec ID : S_TEXT/UTF8
Codec ID/Info : UTF-8 Plain Text
Duration : 2 h 8 min
Bit rate : 60 b/s
Count of elements : 1083
Stream size : 56.7 KiB (0%)
Title : Full
Language : Ukrainian
Default : No
Forced : No

Text #3
ID : 7
Format : UTF-8
Codec ID : S_TEXT/UTF8
Codec ID/Info : UTF-8 Plain Text
Duration : 2 h 7 min
Bit rate : 39 b/s
Count of elements : 1110
Stream size : 37.5 KiB (0%)
Title : Full
Language : English
Default : No
Forced : No

Menu
00:00:00.000 : :20 Hours to Go
00:03:55.401 : :Trapped
00:07:33.119 : :The Connection Matters
00:10:19.952 : :Down Here I'm God
00:14:44.383 : :Coat-Check Chaos
00:17:58.744 : :Interesting Deal
00:23:33.245 : :The End Is Coming
00:30:06.304 : :We Meet at Last
00:35:35.633 : :The Logos Found
00:39:34.205 : :Volunteers
00:42:58.909 : :I Believe in Him
00:46:43.300 : :Nothing's Changed
00:49:02.606 : :Stowaway
00:51:53.610 : :See Your Enemy
00:58:00.643 : :Give 'em Hell
01:00:19.115 : :Detected
01:02:29.746 : :Breaching the Dome
01:08:00.910 : :Storming Sentinels
01:10:29.225 : :Trying to Keep Up
01:14:33.802 : :Unfinished Business
01:18:23.365 : :Hell of a Pilot
01:23:08.984 : :Report to the Council
01:25:55.817 : :Believers
01:29:13.348 : :Glimpse of the Sky
01:31:51.672 : :Saying What Matters
01:36:51.472 : :A Truce
01:41:55.275 : :It Ends Tonight
01:44:53.120 : :Urban Splash
01:48:06.646 : :Neo's Choice
01:51:30.850 : :Inevitable and Over
01:55:05.899 : :Real Peace
01:57:31.210 : :Freedom and Sunlight
02:00:12.371 : :End Credits
02:09:13.746 : :Глава 34
Загрузка...Cкриншот1 Матрица: Революция / The Matrix Revolutions (2003) UHD-BDRip 1080p [HEVC] 10 bit [HDR] от Mr. FoxЗагрузка...Cкриншот2 Матрица: Революция / The Matrix Revolutions (2003) UHD-BDRip 1080p [HEVC] 10 bit [HDR] от Mr. FoxЗагрузка...Cкриншот3 Матрица: Революция / The Matrix Revolutions (2003) UHD-BDRip 1080p [HEVC] 10 bit [HDR] от Mr. FoxЗагрузка...Cкриншот4 Матрица: Революция / The Matrix Revolutions (2003) UHD-BDRip 1080p [HEVC] 10 bit [HDR] от Mr. Fox
Сэмпл
Торрент🧲 Магнет

Раздача обновлена!
В первой части исправлен рассинхрон русского дубляжа.

Рейтинги КП и IMDB, кнопки "Позвать в чате" и "Спасибо", а также мультитрекерная статистика доступны только зарегистрированным/авторизованным пользователям!

Файлы: 3
  • The Matrix
    • The Matrix (1999).mkv   9.7 ГБ
    • The Matrix Reloaded (2003).mkv   9.34 ГБ
    • The Matrix Revolution (2003).mkv   9.52 ГБ
Поблагодарили: 16
alexyak, ancestor87, anderb, aquarius, Brooklyn, donadar, HANNIBAL, Kiran, ko1ob, MIGRANT, NoMaD, Nuclear70, Rexfire, Spartanec1308, Temperest, vaaldik
Admin
7128267 (3)  28.56 ГБ

Добавление нового комментария

Добавление комментариев доступно только зарегистрированным/авторизованным пользователям.
Аватар mafo2
  mafo2  (Отредактировал mafo2: )    
Все понятно, видимо при склеивании не выставил 200 мс задержки на русскую дорогу, хотя был уверен, что выставил и не проверил.
Буду внимательнее )
Аватар не указан
  Brooklyn  
mafo2 писал(а):
Я все дороги ровнял, ровнял, показалось, что нормально синхронизировал. Потом полный вариант пересматривал на украинском. Вполне возможно, может кто еще заметил?
Да, есть рассинхрон, исправьте пожалуйста и спасибо за трилогию.
Аватар mafo2
  mafo2  
HANNIBAL писал(а):
Макс мне может показалось но кажется дубляж иногда отстает в первой части
Я все дороги ровнял, ровнял, показалось, что нормально синхронизировал. Потом полный вариант пересматривал на украинском. Вполне возможно, может кто еще заметил?
Аватар HANNIBAL
  HANNIBAL  (Отредактировал HANNIBAL: )    
Макс мне может показалось но кажется дубляж иногда отстает в первой части
Аватар mafo2
  mafo2  
anderb писал(а):
А что стало с цветом? Она была желто-зеленой, а тут нет...
другой подход
здесь об этом хорошо все написано - https://www.google.com/search?client=firefox-b-d&q=fyuk+heccrbq
Аватар не указан
  anderb  
А что стало с цветом? Она была желто-зеленой, а тут нет...
Аватар HANNIBAL
  HANNIBAL  
Самый мой любимый фильм