💬 Мини-чат

Giggaloнет ли у кого в планах "Давайте потанцуем" 2004
GiggaloСообщение удалено (удалил: Giggalo)
StarLordOldGamer, как дела?)
StarLordOldGamer, ура, вернулся 😄
OldGamerRezident, можете скачать этот фильм от другого релизёра, там невелика разница, а раздающие точно есть
OldGamerGiggalo, https://tsya.ru/mnemonic.html
NoMaDСообщение удалено (удалил: NoMaD)
NoMaDСообщение удалено (удалил: NoMaD)
GiggaloСообщение удалено (удалил: Giggalo)
GiggaloСообщение удалено (удалил: Giggalo)
Spartanec1308Был днём
StarLordGiggalo, наверное отрубало беднягу, целый день его нету 😅
GiggaloСообщение удалено (удалил: Giggalo)
OldGamerДоброе. Работы много, некогда на перинах валяться.
GiggaloСообщение удалено (удалил: Giggalo)
GiggaloСообщение удалено (удалил: Giggalo)
  • StarLord
  • netfigni
Отправка сообщений доступна только зарегистрированным/авторизованным пользователям.
Онлайн (за 10 мин.): 2

Падший / Fallen (1998) BDRip 1080p [HEVC] 10 bit от Spartanec1308

HEVC
10 bit
Обложка Падший / Fallen (1998) BDRip 1080p [HEVC] 10 bit от Spartanec1308 Год: 1998
Страна: США
Студия: Warner Bros. Pictures
Жанр: Триллер, Драма, Криминал, Мистика
Продолжительность: 02:04:11

Режиссер: Грегори Хоблит
В ролях: Дензел Вашингтон, Джон Гудмен, Дональд Сазерленд, Эмбет Дэвидц, Джеймс Гандольфини, Элиас Котеас, Гэбриел Коссес, Майкл Дж. Паган, Роберт Джой, Фрэнк Медрано, Ронн Манро, Синтия Хейден, Рэй Ксифо, Тони Майкл Доннелли, Тара Карнес, Рено Уилсон, Уэнди Катлер, Аида Туртурро, Джефф Тэннер, Джерри Уолш, Боб Рамнок, Эллен Шеппард, Кристиан Обер, Билл Кларк, Аллелон Руджеро, Джилл Холден, Друци Макданиэль, Джон Р. Расселл, Линн Уонласс, Джон Дескано, Кресс Уильямс, Рик Уорнер, Джим Гримшоу, Роузвилл Янг, Майкл Шамус Уайлз, Фрэнк Дэвис, Бэрри Шебака Хенли, Чак Джеффрис, Бен Сиглер, Джейсон Уинстон Джордж, Аника Хоукинс, Стэн Кенг, Томас Дж. МакКарти, Шила Бейдер

Описание: В городской тюрьме казнен по приговору суда опасный преступник, маньяк — убийца. С этого момента в городе происходят одно за другим загадочные убийства, притом, судя по телам жертв, убийства ритуального характера. Полицейский детектив Хоббс, присутствовавший при казни маньяка, берется за расследование серии этих преступлений и, для начала, выясняет, как зовут того, кто их совершил. Установив его имя, сыщик приходит к страшному выводу: эти злодеяния — не человеческих рук дело, а демона — убийцы, вырвавшегося в наш мир…


Видео: 1920x800, 8080 Кбит/сек, 0.219 бит/(Пиксели*Кадры), 23,976 кадр/сек, HEVC (Main10@L.4.1@High) 10 бит
Аудио1: AC3, 6 ch, 384 Kbps - РусскийРусский, Дублированный
Аудио2: AC3, 6 ch, 640 Kbps - РусскийРусский, Двухголосый
Аудио3: AC3, 6 ch, 640 Kbps - РусскийРусский, Одноголосый (Ю.Живов)
Аудио4: AC3, 6 ch, 640 Kbps - АнглийскийАнглийский, Оригинал
Субтитры: Русские , английские

Как за пару секунд удалить ненужные аудиодорожки и субтитры (Внимание! После удаления вы не сможете поддержать раздачу)

Лог (x265 info)
x265 [info]: frame I: 1702, Avg QP:17.38 kb/s: 23902.75
x265 [info]: frame P: 32280, Avg QP:18.78 kb/s: 15957.65
x265 [info]: frame B: 144672, Avg QP:21.44 kb/s: 6135.61
x265 [info]: Weighted P-Frames: Y:9.9% UV:7.7%
x265 [info]: Weighted B-Frames: Y:7.9% UV:5.4%
Медиаинфо
Формат : Matroska
Версия формата : Version 4
Размер файла : 9,01 Гбайт
Продолжительность : 2 ч. 4 м.
Общий поток : 10,4 Мбит/сек
Название фильма : by Spartanec
Дата кодирования : UTC 2021-03-22 07:36:36
Программа кодирования : mkvmerge v7.0.0 ('Where We Going') 64bit built on Jun 9 2014 15:16:27
Библиотека кодирования : libebml v1.3.0 + libmatroska v1.4.1 / Lavf57.71.100
Обложка : Yes
Attachments : cover.jpg

Видео
Идентификатор : 1
Формат : HEVC
Формат/Информация : High Efficiency Video Coding
Профиль формата : Main 10@L4.1@High
Идентификатор кодека : V_MPEGH/ISO/HEVC
Продолжительность : 2 ч. 4 м.
Битрейт : 8080 Кбит/сек
Ширина : 1920 пикселей
Высота : 800 пикселей
Соотношение сторон : 2,40:1
Режим частоты кадров : Постоянный
Частота кадров : 23,976 (23976/1000) кадра/сек
Частота кадров в оригинале : 23,976 (24000/1001) кадра/сек
Цветовое пространство : YUV
Субдискретизация насыщенности : 4:2:0
Битовая глубина : 10 бит
Бит/(Пиксели*Кадры) : 0.219
Размер потока : 7,01 Гбайт (78%)
Заголовок : Spartanec
Библиотека кодирования : x265 3.5_RC1:[Windows][GCC 10.2.1][64 bit] 10bit
Настройки программы : cpuid=1111039 / frame-threads=4 / numa-pools=16 / wpp / no-pmode / no-pme / no-psnr / no-ssim / log-level=2 / input-csp=1 / input-res=1920x800 / interlace=0 / total-frames=178654 / level-idc=41 / high-tier=1 / uhd-bd=0 / ref=5 / no-allow-non-conformance / no-repeat-headers / annexb / no-aud / no-hrd / info / hash=0 / no-temporal-layers / open-gop / min-keyint=23 / keyint=240 / gop-lookahead=0 / bframes=16 / b-adapt=2 / b-pyramid / bframe-bias=0 / rc-lookahead=60 / lookahead-slices=1 / scenecut=40 / hist-scenecut=0 / radl=0 / no-splice / no-intra-refresh / ctu=32 / min-cu-size=8 / rect / amp / max-tu-size=32 / tu-inter-depth=4 / tu-intra-depth=4 / limit-tu=1 / rdoq-level=1 / dynamic-rd=0.00 / no-ssim-rd / signhide / no-tskip / nr-intra=0 / nr-inter=0 / no-constrained-intra / no-strong-intra-smoothing / max-merge=5 / limit-refs=0 / no-limit-modes / me=3 / subme=7 / merange=57 / temporal-mvp / no-frame-dup / no-hme / weightp / weightb / no-analyze-src-pics / deblock=-2:-2 / no-sao / no-sao-non-deblock / rd=6 / selective-sao=0 / no-early-skip / no-rskip / no-fast-intra / no-tskip-fast / no-cu-lossless / b-intra / no-splitrd-skip / rdpenalty=0 / psy-rd=2.00 / psy-rdoq=1.00 / no-rd-refine / no-lossless / cbqpoffs=0 / crqpoffs=0 / rc=crf / crf=20.3 / qcomp=0.70 / qpstep=4 / stats-write=0 / stats-read=0 / vbv-maxrate=50000 / vbv-bufsize=50000 / vbv-init=0.9 / min-vbv-fullness=50.0 / max-vbv-fullness=80.0 / crf-max=0.0 / crf-min=0.0 / ipratio=1.40 / pbratio=1.30 / aq-mode=2 / aq-strength=1.00 / no-cutree / zone-count=0 / no-strict-cbr / qg-size=32 / no-rc-grain / qpmax=69 / qpmin=0 / no-const-vbv / sar=1 / overscan=0 / videoformat=5 / range=0 / colorprim=1 / transfer=1 / colormatrix=1 / chromaloc=0 / display-window=0 / cll=0,0 / min-luma=0 / max-luma=1023 / log2-max-poc-lsb=8 / vui-timing-info / vui-hrd-info / slices=1 / no-opt-qp-pps / no-opt-ref-list-length-pps / no-multi-pass-opt-rps / scenecut-bias=0.05 / hist-threshold=0.03 / no-opt-cu-delta-qp / no-aq-motion / no-hdr10 / no-hdr10-opt / no-dhdr10-opt / no-idr-recovery-sei / analysis-reuse-level=0 / analysis-save-reuse-level=0 / analysis-load-reuse-level=0 / scale-factor=0 / refine-intra=0 / refine-inter=0 / refine-mv=0 / refine-ctu-distortion=0 / no-limit-sao / ctu-info=0 / no-lowpass-dct / refine-analysis-type=0 / copy-pic=1 / max-ausize-factor=1.0 / no-dynamic-refine / no-single-sei / no-hevc-aq / no-svt / no-field / qp-adaptation-range=1.00 / scenecut-aware-qp=0conformance-window-offsets / right=0 / bottom=0 / decoder-max-rate=0 / no-vbv-live-multi-pass
Язык : English
Default : Да
Forced : Нет
Цветовой диапазон : Limited
Основные цвета : BT.709
Характеристики трансфера : BT.709
Коэффициенты матрицы : BT.709

Аудио #1
Идентификатор : 2
Формат : AC-3
Формат/Информация : Audio Coding 3
Коммерческое название : Dolby Digital
Идентификатор кодека : A_AC3
Продолжительность : 2 ч. 4 м.
Вид битрейта : Постоянный
Битрейт : 640 Кбит/сек
Каналы : 6 каналов
ChannelLayout : L R C LFE Ls Rs
Частота : 48,0 КГц
Частота кадров : 31,250 кадров/сек (1536 SPF)
Битовая глубина : 16 бит
Метод сжатия : С потерями
Размер потока : 568 Мбайт (6%)
Заголовок : Оригинал
Язык : English
ServiceKind/ : Complete Main
Default : Нет
Forced : Нет

Аудио #2
Идентификатор : 3
Формат : AC-3
Формат/Информация : Audio Coding 3
Коммерческое название : Dolby Digital
Идентификатор кодека : A_AC3
Продолжительность : 2 ч. 4 м.
Вид битрейта : Постоянный
Битрейт : 640 Кбит/сек
Каналы : 6 каналов
ChannelLayout : L R C LFE Ls Rs
Частота : 48,0 КГц
Частота кадров : 31,250 кадров/сек (1536 SPF)
Битовая глубина : 16 бит
Метод сжатия : С потерями
Размер потока : 568 Мбайт (6%)
Заголовок : Профессиональный двухголосый
Язык : Russian
ServiceKind/ : Complete Main
Default : Нет
Forced : Нет

Аудио #3
Идентификатор : 4
Формат : AC-3
Формат/Информация : Audio Coding 3
Коммерческое название : Dolby Digital
Идентификатор кодека : A_AC3
Продолжительность : 2 ч. 4 м.
Вид битрейта : Постоянный
Битрейт : 640 Кбит/сек
Каналы : 6 каналов
ChannelLayout : L R C LFE Ls Rs
Частота : 48,0 КГц
Частота кадров : 31,250 кадров/сек (1536 SPF)
Битовая глубина : 16 бит
Метод сжатия : С потерями
Размер потока : 568 Мбайт (6%)
Заголовок : Авторский Ю.Живов
Язык : Russian
ServiceKind/: Complete Main
Default : Нет
Forced : Нет

Аудио #4
Идентификатор : 5
Формат : AC-3
Формат/Информация : Audio Coding 3
Коммерческое название : Dolby Digital
Идентификатор кодека : A_AC3
Продолжительность : 2 ч. 4 м.
Вид битрейта : Постоянный
Битрейт : 384 Кбит/сек
Каналы : 6 каналов
ChannelLayout : L R C LFE Ls Rs
Частота : 48,0 КГц
Частота кадров : 31,250 кадров/сек (1536 SPF)
Битовая глубина : 16 бит
Метод сжатия : С потерями
Размер потока : 341 Мбайт (4%)
Заголовок : Дубляж
Язык : Russian
ServiceKind/ : Complete Main
Default : Да
Forced : Нет

Текст #1
Идентификатор : 6
Формат : UTF-8
Идентификатор кодека : S_TEXT/UTF8
Идентификатор кодека/Информация : UTF-8 Plain Text
Продолжительность : 2 ч. 0 м.
Битрейт : 75 бит/сек
ElementCount : 1433
Размер потока : 66,6 Кбайт (0%)
Заголовок : Rus
Язык : Russian
Default : Да
Forced : Нет

Текст #2
Идентификатор : 7
Формат : UTF-8
Идентификатор кодека : S_TEXT/UTF8
Идентификатор кодека/Информация : UTF-8 Plain Text
Продолжительность : 2 ч. 3 м.
Битрейт : 55 бит/сек
ElementCount : 1413
Размер потока : 49,9 Кбайт (0%)
Заголовок : Eng
Язык : English
Default : Нет
Forced : Нет
Загрузка...Cкриншот1 Падший / Fallen (1998) BDRip 1080p [HEVC] 10 bit от Spartanec1308Загрузка...Cкриншот2 Падший / Fallen (1998) BDRip 1080p [HEVC] 10 bit от Spartanec1308Загрузка...Cкриншот3 Падший / Fallen (1998) BDRip 1080p [HEVC] 10 bit от Spartanec1308Загрузка...Cкриншот4 Падший / Fallen (1998) BDRip 1080p [HEVC] 10 bit от Spartanec1308
Сэмпл Торрент🧲 Магнет

Рейтинги КП и IMDB, кнопки "Позвать в чате" и "Спасибо", а также мультитрекерная статистика доступны только зарегистрированным/авторизованным пользователям!

Файлы: 1
  • Падший (1998) BDRip 1080p [HEVC] 10 bit by Spartanec.mkv   9.01 ГБ
Поблагодарили: 14
alexyak, Andrey_alex, aquarius, Brooklyn, donadar, ko1ob, makss333, NoMaD, OldGamer, Rezident, SoulBoy, StarLord, torrentzulu, x750
Spartanec1308
019109.01 ГБ

Добавление нового комментария

Добавление комментариев доступно только зарегистрированным/авторизованным пользователям.