💬 Мини-чат

Giggaloнет ли у кого в планах "Давайте потанцуем" 2004
GiggaloСообщение удалено (удалил: Giggalo)
StarLordOldGamer, как дела?)
StarLordOldGamer, ура, вернулся 😄
OldGamerRezident, можете скачать этот фильм от другого релизёра, там невелика разница, а раздающие точно есть
OldGamerGiggalo, https://tsya.ru/mnemonic.html
NoMaDСообщение удалено (удалил: NoMaD)
NoMaDСообщение удалено (удалил: NoMaD)
GiggaloСообщение удалено (удалил: Giggalo)
GiggaloСообщение удалено (удалил: Giggalo)
Spartanec1308Был днём
StarLordGiggalo, наверное отрубало беднягу, целый день его нету 😅
GiggaloСообщение удалено (удалил: Giggalo)
OldGamerДоброе. Работы много, некогда на перинах валяться.
GiggaloСообщение удалено (удалил: Giggalo)
GiggaloСообщение удалено (удалил: Giggalo)
  • Giggalo
  • alexyak
  • Priest2017
Отправка сообщений доступна только зарегистрированным/авторизованным пользователям.
Онлайн (за 10 мин.): 3

Паранойя / Paranoia (2013) BDRip 1080p [HEVC] 10 bit от Spartanec1308

HEVC
10 bit
Обложка Паранойя / Paranoia (2013) BDRip 1080p [HEVC] 10 bit от Spartanec1308 Год: 2013
Страна: США, Франция
Студия: Demarest Films, EMJAG Productions, Gaumont, IM Global, Kintop Pictures, Reliance Entertainment
Жанр: Триллер, Драма
Продолжительность: 01:46:06

Режиссер: Роберт Лукетич
В ролях: Лиам Хемсворт, Гари Олдман, Эмбер Хёрд, Харрисон Форд, Лукас Тилл, Эмбет Дэвидц, Джулиан МакМэхон, Джош Холлоуэй, Ричард Дрейфусс, Анджела Сарафян

Описание: Адам Кэссиди — типичный «белый воротничок», пытающийся преуспеть на должности молодого специалиста в крупной телекоммуникационной корпорации. После одной весьма дорогостоящей ошибки он сталкивается лицом к лицу с безжалостным президентом компании, который соглашается не увольнять провинившегося при одном условии: Адам должен шпионить за старым наставником своего босса…


Видео: 1920x800, 8514 Кбит/сек, 0.231 бит/(Пиксели*Кадры), 23,976 кадр/сек, HEVC (Main10@L.4.1@High) 10 бит
Аудио1: AC3, 6 ch, 640 Kbps - РусскийРусский, Дублированный (Лицензия)
Аудио2: AC3, 6 ch, 640 Kbps - РусскийРусский, Оригинал
Субтитры: Русские , английские

Как за пару секунд удалить ненужные аудиодорожки и субтитры (Внимание! После удаления вы не сможете поддержать раздачу)

Лог (x265 info)
x265 [info]: frame I: 1512, Avg QP:17.41 kb/s: 32093.81
x265 [info]: frame P: 28402, Avg QP:18.87 kb/s: 18412.33
x265 [info]: frame B: 122726, Avg QP:21.42 kb/s: 5931.44
x265 [info]: Weighted P-Frames: Y:4.4% UV:3.7%
x265 [info]: Weighted B-Frames: Y:4.7% UV:3.3%
x265 [info]: consecutive B-frames: 7.5% 1.6% 2.8% 25.1% 13.6% 35.3% 4.4% 8.0% 0.7% 0.4% 0.5%
Медиаинфо
Формат : Matroska
Версия формата : Version 4
Размер файла : 7,26 Гбайт
Продолжительность : 1 ч. 46 м.
Общий поток : 9795 Кбит/сек
Название фильма : by Spartanec
Дата кодирования : UTC 2021-03-24 17:07:41
Программа кодирования : mkvmerge v7.0.0 ('Where We Going') 64bit built on Jun 9 2014 15:16:27
Библиотека кодирования : libebml v1.3.0 + libmatroska v1.4.1
Обложка : Yes
Attachments : cover.jpg

Видео
Идентификатор : 1
Формат : HEVC
Формат/Информация : High Efficiency Video Coding
Профиль формата : Main 10@L4.1@High
Идентификатор кодека : V_MPEGH/ISO/HEVC
Продолжительность : 1 ч. 46 м.
Битрейт : 8514 Кбит/сек
Ширина : 1920 пикселей
Высота : 800 пикселей
Соотношение сторон : 2,40:1
Режим частоты кадров : Постоянный
Частота кадров : 23,976 (23976/1000) кадра/сек
Частота кадров в оригинале : 23,976 (24000/1001) кадра/сек
Цветовое пространство : YUV
Субдискретизация насыщенности : 4:2:0
Битовая глубина : 10 бит
Бит/(Пиксели*Кадры) : 0.231
Размер потока : 6,31 Гбайт (87%)
Заголовок : Spartanec
Библиотека кодирования : x265 3.5_RC1:[Windows][GCC 10.2.1][64 bit] 10bit
Настройки программы : cpuid=1111039 / frame-threads=4 / numa-pools=16 / wpp / no-pmode / no-pme / no-psnr / no-ssim / log-level=2 / input-csp=1 / input-res=1920x800 / interlace=0 / total-frames=152640 / level-idc=41 / high-tier=1 / uhd-bd=0 / ref=5 / no-allow-non-conformance / no-repeat-headers / annexb / no-aud / no-hrd / info / hash=0 / no-temporal-layers / open-gop / min-keyint=23 / keyint=240 / gop-lookahead=0 / bframes=10 / b-adapt=2 / b-pyramid / bframe-bias=0 / rc-lookahead=60 / lookahead-slices=1 / scenecut=40 / hist-scenecut=0 / radl=0 / no-splice / no-intra-refresh / ctu=32 / min-cu-size=8 / rect / amp / max-tu-size=32 / tu-inter-depth=4 / tu-intra-depth=4 / limit-tu=1 / rdoq-level=1 / dynamic-rd=0.00 / no-ssim-rd / signhide / no-tskip / nr-intra=0 / nr-inter=0 / no-constrained-intra / no-strong-intra-smoothing / max-merge=5 / limit-refs=0 / no-limit-modes / me=3 / subme=7 / merange=57 / temporal-mvp / no-frame-dup / no-hme / weightp / weightb / no-analyze-src-pics / deblock=-2:-2 / no-sao / no-sao-non-deblock / rd=6 / selective-sao=0 / no-early-skip / no-rskip / no-fast-intra / no-tskip-fast / no-cu-lossless / b-intra / no-splitrd-skip / rdpenalty=0 / psy-rd=2.00 / psy-rdoq=1.00 / no-rd-refine / no-lossless / cbqpoffs=0 / crqpoffs=0 / rc=crf / crf=20.2 / qcomp=0.70 / qpstep=4 / stats-write=0 / stats-read=0 / vbv-maxrate=50000 / vbv-bufsize=50000 / vbv-init=0.9 / min-vbv-fullness=50.0 / max-vbv-fullness=80.0 / crf-max=0.0 / crf-min=0.0 / ipratio=1.40 / pbratio=1.30 / aq-mode=2 / aq-strength=1.00 / no-cutree / zone-count=0 / no-strict-cbr / qg-size=32 / no-rc-grain / qpmax=69 / qpmin=0 / no-const-vbv / sar=1 / overscan=0 / videoformat=5 / range=0 / colorprim=1 / transfer=1 / colormatrix=1 / chromaloc=0 / display-window=0 / cll=0,0 / min-luma=0 / max-luma=1023 / log2-max-poc-lsb=8 / vui-timing-info / vui-hrd-info / slices=1 / no-opt-qp-pps / no-opt-ref-list-length-pps / no-multi-pass-opt-rps / scenecut-bias=0.05 / hist-threshold=0.03 / no-opt-cu-delta-qp / no-aq-motion / no-hdr10 / no-hdr10-opt / no-dhdr10-opt / no-idr-recovery-sei / analysis-reuse-level=0 / analysis-save-reuse-level=0 / analysis-load-reuse-level=0 / scale-factor=0 / refine-intra=0 / refine-inter=0 / refine-mv=0 / refine-ctu-distortion=0 / no-limit-sao / ctu-info=0 / no-lowpass-dct / refine-analysis-type=0 / copy-pic=1 / max-ausize-factor=1.0 / no-dynamic-refine / no-single-sei / no-hevc-aq / no-svt / no-field / qp-adaptation-range=1.00 / scenecut-aware-qp=0conformance-window-offsets / right=0 / bottom=0 / decoder-max-rate=0 / no-vbv-live-multi-pass
Язык : English
Default : Да
Forced : Нет
Цветовой диапазон : Limited
Основные цвета : BT.709
Характеристики трансфера : BT.709
Коэффициенты матрицы : BT.709

Аудио #1
Идентификатор : 2
Формат : AC-3
Формат/Информация : Audio Coding 3
Коммерческое название : Dolby Digital
Идентификатор кодека : A_AC3
Продолжительность : 1 ч. 46 м.
Вид битрейта : Постоянный
Битрейт : 640 Кбит/сек
Каналы : 6 каналов
ChannelLayout : L R C LFE Ls Rs
Частота : 48,0 КГц
Частота кадров : 31,250 кадров/сек (1536 SPF)
Битовая глубина : 16 бит
Метод сжатия : С потерями
Размер потока : 486 Мбайт (7%)
Заголовок : Дубляж
Язык : Russian
ServiceKind/ : Complete Main
Default : Да
Forced : Нет

Аудио #2
Идентификатор : 3
Формат : AC-3
Формат/Информация : Audio Coding 3
Коммерческое название : Dolby Digital
Идентификатор кодека : A_AC3
Продолжительность : 1 ч. 46 м.
Вид битрейта : Постоянный
Битрейт : 640 Кбит/сек
Каналы : 6 каналов
ChannelLayout : L R C LFE Ls Rs
Частота : 48,0 КГц
Частота кадров : 31,250 кадров/сек (1536 SPF)
Битовая глубина : 16 бит
Метод сжатия : С потерями
Размер потока : 486 Мбайт (7%)
Заголовок : Оригинал
Язык : English
ServiceKind/ : Complete Main
Default : Нет
Forced : Нет

Текст #1
Идентификатор : 4
Формат : UTF-8
Идентификатор кодека : S_TEXT/UTF8
Идентификатор кодека/Информация : UTF-8 Plain Text
Продолжительность : 1 ч. 39 м.
Битрейт : 90 бит/сек
ElementCount : 1160
Размер потока : 66,1 Кбайт (0%)
Язык : Russian
Default : Нет
Forced : Нет

Текст #2
Идентификатор : 5
Формат : UTF-8
Идентификатор кодека : S_TEXT/UTF8
Идентификатор кодека/Информация : UTF-8 Plain Text
Продолжительность : 1 ч. 45 м.
Битрейт : 55 бит/сек
ElementCount : 1246
Размер потока : 42,6 Кбайт (0%)
Язык : English
Default : Нет
Forced : Нет

Меню
00:00:00.000 : :Chapter 1
00:06:54.204 : :Chapter 2
00:10:31.838 : :Chapter 3
00:14:12.600 : :Chapter 4
00:17:02.395 : :Chapter 5
00:21:41.008 : :Chapter 6
00:26:29.921 : :Chapter 7
00:31:31.847 : :Chapter 8
00:36:47.578 : :Chapter 9
00:39:37.500 : :Chapter 10
00:46:08.930 : :Chapter 11
00:49:15.327 : :Chapter 12
00:54:37.898 : :Chapter 13
00:57:30.237 : :Chapter 14
00:59:16.510 : :Chapter 15
01:04:02.546 : :Chapter 16
01:06:58.430 : :Chapter 17
01:10:14.960 : :Chapter 18
01:19:23.759 : :Chapter 19
01:23:21.078 : :Chapter 20
01:27:37.502 : :Chapter 21
01:35:06.617 : :Chapter 22
01:37:53.367 : :Chapter 23
01:40:59.051 : :Chapter 24
Загрузка...Cкриншот1 Паранойя / Paranoia (2013) BDRip 1080p [HEVC] 10 bit от Spartanec1308Загрузка...Cкриншот2 Паранойя / Paranoia (2013) BDRip 1080p [HEVC] 10 bit от Spartanec1308Загрузка...Cкриншот3 Паранойя / Paranoia (2013) BDRip 1080p [HEVC] 10 bit от Spartanec1308Загрузка...Cкриншот4 Паранойя / Paranoia (2013) BDRip 1080p [HEVC] 10 bit от Spartanec1308
Сэмпл Торрент🧲 Магнет

Рейтинги КП и IMDB, кнопки "Позвать в чате" и "Спасибо", а также мультитрекерная статистика доступны только зарегистрированным/авторизованным пользователям!

Файлы: 1
  • Паранойя (2013) BDRip 1080p [HEVC] 10 bit by Spartanec.mkv   7.26 ГБ
Поблагодарили: 8
alexyak, Andrey_alex, aquarius, Elico1977, makss333, NoMaD, OldGamer, StarLord
Spartanec1308
013007.26 ГБ

Добавление нового комментария

Добавление комментариев доступно только зарегистрированным/авторизованным пользователям.