💬 Мини-чат

GiggaloСообщение удалено (удалил: Giggalo)
StarLordOldGamer, как дела?)
StarLordOldGamer, ура, вернулся 😄
OldGamerRezident, можете скачать этот фильм от другого релизёра, там невелика разница, а раздающие точно есть
OldGamerGiggalo, https://tsya.ru/mnemonic.html
NoMaDСообщение удалено (удалил: NoMaD)
NoMaDСообщение удалено (удалил: NoMaD)
GiggaloСообщение удалено (удалил: Giggalo)
GiggaloСообщение удалено (удалил: Giggalo)
Spartanec1308Был днём
StarLordGiggalo, наверное отрубало беднягу, целый день его нету 😅
GiggaloСообщение удалено (удалил: Giggalo)
OldGamerДоброе. Работы много, некогда на перинах валяться.
GiggaloСообщение удалено (удалил: Giggalo)
GiggaloСообщение удалено (удалил: Giggalo)
  • Spartanec1308
  • Giggalo
  • alenu
  • Blaster
Отправка сообщений доступна только зарегистрированным/авторизованным пользователям.
Онлайн (за 10 мин.): 4

Кровь и кость / Blood and Bone (2009) BDRip 1080p [HEVC] 10 bit от HANNIBAL

HEVC
10 bit
Обложка Кровь и кость / Blood and Bone (2009) BDRip 1080p [HEVC] 10 bit от HANNIBAL Год: 2009
Страна: США
Студия: Michael Mailer Films, Remarkable Films
Жанр: Боевик, Драма
Продолжительность: 01:33:26

Режиссер: Бен Рэмси
В ролях: Майкл Джей Уайт, Джулиан Сэндс, Имонн Уолкер Данте Баско, Нона Гей, Боб Сапп, Дик Энтони Уильямс, Рон Йуан, Джина Карано

Описание: История таинственного бродяги по имени Исай Бон, который начинает участвовать в уличных драках, в глухих переулках Лос-Анджелеса, чтобы выполнить обещание данное умершему другу…


Видео: 1920x1080, ~7978 Кбит/сек
Аудио1: AC3, 6 ch, 448 Kbps - РусскийРусский, Двухголосый
Аудио2: AC3, 6 ch, 448 Kbps - АнглийскийАнглийский, Оригинал
Субтитры: Английские

Как за пару секунд удалить ненужные аудиодорожки и субтитры (Внимание! После удаления вы не сможете поддержать раздачу)

Лог (x265 info)
x265 [info]: frame I: 1172, Avg QP:16.03 kb/s: 27982.98
x265 [info]: frame P: 28109, Avg QP:17.35 kb/s: 16971.76
x265 [info]: frame B: 105133, Avg QP:19.72 kb/s: 5349.29
x265 [info]: Weighted P-Frames: Y:4.3% UV:3.7%
x265 [info]: Weighted B-Frames: Y:3.3% UV:2.6%
x265 [info]: consecutive B-frames: 6.9% 7.1% 8.9% 33.4% 8.1% 23.2% 3.5% 8.0% 0.4% 0.1% 0.1% 0.3%
Медиаинфо
General
Unique ID : 275919320945111373120710040827079702670 (0xCF9420D49EA0AA1F53E1B7A5D71C388E)
Complete name : G:HEVC-CLUBBlood and Bone (2009) BDRip 1080p-HEVC 10 bit.mkv
Format : Matroska
Format version : Version 4
File size : 5.79 GiB
Duration : 1 h 33 min
Overall bit rate : 8 875 kb/s
Movie name : by-hannibal
Encoded date : UTC 2021-03-24 17:21:40
Writing application : mkvmerge v47.0.0 ('Black Flag') 64-bit
Writing library : libebml v1.3.10 + libmatroska v1.5.2
Cover : Yes
Attachments : cover.jpg

Video
ID : 1
Format : HEVC
Format/Info : High Efficiency Video Coding
Format profile : Main 10@L4.1@High
Codec ID : V_MPEGH/ISO/HEVC
Duration : 1 h 33 min
Bit rate : 7 978 kb/s
Width : 1 920 pixels
Height : 1 080 pixels
Display aspect ratio : 16:9
Frame rate mode : Constant
Frame rate : 23.976 (23976/1000) FPS
Original frame rate : 23.976 (24000/1001) FPS
Color space : YUV
Chroma subsampling : 4:2:0
Bit depth : 10 bits
Bits/(Pixel*Frame) : 0.160
Stream size : 5.21 GiB (90%)
Writing library : x265 3.3+33-04275ae58030:[Windows][GCC 10.1.0][64 bit] 10bit
Encoding settings : cpuid=1111039 / frame-threads=3 / numa-pools=12 / wpp / no-pmode / no-pme / no-psnr / no-ssim / log-level=2 / input-csp=1 / input-res=1920x1080 / interlace=0 / total-frames=134414 / level-idc=41 / high-tier=1 / uhd-bd=0 / ref=5 / no-allow-non-conformance / no-repeat-headers / annexb / no-aud / no-hrd / info / hash=0 / no-temporal-layers / open-gop / min-keyint=23 / keyint=240 / gop-lookahead=0 / bframes=11 / b-adapt=2 / b-pyramid / bframe-bias=0 / rc-lookahead=60 / lookahead-slices=0 / scenecut=40 / hist-scenecut=0 / radl=0 / no-splice / no-intra-refresh / ctu=32 / min-cu-size=8 / rect / amp / max-tu-size=32 / tu-inter-depth=3 / tu-intra-depth=3 / limit-tu=0 / rdoq-level=2 / dynamic-rd=0.00 / no-ssim-rd / signhide / no-tskip / nr-intra=0 / nr-inter=0 / no-constrained-intra / strong-intra-smoothing / max-merge=5 / limit-refs=0 / no-limit-modes / me=3 / subme=7 / merange=57 / temporal-mvp / no-frame-dup / no-hme / weightp / weightb / no-analyze-src-pics / deblock=0:0 / no-sao / no-sao-non-deblock / rd=4 / selective-sao=0 / no-early-skip / rskip / no-fast-intra / no-tskip-fast / no-cu-lossless / b-intra / no-splitrd-skip / rdpenalty=0 / psy-rd=2.00 / psy-rdoq=1.00 / no-rd-refine / no-lossless / cbqpoffs=0 / crqpoffs=0 / rc=crf / crf=19.5 / qcomp=0.70 / qpstep=4 / stats-write=0 / stats-read=0 / vbv-maxrate=50000 / vbv-bufsize=50000 / vbv-init=0.9 / crf-max=0.0 / crf-min=0.0 / ipratio=1.40 / pbratio=1.30 / aq-mode=2 / aq-strength=1.00 / no-cutree / zone-count=0 / no-strict-cbr / qg-size=32 / no-rc-grain / qpmax=69 / qpmin=0 / no-const-vbv / sar=1 / overscan=0 / videoformat=5 / range=0 / colorprim=1 / transfer=1 / colormatrix=1 / chromaloc=0 / display-window=0 / cll=0,0 / min-luma=0 / max-luma=1023 / log2-max-poc-lsb=8 / vui-timing-info / vui-hrd-info / slices=1 / no-opt-qp-pps / no-opt-ref-list-length-pps / no-multi-pass-opt-rps / scenecut-bias=0.05 / hist-threshold=0.01 / no-opt-cu-delta-qp / no-aq-motion / no-hdr10 / no-hdr10-opt / no-dhdr10-opt / no-idr-recovery-sei / analysis-reuse-level=0 / analysis-save-reuse-level=0 / analysis-load-reuse-level=0 / scale-factor=0 / refine-intra=0 / refine-inter=0 / refine-mv=1 / refine-ctu-distortion=0 / no-limit-sao / ctu-info=0 / no-lowpass-dct / refine-analysis-type=0 / copy-pic=1 / max-ausize-factor=1.0 / no-dynamic-refine / no-single-sei / no-hevc-aq / no-svt / no-field / qp-adaptation-range=1.00 / no-scenecut-aware-qpconformance-window-offsets / right=0 / bottom=0 / decoder-max-rate=0
Default : Yes
Forced : No
Color range : Limited
Color primaries : BT.709
Transfer characteristics : BT.709
Matrix coefficients : BT.709

Audio #1
ID : 2
Format : AC-3
Format/Info : Audio Coding 3
Commercial name : Dolby Digital
Codec ID : A_AC3
Duration : 1 h 33 min
Bit rate mode : Constant
Bit rate : 448 kb/s
Channel(s) : 6 channels
Channel layout : L R C LFE Ls Rs
Sampling rate : 48.0 kHz
Frame rate : 31.250 FPS (1536 SPF)
Compression mode : Lossy
Stream size : 299 MiB (5%)
Title : DVO
Language : Russian
Service kind : Complete Main
Default : Yes
Forced : No

Audio #2
ID : 3
Format : AC-3
Format/Info : Audio Coding 3
Commercial name : Dolby Digital
Codec ID : A_AC3
Duration : 1 h 33 min
Bit rate mode : Constant
Bit rate : 448 kb/s
Channel(s) : 6 channels
Channel layout : L R C LFE Ls Rs
Sampling rate : 48.0 kHz
Frame rate : 31.250 FPS (1536 SPF)
Compression mode : Lossy
Stream size : 299 MiB (5%)
Title : eng
Language : English
Service kind : Complete Main
Default : No
Forced : No

Text
ID : 4
Format : UTF-8
Codec ID : S_TEXT/UTF8
Codec ID/Info : UTF-8 Plain Text
Duration : 1 h 29 min
Bit rate : 49 b/s
Count of elements : 1018
Stream size : 32.6 KiB (0%)
Language : English
Default : No
Forced : No

Menu
00:00:00.000 : :Chapter 01
00:07:13.349 : :Chapter 02
00:16:50.300 : :Chapter 03
00:25:56.888 : :Chapter 04
00:36:19.677 : :Chapter 05
00:47:18.043 : :Chapter 06
00:56:42.941 : :Chapter 07
01:08:17.676 : :Chapter 08
01:18:04.513 : :Chapter 09
01:29:52.970 : :Chapter 10
Загрузка...Cкриншот1 Кровь и кость / Blood and Bone (2009) BDRip 1080p [HEVC] 10 bit от HANNIBALЗагрузка...Cкриншот2 Кровь и кость / Blood and Bone (2009) BDRip 1080p [HEVC] 10 bit от HANNIBALЗагрузка...Cкриншот3 Кровь и кость / Blood and Bone (2009) BDRip 1080p [HEVC] 10 bit от HANNIBALЗагрузка...Cкриншот4 Кровь и кость / Blood and Bone (2009) BDRip 1080p [HEVC] 10 bit от HANNIBAL
Сэмпл Торрент🧲 Магнет

Рейтинги КП и IMDB, кнопки "Позвать в чате" и "Спасибо", а также мультитрекерная статистика доступны только зарегистрированным/авторизованным пользователям!

Файлы: 1
  • Blood and Bone (2009) BDRip 1080p-HEVC 10 bit.mkv   5.79 ГБ
Поблагодарили: 2
makss333, Nuclear70
HANNIBAL
09005.79 ГБ

Добавление нового комментария

Добавление комментариев доступно только зарегистрированным/авторизованным пользователям.