💬 Мини-чат

Giggaloнет ли у кого в планах "Давайте потанцуем" 2004
GiggaloСообщение удалено (удалил: Giggalo)
StarLordOldGamer, как дела?)
StarLordOldGamer, ура, вернулся 😄
OldGamerRezident, можете скачать этот фильм от другого релизёра, там невелика разница, а раздающие точно есть
OldGamerGiggalo, https://tsya.ru/mnemonic.html
NoMaDСообщение удалено (удалил: NoMaD)
NoMaDСообщение удалено (удалил: NoMaD)
GiggaloСообщение удалено (удалил: Giggalo)
GiggaloСообщение удалено (удалил: Giggalo)
Spartanec1308Был днём
StarLordGiggalo, наверное отрубало беднягу, целый день его нету 😅
GiggaloСообщение удалено (удалил: Giggalo)
OldGamerДоброе. Работы много, некогда на перинах валяться.
GiggaloСообщение удалено (удалил: Giggalo)
GiggaloСообщение удалено (удалил: Giggalo)
  • Giggalo
  • Andrey_alex
  • Blake
  • DEMMON75
  • donadar
  • Rezident
  • Shok
Отправка сообщений доступна только зарегистрированным/авторизованным пользователям.
Онлайн (за 10 мин.): 7

Час пик: Трилогия / Rush Hour: Trilogy (1998-2007) BDRip 1080p [HEVC] 10 bit от OldGamer (RG RIPS CLUB)

HEVC
10 bit
Обложка Час пик: Трилогия / Rush Hour: Trilogy (1998-2007) BDRip 1080p [HEVC] 10 bit от OldGamer (RG RIPS CLUB) Год: 1998-2007
Страна: США, Гонконг, Германия
Жанр: Боевик, Комедия, Триллер, Криминал

1. Час пик / Rush Hour (1998) BDRip 1080p [HEVC] 10 bit от OldGamer
HEVC
10 bit
Обложка Час пик / Rush Hour (1998) BDRip 1080p [HEVC] 10 bit от OldGamer Год: 1998
Страна: США
Студия: New Line Cinema, Roger Birnbaum Productions
Жанр: Боевик, Комедия, Триллер, Криминал
Продолжительность: 01:37:51

Режиссер: Бретт Рэтнер
В ролях: Джеки Чан, Крис Такер, Элизабет Пенья, Том Уилкинсон, Кен Люн, Ма Ци, Марк Ролстон, Крис Пенн, Рекс Линн, Филип Бейкер Холл

Описание: В Лос-Анджелесе злодеи похищают малолетнюю дочь китайского консула, которую в Гонконге учил кунг-фу инспектор Ли. Консул вызывает Ли в Америку, чтобы тот принял участие в освобождении девочки. Агенты ФБР обратились к полиции с просьбой выделить им самого никчемного сотрудника, чтобы тот взял китайца на себя и показал ему достопримечательности, а главное, не позволил вмешиваться в их дела. Им оказывается самый болтливый полицейский Картер. Естественно, после ряда разногласий и недоразумений они объединяют усилия и всерьёз берутся за вызволение заложницы.


Исходник: Blu-Ray Remux 1080p
Видео: 1920x784 (2.40:1), 6565 Кбит/сек, HEVC (Main10@L.4.1@High)
Аудио1: AC3, 6 ch, 448 Kbps - РусскийРусский, Дублированный
Аудио2: AC3, 2 ch, 192 Kbps - РусскийРусский, Многоголосый (ОРТ)
Аудио3: AC3, 2 ch, 192 Kbps - РусскийРусский, Двухголосый (TV1000)
Аудио4: AC3, 6 ch, 640 Kbps - РусскийРусский, Авторский (Юрий Живов)
Аудио5: AC3, 6 ch, 640 Kbps - РусскийРусский, Авторский (Павел Санаев)
Аудио6: AC3, 2 ch, 192 Kbps - УкраинскийУкраинский, Двухголосый (ICTV, Novyi Kanal)
Аудио7: AC3, 6 ch, 640 Kbps - EnglishEnglish, Original
Субтитры: Русские полные (SRT), English full (SRT)

Как за пару секунд удалить ненужные аудиодорожки и субтитры (Внимание! После удаления вы не сможете поддержать раздачу)

Лог (x265 info)
x265 [info]: frame I: 590, Avg QP:17.64 kb/s: 18483.38
x265 [info]: frame P: 25514, Avg QP:18.83 kb/s: 12877.25
x265 [info]: frame B: 114629, Avg QP:20.89 kb/s: 5097.23
x265 [info]: Weighted P-Frames: Y:4.3% UV:3.5%
x265 [info]: Weighted B-Frames: Y:4.1% UV:2.9%
x265 [info]: consecutive B-frames: 1.6% 3.3% 6.0% 23.9% 12.1% 35.3% 7.2% 6.0% 2.3% 1.2% 0.5% 0.4% 0.2% 0.2%
x265 [info]: encoded 140733 frames in 81635.10s (1.72 fps), 6563.82 kb/s, Avg QP:20.50
Медиаинфо
Общее
Уникальный идентификатор : 11921161172997821235299686177368211076 (0x8F7EE9FE84FB52B211EF4D7570C7E84)
Полное имя : \\.\01.Час.пик.Rush.Hour.I.1998.BDRip-HEVC.1080p.mkv
Формат : Matroska
Версия формата : Version 4
Размер файла : 6,50 Гбайт
Продолжительность : 1 ч. 37 м.
Общий поток : 9 510 Кбит/сек
Дата кодирования : UTC 2021-04-02 10:03:09
Программа кодирования : mkvmerge v55.0.0 ('Waiting For Space') 64-bit
Библиотека кодирования : libebml v1.4.2 + libmatroska v1.6.4

Видео
Идентификатор : 1
Формат : HEVC
Формат/Информация : High Efficiency Video Coding
Профиль формата : Main 10@L4.1@High
Идентификатор кодека : V_MPEGH/ISO/HEVC
Продолжительность : 1 ч. 37 м.
Битрейт : 6 565 Кбит/сек
Ширина : 1 920 пикселей
Высота : 784 пикселя
Соотношение сторон : 2,40:1
Режим частоты кадров : Постоянный
Частота кадров : 23,976 (24000/1001) кадра/сек
Цветовое пространство : YUV
Субдискретизация насыщенности : 4:2:0
Битовая глубина : 10 бит
Бит/(Пиксели*Кадры) : 0.182
Размер потока : 4,49 Гбайт (69%)
Заголовок : Rush Hour / Rip by OldGamer
Библиотека кодирования : x265 3.5+1-ce882936d:[Windows][GCC 10.2.0][64 bit] 10bit
Настройки программы : cpuid=1111039 / frame-threads=3 / numa-pools=8 / wpp / no-pmode / no-pme / no-psnr / no-ssim / log-level=2 / input-csp=1 / input-res=1920x784 / interlace=0 / total-frames=140733 / level-idc=41 / high-tier=1 / uhd-bd=0 / ref=5 / no-allow-non-conformance / no-repeat-headers / annexb / no-aud / no-hrd / info / hash=0 / no-temporal-layers / open-gop / min-keyint=23 / keyint=240 / gop-lookahead=0 / bframes=13 / b-adapt=2 / b-pyramid / bframe-bias=0 / rc-lookahead=40 / lookahead-slices=0 / scenecut=40 / hist-scenecut=0 / radl=0 / no-splice / no-intra-refresh / ctu=32 / min-cu-size=8 / rect / amp / max-tu-size=32 / tu-inter-depth=4 / tu-intra-depth=4 / limit-tu=1 / rdoq-level=2 / dynamic-rd=0.00 / no-ssim-rd / signhide / no-tskip / nr-intra=0 / nr-inter=0 / no-constrained-intra / no-strong-intra-smoothing / max-merge=5 / limit-refs=3 / no-limit-modes / me=3 / subme=7 / merange=57 / temporal-mvp / no-frame-dup / no-hme / weightp / weightb / no-analyze-src-pics / deblock=-3:-2 / no-sao / no-sao-non-deblock / rd=6 / selective-sao=0 / no-early-skip / rskip / no-fast-intra / no-tskip-fast / no-cu-lossless / b-intra / no-splitrd-skip / rdpenalty=0 / psy-rd=2.00 / psy-rdoq=1.00 / no-rd-refine / no-lossless / cbqpoffs=0 / crqpoffs=0 / rc=crf / crf=20.0 / qcomp=0.72 / qpstep=4 / stats-write=0 / stats-read=0 / vbv-maxrate=50000 / vbv-bufsize=50000 / vbv-init=0.9 / min-vbv-fullness=50.0 / max-vbv-fullness=80.0 / crf-max=0.0 / crf-min=0.0 / ipratio=1.40 / pbratio=1.30 / aq-mode=1 / aq-strength=1.00 / no-cutree / zone-count=1 / zones: / start-frame=137064 / end-frame=140733 / qp=35 / no-strict-cbr / qg-size=32 / no-rc-grain / qpmax=69 / qpmin=0 / no-const-vbv / sar=1 / overscan=0 / videoformat=5 / range=0 / colorprim=2 / transfer=2 / colormatrix=2 / chromaloc=0 / display-window=0 / cll=0,0 / min-luma=0 / max-luma=1023 / log2-max-poc-lsb=8 / vui-timing-info / vui-hrd-info / slices=1 / no-opt-qp-pps / no-opt-ref-list-length-pps / no-multi-pass-opt-rps / scenecut-bias=0.00 / hist-threshold=0.03 / no-opt-cu-delta-qp / no-aq-motion / no-hdr10 / no-hdr10-opt / no-dhdr10-opt / no-idr-recovery-sei / analysis-reuse-level=0 / analysis-save-reuse-level=0 / analysis-load-reuse-level=0 / scale-factor=0 / refine-intra=0 / refine-inter=0 / refine-mv=1 / refine-ctu-distortion=0 / no-limit-sao / ctu-info=0 / no-lowpass-dct / refine-analysis-type=0 / copy-pic=1 / max-ausize-factor=1.0 / no-dynamic-refine / no-single-sei / no-hevc-aq / no-svt / no-field / qp-adaptation-range=1.00 / scenecut-aware-qp=0conformance-window-offsets / right=0 / bottom=0 / decoder-max-rate=0 / no-vbv-live-multi-pass
Язык : English
Default : Да
Forced : Нет

Аудио #1
Идентификатор : 2
Формат : AC-3
Формат/Информация : Audio Coding 3
Коммерческое название : Dolby Digital
Идентификатор кодека : A_AC3
Продолжительность : 1 ч. 37 м.
Вид битрейта : Постоянный
Битрейт : 448 Кбит/сек
Каналы : 6 каналов
Channel layout : L R C LFE Ls Rs
Частота : 48,0 КГц
Частота кадров : 31,250 кадров/сек (1536 SPF)
Метод сжатия : С потерями
Размер потока : 314 Мбайт (5%)
Заголовок : DUB
Язык : Russian
Service kind : Complete Main
Default : Да
Forced : Нет

Аудио #2
Идентификатор : 3
Формат : AC-3
Формат/Информация : Audio Coding 3
Коммерческое название : Dolby Digital
Идентификатор кодека : A_AC3
Продолжительность : 1 ч. 37 м.
Вид битрейта : Постоянный
Битрейт : 192 Кбит/сек
Каналы : 2 канала
Channel layout : L R
Частота : 48,0 КГц
Частота кадров : 31,250 кадров/сек (1536 SPF)
Метод сжатия : С потерями
Размер потока : 134 Мбайт (2%)
Заголовок : MVO (ОРТ)
Язык : Russian
Service kind : Complete Main
Default : Нет
Forced : Нет

Аудио #3
Идентификатор : 4
Формат : AC-3
Формат/Информация : Audio Coding 3
Коммерческое название : Dolby Digital
Идентификатор кодека : A_AC3
Продолжительность : 1 ч. 37 м.
Вид битрейта : Постоянный
Битрейт : 192 Кбит/сек
Каналы : 2 канала
Channel layout : L R
Частота : 48,0 КГц
Частота кадров : 31,250 кадров/сек (1536 SPF)
Метод сжатия : С потерями
Размер потока : 134 Мбайт (2%)
Заголовок : DVO (TV1000)
Язык : Russian
Service kind : Complete Main
Default : Нет
Forced : Нет

Аудио #4
Идентификатор : 5
Формат : AC-3
Формат/Информация : Audio Coding 3
Коммерческое название : Dolby Digital
Идентификатор кодека : A_AC3
Продолжительность : 1 ч. 37 м.
Вид битрейта : Постоянный
Битрейт : 640 Кбит/сек
Каналы : 6 каналов
Channel layout : L R C LFE Ls Rs
Частота : 48,0 КГц
Частота кадров : 31,250 кадров/сек (1536 SPF)
Метод сжатия : С потерями
Размер потока : 448 Мбайт (7%)
Заголовок : AVO (Юрий Живов)
Язык : Russian
Service kind : Complete Main
Default : Нет
Forced : Нет

Аудио #5
Идентификатор : 6
Формат : AC-3
Формат/Информация : Audio Coding 3
Коммерческое название : Dolby Digital
Идентификатор кодека : A_AC3
Продолжительность : 1 ч. 37 м.
Вид битрейта : Постоянный
Битрейт : 640 Кбит/сек
Каналы : 6 каналов
Channel layout : L R C LFE Ls Rs
Частота : 48,0 КГц
Частота кадров : 31,250 кадров/сек (1536 SPF)
Метод сжатия : С потерями
Размер потока : 448 Мбайт (7%)
Заголовок : AVO (Павел Санаев)
Язык : Russian
Service kind : Complete Main
Default : Нет
Forced : Нет

Аудио #6
Идентификатор : 7
Формат : AC-3
Формат/Информация : Audio Coding 3
Коммерческое название : Dolby Digital
Идентификатор кодека : A_AC3
Продолжительность : 1 ч. 37 м.
Вид битрейта : Постоянный
Битрейт : 192 Кбит/сек
Каналы : 2 канала
Channel layout : L R
Частота : 48,0 КГц
Частота кадров : 31,250 кадров/сек (1536 SPF)
Метод сжатия : С потерями
Размер потока : 134 Мбайт (2%)
Заголовок : DVO (ICTV, Novyi Kanal)
Язык : Ukrainian
Service kind : Complete Main
Default : Нет
Forced : Нет

Аудио #7
Идентификатор : 8
Формат : AC-3
Формат/Информация : Audio Coding 3
Коммерческое название : Dolby Digital
Идентификатор кодека : A_AC3
Продолжительность : 1 ч. 37 м.
Вид битрейта : Постоянный
Битрейт : 640 Кбит/сек
Каналы : 6 каналов
Channel layout : L R C LFE Ls Rs
Частота : 48,0 КГц
Частота кадров : 31,250 кадров/сек (1536 SPF)
Метод сжатия : С потерями
Размер потока : 448 Мбайт (7%)
Язык : English
Service kind : Complete Main
Default : Нет
Forced : Нет

Текст #1
Идентификатор : 9
Формат : UTF-8
Идентификатор кодека : S_TEXT/UTF8
Идентификатор кодека/Информация : UTF-8 Plain Text
Продолжительность : 1 ч. 34 м.
Битрейт : 112 бит/сек
Count of elements : 1202
Размер потока : 77,9 Кбайт (0%)
Язык : Russian
Default : Нет
Forced : Нет

Текст #2
Идентификатор : 10
Формат : UTF-8
Идентификатор кодека : S_TEXT/UTF8
Идентификатор кодека/Информация : UTF-8 Plain Text
Продолжительность : 1 ч. 31 м.
Битрейт : 62 бит/сек
Count of elements : 1343
Размер потока : 41,9 Кбайт (0%)
Язык : English
Default : Нет
Forced : Нет

Меню
00:00:00.000 : en:Opening Credits
00:02:28.022 : en:"Where Is Juntao?"
00:04:01.741 : en:Hong Kong, 1997
00:06:10.787 : en:C4
00:09:28.901 : en:School;S Out
00:12:03.305 : en:Partners
00:15:16.957 : en:Going to the Show
00:17:11.697 : en:G-14 Classified
00:20:01.700 : en:Carter, Fbi
00:22:53.580 : en:Supercops
00:27:04.456 : en:The United States of James Carter
00:29:16.963 : en:Azteca Shakedown
00:34:39.577 : en:Quick Hands
00:35:50.481 : en:Meet Inspector Li
00:38:46.907 : en:Get Carter
00:41:35.326 : en:Pickup on Sixth Street
00:43:32.359 : en:The Detonator
00:46:48.889 : en:Practice Makes Perfect
00:48:42.294 : en:"Give Me the Name"
00:51:11.902 : en:The Foo Chow
00:54:45.865 : en:Camel's Hump
00:57:35.076 : en:One From Column B
00:59:36.281 : en:"Fight Me Like a Man"
01:02:47.680 : en:Room Service
01:06:05.753 : en:Case Closed
01:08:14.131 : en:Juntao Calls
01:10:50.162 : en:A Lesson in Honor
01:13:07.925 : en:Getting the Drop on the Drop
01:16:33.380 : en:"Juntao!"
01:18:47.139 : en:"Thank You and Good Night"
01:22:06.755 : en:Saving Vase
01:23:43.977 : en:"Meet Me on the Road"
01:25:58.570 : en:Leave Them in Stitches
01:28:01.276 : en:A Banner Night
01:29:57.392 : en:Three Little Words
01:32:10.775 : en:End Credits/Bloopers
01:35:16.836 : en:Tail Credits
Загрузка...Cкриншот1 Час пик / Rush Hour (1998) BDRip 1080p [HEVC] 10 bit от OldGamerЗагрузка...Cкриншот2 Час пик / Rush Hour (1998) BDRip 1080p [HEVC] 10 bit от OldGamerЗагрузка...Cкриншот3 Час пик / Rush Hour (1998) BDRip 1080p [HEVC] 10 bit от OldGamerЗагрузка...Cкриншот4 Час пик / Rush Hour (1998) BDRip 1080p [HEVC] 10 bit от OldGamer
Сэмпл
2. Час пик 2 / Rush Hour 2 (2001) BDRip 1080p [HEVC] 10 bit от OldGamer
HEVC
10 bit
Обложка Час пик 2 / Rush Hour 2 (2001) BDRip 1080p [HEVC] 10 bit от OldGamer Год: 2001
Страна: Гонконг, США
Студия: Hiett Designs of Las Vegas, New Line Cinema, Roger Birnbaum Productions
Жанр: Боевик, Триллер, Комедия, Криминал
Продолжительность: 01:30:08

Режиссер: Бретт Рэтнер
В ролях: Джеки Чан, Крис Такер, Джон Лоун, Чжан Цзыи, Роселин Санчес, Алан Кинг, Харрис Юлин, Кеннет Цан, Лиза ЛоЦицеро, Мей Меланкон

Описание: Полицейские Ли и Картер прибывают в Гонконг по следам преступников, замышляющих похищение китайских сокровищ и их продажу в США. По мере того как детективы всё больше и больше запутываются в преступном заговоре, поездка от Гонконга до Лос-Анджелеса и Лас-Вегаса оборачивается для них опасным и интересным приключением.


Исходник: Blu-Ray Remux 1080p
Видео: 1920x800 (2.40:1), 11,3 Мбит/сек, HEVC (Main10@L.4.1@High)
Аудио1: AC3, 6 ch, 448 Kbps - РусскийРусский, Дублированный
Аудио2: AC3, 6 ch, 384 Kbps - РусскийРусский, Многоголосый (LDV)
Аудио3: AC3, 2 ch, 192 Kbps - РусскийРусский, Многоголосый (ТНТ)
Аудио4: AC3, 2 ch, 192 Kbps - РусскийРусский, Двухголосый (SDI Media)
Аудио5: AC3, 6 ch, 640 Kbps - РусскийРусский, Авторский (Андрей Гаврилов)
Аудио6: AC3, 2 ch, 192 Kbps - РусскийРусский, Авторский (Сергей Визгунов)
Аудио7: AC3, 2 ch, 192 Kbps - УкраинскийУкраинский, Многоголосый (NovyChannel)
Аудио8: AC3, 2 ch, 192 Kbps - УкраинскийУкраинский, Многоголосый (IНТЕР)
Аудио9: AC3, 2 ch, 192 Kbps - УкраинскийУкраинский, Многоголосый (ICTV)
Аудио10: AC3, 6 ch, 640 Kbps - EnglishEnglish, Original
Субтитры: Русские полные (SRT), English full (SRT, SDH)

Как за пару секунд удалить ненужные аудиодорожки и субтитры (Внимание! После удаления вы не сможете поддержать раздачу)

Лог (x265 info)
x265 [info]: frame I: 541, Avg QP:16.96 kb/s: 30563.60
x265 [info]: frame P: 30574, Avg QP:18.51 kb/s: 22478.23
x265 [info]: frame B: 98523, Avg QP:20.65 kb/s: 7700.70
x265 [info]: Weighted P-Frames: Y:3.1% UV:2.7%
x265 [info]: Weighted B-Frames: Y:2.7% UV:2.2%
x265 [info]: consecutive B-frames: 2.9% 5.0% 7.3% 60.6% 8.2% 14.4% 0.9% 0.5% 0.0% 0.0% 0.0%
x265 [info]: encoded 129638 frames in 109881.21s (1.18 fps), 11281.26 kb/s, Avg QP:20.13
Медиаинфо
Общее
Уникальный идентификатор : 289012380046017358485169548990929917181 (0xD96DC27BE4111240BC5024F2859B54FD)
Полное имя : \\.\02.Час.пик.2.Rush.Hour.II.2001.BDRip-HEVC.1080p.mkv
Формат : Matroska
Версия формата : Version 4
Размер файла : 9,16 Гбайт
Продолжительность : 1 ч. 30 м.
Общий поток : 14,5 Мбит/сек
Название фильма : 02.Час.пик.2.Rush.Hour.II.2001.BDRip-HEVC.1080p
Дата кодирования : UTC 2021-04-02 08:24:01
Программа кодирования : mkvmerge v55.0.0 ('Waiting For Space') 64-bit
Библиотека кодирования : libebml v1.4.2 + libmatroska v1.6.4

Видео
Идентификатор : 1
Формат : HEVC
Формат/Информация : High Efficiency Video Coding
Профиль формата : Main 10@L4.1@High
Идентификатор кодека : V_MPEGH/ISO/HEVC
Продолжительность : 1 ч. 30 м.
Битрейт : 11,3 Мбит/сек
Ширина : 1 920 пикселей
Высота : 800 пикселей
Соотношение сторон : 2,40:1
Режим частоты кадров : Постоянный
Частота кадров : 23,976 (24000/1001) кадра/сек
Цветовое пространство : YUV
Субдискретизация насыщенности : 4:2:0
Битовая глубина : 10 бит
Бит/(Пиксели*Кадры) : 0.306
Размер потока : 7,10 Гбайт (78%)
Заголовок : Rush Hour 2 / Rip by OldGamer
Библиотека кодирования : x265 3.5+1-ce882936d:[Windows][GCC 10.2.0][64 bit] 10bit
Настройки программы : cpuid=1111039 / frame-threads=3 / numa-pools=8 / wpp / no-pmode / no-pme / no-psnr / no-ssim / log-level=2 / input-csp=1 / input-res=1920x800 / interlace=0 / total-frames=129638 / level-idc=41 / high-tier=1 / uhd-bd=0 / ref=5 / no-allow-non-conformance / no-repeat-headers / annexb / no-aud / no-hrd / info / hash=0 / no-temporal-layers / open-gop / min-keyint=23 / keyint=240 / gop-lookahead=0 / bframes=10 / b-adapt=2 / b-pyramid / bframe-bias=0 / rc-lookahead=40 / lookahead-slices=0 / scenecut=40 / hist-scenecut=0 / radl=0 / no-splice / no-intra-refresh / ctu=32 / min-cu-size=8 / rect / amp / max-tu-size=32 / tu-inter-depth=4 / tu-intra-depth=4 / limit-tu=1 / rdoq-level=2 / dynamic-rd=0.00 / no-ssim-rd / signhide / no-tskip / nr-intra=0 / nr-inter=0 / no-constrained-intra / no-strong-intra-smoothing / max-merge=5 / limit-refs=3 / no-limit-modes / me=3 / subme=7 / merange=57 / temporal-mvp / no-frame-dup / no-hme / weightp / weightb / no-analyze-src-pics / deblock=-3:-2 / no-sao / no-sao-non-deblock / rd=6 / selective-sao=0 / no-early-skip / rskip / no-fast-intra / no-tskip-fast / no-cu-lossless / b-intra / no-splitrd-skip / rdpenalty=0 / psy-rd=2.00 / psy-rdoq=1.00 / no-rd-refine / no-lossless / cbqpoffs=0 / crqpoffs=0 / rc=crf / crf=19.0 / qcomp=0.72 / qpstep=4 / stats-write=0 / stats-read=0 / vbv-maxrate=50000 / vbv-bufsize=50000 / vbv-init=0.9 / min-vbv-fullness=50.0 / max-vbv-fullness=80.0 / crf-max=0.0 / crf-min=0.0 / ipratio=1.40 / pbratio=1.30 / aq-mode=1 / aq-strength=1.00 / no-cutree / zone-count=1 / zones: / start-frame=126843 / end-frame=129638 / qp=35 / no-strict-cbr / qg-size=32 / no-rc-grain / qpmax=69 / qpmin=0 / no-const-vbv / sar=1 / overscan=0 / videoformat=5 / range=0 / colorprim=2 / transfer=2 / colormatrix=2 / chromaloc=0 / display-window=0 / cll=0,0 / min-luma=0 / max-luma=1023 / log2-max-poc-lsb=8 / vui-timing-info / vui-hrd-info / slices=1 / no-opt-qp-pps / no-opt-ref-list-length-pps / no-multi-pass-opt-rps / scenecut-bias=0.00 / hist-threshold=0.03 / no-opt-cu-delta-qp / no-aq-motion / no-hdr10 / no-hdr10-opt / no-dhdr10-opt / no-idr-recovery-sei / analysis-reuse-level=0 / analysis-save-reuse-level=0 / analysis-load-reuse-level=0 / scale-factor=0 / refine-intra=0 / refine-inter=0 / refine-mv=1 / refine-ctu-distortion=0 / no-limit-sao / ctu-info=0 / no-lowpass-dct / refine-analysis-type=0 / copy-pic=1 / max-ausize-factor=1.0 / no-dynamic-refine / no-single-sei / no-hevc-aq / no-svt / no-field / qp-adaptation-range=1.00 / scenecut-aware-qp=0conformance-window-offsets / right=0 / bottom=0 / decoder-max-rate=0 / no-vbv-live-multi-pass
Язык : English
Default : Да
Forced : Нет

Аудио #1
Идентификатор : 2
Формат : AC-3
Формат/Информация : Audio Coding 3
Коммерческое название : Dolby Digital
Идентификатор кодека : A_AC3
Продолжительность : 1 ч. 30 м.
Вид битрейта : Постоянный
Битрейт : 448 Кбит/сек
Каналы : 6 каналов
Channel layout : L R C LFE Ls Rs
Частота : 48,0 КГц
Частота кадров : 31,250 кадров/сек (1536 SPF)
Метод сжатия : С потерями
Размер потока : 289 Мбайт (3%)
Заголовок : DUB
Язык : Russian
Service kind : Complete Main
Default : Да
Forced : Нет

Аудио #2
Идентификатор : 3
Формат : AC-3
Формат/Информация : Audio Coding 3
Коммерческое название : Dolby Digital
Идентификатор кодека : A_AC3
Продолжительность : 1 ч. 30 м.
Вид битрейта : Постоянный
Битрейт : 384 Кбит/сек
Каналы : 6 каналов
Channel layout : L R C LFE Ls Rs
Частота : 48,0 КГц
Частота кадров : 31,250 кадров/сек (1536 SPF)
Метод сжатия : С потерями
Размер потока : 248 Мбайт (3%)
Заголовок : MVO (LDV)
Язык : Russian
Service kind : Complete Main
Default : Нет
Forced : Нет

Аудио #3
Идентификатор : 4
Формат : AC-3
Формат/Информация : Audio Coding 3
Коммерческое название : Dolby Digital
Идентификатор кодека : A_AC3
Продолжительность : 1 ч. 30 м.
Вид битрейта : Постоянный
Битрейт : 192 Кбит/сек
Каналы : 2 канала
Channel layout : L R
Частота : 48,0 КГц
Частота кадров : 31,250 кадров/сек (1536 SPF)
Метод сжатия : С потерями
Размер потока : 124 Мбайт (1%)
Заголовок : MVO (ТНТ)
Язык : Russian
Service kind : Complete Main
Default : Нет
Forced : Нет

Аудио #4
Идентификатор : 5
Формат : AC-3
Формат/Информация : Audio Coding 3
Коммерческое название : Dolby Digital
Идентификатор кодека : A_AC3
Продолжительность : 1 ч. 30 м.
Вид битрейта : Постоянный
Битрейт : 192 Кбит/сек
Каналы : 2 канала
Channel layout : L R
Частота : 48,0 КГц
Частота кадров : 31,250 кадров/сек (1536 SPF)
Метод сжатия : С потерями
Размер потока : 124 Мбайт (1%)
Заголовок : DVO (SDI Media)
Язык : Russian
Service kind : Complete Main
Default : Нет
Forced : Нет

Аудио #5
Идентификатор : 6
Формат : AC-3
Формат/Информация : Audio Coding 3
Коммерческое название : Dolby Digital
Идентификатор кодека : A_AC3
Продолжительность : 1 ч. 30 м.
Вид битрейта : Постоянный
Битрейт : 640 Кбит/сек
Каналы : 6 каналов
Channel layout : L R C LFE Ls Rs
Частота : 48,0 КГц
Частота кадров : 31,250 кадров/сек (1536 SPF)
Метод сжатия : С потерями
Размер потока : 413 Мбайт (4%)
Заголовок : AVO (Андрей Гаврилов)
Язык : Russian
Service kind : Complete Main
Default : Нет
Forced : Нет

Аудио #6
Идентификатор : 7
Формат : AC-3
Формат/Информация : Audio Coding 3
Коммерческое название : Dolby Digital
Идентификатор кодека : A_AC3
Продолжительность : 1 ч. 30 м.
Вид битрейта : Постоянный
Битрейт : 192 Кбит/сек
Каналы : 2 канала
Channel layout : L R
Частота : 48,0 КГц
Частота кадров : 31,250 кадров/сек (1536 SPF)
Метод сжатия : С потерями
Размер потока : 124 Мбайт (1%)
Заголовок : AVO (Сергей Визгунов)
Язык : Russian
Service kind : Complete Main
Default : Нет
Forced : Нет

Аудио #7
Идентификатор : 8
Формат : AC-3
Формат/Информация : Audio Coding 3
Коммерческое название : Dolby Digital
Идентификатор кодека : A_AC3
Продолжительность : 1 ч. 30 м.
Вид битрейта : Постоянный
Битрейт : 192 Кбит/сек
Каналы : 2 канала
Channel layout : L R
Частота : 48,0 КГц
Частота кадров : 31,250 кадров/сек (1536 SPF)
Метод сжатия : С потерями
Размер потока : 124 Мбайт (1%)
Заголовок : MVO (NovyChannel)
Язык : Ukrainian
Service kind : Complete Main
Default : Нет
Forced : Нет

Аудио #8
Идентификатор : 9
Формат : AC-3
Формат/Информация : Audio Coding 3
Коммерческое название : Dolby Digital
Идентификатор кодека : A_AC3
Продолжительность : 1 ч. 30 м.
Вид битрейта : Постоянный
Битрейт : 192 Кбит/сек
Каналы : 2 канала
Channel layout : L R
Частота : 48,0 КГц
Частота кадров : 31,250 кадров/сек (1536 SPF)
Метод сжатия : С потерями
Размер потока : 124 Мбайт (1%)
Заголовок : MVO (IНТЕР)
Язык : Ukrainian
Service kind : Complete Main
Default : Нет
Forced : Нет

Аудио #9
Идентификатор : 10
Формат : AC-3
Формат/Информация : Audio Coding 3
Коммерческое название : Dolby Digital
Идентификатор кодека : A_AC3
Продолжительность : 1 ч. 30 м.
Вид битрейта : Постоянный
Битрейт : 192 Кбит/сек
Каналы : 2 канала
Channel layout : L R
Частота : 48,0 КГц
Частота кадров : 31,250 кадров/сек (1536 SPF)
Метод сжатия : С потерями
Размер потока : 124 Мбайт (1%)
Заголовок : MVO (ICTV)
Язык : Ukrainian
Service kind : Complete Main
Default : Нет
Forced : Нет

Аудио #10
Идентификатор : 11
Формат : AC-3
Формат/Информация : Audio Coding 3
Коммерческое название : Dolby Digital
Идентификатор кодека : A_AC3
Продолжительность : 1 ч. 30 м.
Вид битрейта : Постоянный
Битрейт : 640 Кбит/сек
Каналы : 6 каналов
Channel layout : L R C LFE Ls Rs
Частота : 48,0 КГц
Частота кадров : 31,250 кадров/сек (1536 SPF)
Метод сжатия : С потерями
Размер потока : 413 Мбайт (4%)
Язык : English
Service kind : Complete Main
Default : Нет
Forced : Нет

Текст #1
Идентификатор : 12
Формат : UTF-8
Идентификатор кодека : S_TEXT/UTF8
Идентификатор кодека/Информация : UTF-8 Plain Text
Продолжительность : 1 ч. 26 м.
Битрейт : 107 бит/сек
Count of elements : 1101
Размер потока : 68,0 Кбайт (0%)
Заголовок : Full
Язык : Russian
Default : Нет
Forced : Нет

Текст #2
Идентификатор : 13
Формат : UTF-8
Идентификатор кодека : S_TEXT/UTF8
Идентификатор кодека/Информация : UTF-8 Plain Text
Продолжительность : 1 ч. 26 м.
Битрейт : 65 бит/сек
Count of elements : 1101
Размер потока : 41,2 Кбайт (0%)
Заголовок : Full
Язык : English
Default : Нет
Forced : Нет

Текст #3
Идентификатор : 14
Формат : UTF-8
Идентификатор кодека : S_TEXT/UTF8
Идентификатор кодека/Информация : UTF-8 Plain Text
Продолжительность : 1 ч. 29 м.
Битрейт : 69 бит/сек
Count of elements : 1416
Размер потока : 45,1 Кбайт (0%)
Заголовок : SDH
Язык : English
Default : Нет
Forced : Нет

Меню
00:00:00.000 : en:Deadly Delivery
00:04:37.235 : en:Triad Club
00:13:30.601 : en:Heaven On Earth
00:21:42.884 : en:Bigger than Ricky Tan
00:27:48.833 : en:Out to Sea
00:33:22.917 : en:Tan Overboard
00:38:50.244 : en:Follow the Rich White Man
00:47:11.078 : en:Crenshaw Kitchen
00:51:18.116 : en:Road Trip
00:58:56.241 : en:Red Dragon
01:03:52.036 : en:Let's Play Some Craps!
01:08:59.093 : en:An Explosive Situation
01:14:51.570 : en:Carter v. Hu Li
01:17:29.603 : en:Just Like Your Father
01:22:03.335 : en:Goodbye?
01:24:38.114 : en:Outtakes
01:30:06.776 : en:End Credits
Загрузка...Cкриншот1 Час пик 2 / Rush Hour 2 (2001) BDRip 1080p [HEVC] 10 bit от OldGamerЗагрузка...Cкриншот2 Час пик 2 / Rush Hour 2 (2001) BDRip 1080p [HEVC] 10 bit от OldGamerЗагрузка...Cкриншот3 Час пик 2 / Rush Hour 2 (2001) BDRip 1080p [HEVC] 10 bit от OldGamerЗагрузка...Cкриншот4 Час пик 2 / Rush Hour 2 (2001) BDRip 1080p [HEVC] 10 bit от OldGamer
Сэмпл
3. Час пик 3 / Rush Hour 3 (2007) BDRip 1080p [HEVC] 10 bit от OldGamer
HEVC
10 bit
Обложка Час пик 3 / Rush Hour 3 (2007) BDRip 1080p [HEVC] 10 bit от OldGamer Год: 2007
Страна: США, Германия
Студия: Arthur Sarkissian Productions, New Line Cinema, Roger Birnbaum Productions, Unlike Film Productions
Жанр: Боевик, Триллер, Комедия, Криминал
Продолжительность: 01:30:47

Режиссер: Бретт Рэтнер
В ролях: Крис Такер, Джеки Чан, Макс фон Сюдов, Хироюки Санада, Иван Атталь, Юки Кудо, Ноэми Ленуар, Чжан Цзинчу, Ма Ци, Дэна Айви

Описание: Лос-анджелесского полицейского Картера понижают в должности. Гонконгский полицейский Ли должен охранять китайского посла Хана, который прибыл в Лос-Анджелес, чтобы разоблачить китайский криминальный синдикат. Наёмному убийце удаётся ранить посла. Ли бросается вдогонку за преступником. Картер мчится на место преступления, но только мешает Ли.


Исходник: Blu-Ray Remux 1080p
Видео: 1920x800 (2.40:1), 7794 Кбит/сек, HEVC (Main10@L.4.1@High)
Аудио1: AC3, 6 ch, 448 Kbps - РусскийРусский, Дублированный
Аудио2: AC3, 6 ch, 640 Kbps - РусскийРусский, Авторский (Андрей Гаврилов)
Аудио3: AC3, 6 ch, 640 Kbps - РусскийРусский, Авторский (Владимир Королёв)
Аудио4: AC3, 2 ch, 192 Kbps - УкраинскийУкраинский, Многоголосый (ICTV, Novyi Kanal)
Аудио5: AC3, 2 ch, 192 Kbps - УкраинскийУкраинский, Многоголосый (Inter)
Аудио6: AC3, 6 ch, 640 Kbps - EnglishEnglish, Original
Субтитры: Русские форсированные и полные (SRT), украинские полные (SRT), English full (SRT)

Как за пару секунд удалить ненужные аудиодорожки и субтитры (Внимание! После удаления вы не сможете поддержать раздачу)

Лог (x265 info)
x265 [info]: frame I: 545, Avg QP:17.88 kb/s: 19918.65
x265 [info]: frame P: 28240, Avg QP:19.05 kb/s: 14463.90
x265 [info]: frame B: 101822, Avg QP:21.59 kb/s: 5878.01
x265 [info]: Weighted P-Frames: Y:6.3% UV:5.2%
x265 [info]: Weighted B-Frames: Y:8.1% UV:5.6%
x265 [info]: consecutive B-frames: 4.0% 7.4% 7.0% 39.8% 10.2% 23.5% 2.8% 4.8% 0.2% 0.2% 0.1%
x265 [info]: encoded 130607 frames in 82113.82s (1.59 fps), 7793.05 kb/s, Avg QP:21.03
Медиаинфо
Общее
Уникальный идентификатор : 81314297760433134856974772264790569421 (0x3D2C90689E8A5DED2DFF4A5662DEB1CD)
Полное имя : \\.\03.Час.пик.3.Rush.Hour.III.2007.BDRip-HEVC.1080p.mkv
Формат : Matroska
Версия формата : Version 4
Размер файла : 6,69 Гбайт
Продолжительность : 1 ч. 30 м.
Общий поток : 10,5 Мбит/сек
Название фильма : 03.Час.пик.3.Rush.Hour.III.2007.BDRip-HEVC.1080p
Дата кодирования : UTC 2021-04-04 09:43:50
Программа кодирования : mkvmerge v55.0.0 ('Waiting For Space') 64-bit
Библиотека кодирования : libebml v1.4.2 + libmatroska v1.6.4

Видео
Идентификатор : 1
Формат : HEVC
Формат/Информация : High Efficiency Video Coding
Профиль формата : Main 10@L4.1@High
Идентификатор кодека : V_MPEGH/ISO/HEVC
Продолжительность : 1 ч. 30 м.
Битрейт : 7 794 Кбит/сек
Ширина : 1 920 пикселей
Высота : 800 пикселей
Соотношение сторон : 2,40:1
Режим частоты кадров : Постоянный
Частота кадров : 23,976 (24000/1001) кадра/сек
Цветовое пространство : YUV
Субдискретизация насыщенности : 4:2:0
Битовая глубина : 10 бит
Бит/(Пиксели*Кадры) : 0.212
Размер потока : 4,94 Гбайт (74%)
Заголовок : Rush Hour 3 / Rip by OldGamer
Библиотека кодирования : x265 3.5+1-ce882936d:[Windows][GCC 10.2.0][64 bit] 10bit
Настройки программы : cpuid=1111039 / frame-threads=3 / numa-pools=8 / wpp / no-pmode / no-pme / no-psnr / no-ssim / log-level=2 / input-csp=1 / input-res=1920x800 / interlace=0 / total-frames=130607 / level-idc=41 / high-tier=1 / uhd-bd=0 / ref=5 / no-allow-non-conformance / no-repeat-headers / annexb / no-aud / no-hrd / info / hash=0 / no-temporal-layers / open-gop / min-keyint=23 / keyint=240 / gop-lookahead=0 / bframes=10 / b-adapt=2 / b-pyramid / bframe-bias=0 / rc-lookahead=40 / lookahead-slices=0 / scenecut=40 / hist-scenecut=0 / radl=0 / no-splice / no-intra-refresh / ctu=32 / min-cu-size=8 / rect / amp / max-tu-size=32 / tu-inter-depth=4 / tu-intra-depth=4 / limit-tu=1 / rdoq-level=2 / dynamic-rd=0.00 / no-ssim-rd / signhide / no-tskip / nr-intra=0 / nr-inter=0 / no-constrained-intra / no-strong-intra-smoothing / max-merge=5 / limit-refs=3 / no-limit-modes / me=3 / subme=7 / merange=57 / temporal-mvp / no-frame-dup / no-hme / weightp / weightb / no-analyze-src-pics / deblock=-3:-2 / no-sao / no-sao-non-deblock / rd=6 / selective-sao=0 / no-early-skip / rskip / no-fast-intra / no-tskip-fast / no-cu-lossless / b-intra / no-splitrd-skip / rdpenalty=0 / psy-rd=2.00 / psy-rdoq=1.00 / no-rd-refine / no-lossless / cbqpoffs=0 / crqpoffs=0 / rc=crf / crf=19.6 / qcomp=0.72 / qpstep=4 / stats-write=0 / stats-read=0 / vbv-maxrate=50000 / vbv-bufsize=50000 / vbv-init=0.9 / min-vbv-fullness=50.0 / max-vbv-fullness=80.0 / crf-max=0.0 / crf-min=0.0 / ipratio=1.40 / pbratio=1.30 / aq-mode=1 / aq-strength=1.00 / no-cutree / zone-count=1 / zones: / start-frame=121479 / end-frame=130607 / qp=35 / no-strict-cbr / qg-size=32 / no-rc-grain / qpmax=69 / qpmin=0 / no-const-vbv / sar=1 / overscan=0 / videoformat=5 / range=0 / colorprim=2 / transfer=2 / colormatrix=2 / chromaloc=0 / display-window=0 / cll=0,0 / min-luma=0 / max-luma=1023 / log2-max-poc-lsb=8 / vui-timing-info / vui-hrd-info / slices=1 / no-opt-qp-pps / no-opt-ref-list-length-pps / no-multi-pass-opt-rps / scenecut-bias=0.00 / hist-threshold=0.03 / no-opt-cu-delta-qp / no-aq-motion / no-hdr10 / no-hdr10-opt / no-dhdr10-opt / no-idr-recovery-sei / analysis-reuse-level=0 / analysis-save-reuse-level=0 / analysis-load-reuse-level=0 / scale-factor=0 / refine-intra=0 / refine-inter=0 / refine-mv=1 / refine-ctu-distortion=0 / no-limit-sao / ctu-info=0 / no-lowpass-dct / refine-analysis-type=0 / copy-pic=1 / max-ausize-factor=1.0 / no-dynamic-refine / no-single-sei / no-hevc-aq / no-svt / no-field / qp-adaptation-range=1.00 / scenecut-aware-qp=0conformance-window-offsets / right=0 / bottom=0 / decoder-max-rate=0 / no-vbv-live-multi-pass
Язык : English
Default : Да
Forced : Нет

Аудио #1
Идентификатор : 2
Формат : AC-3
Формат/Информация : Audio Coding 3
Коммерческое название : Dolby Digital
Идентификатор кодека : A_AC3
Продолжительность : 1 ч. 30 м.
Вид битрейта : Постоянный
Битрейт : 448 Кбит/сек
Каналы : 6 каналов
Channel layout : L R C LFE Ls Rs
Частота : 48,0 КГц
Частота кадров : 31,250 кадров/сек (1536 SPF)
Метод сжатия : С потерями
Размер потока : 291 Мбайт (4%)
Заголовок : DUB
Язык : Russian
Service kind : Complete Main
Default : Да
Forced : Нет

Аудио #2
Идентификатор : 3
Формат : AC-3
Формат/Информация : Audio Coding 3
Коммерческое название : Dolby Digital
Идентификатор кодека : A_AC3
Продолжительность : 1 ч. 30 м.
Вид битрейта : Постоянный
Битрейт : 640 Кбит/сек
Каналы : 6 каналов
Channel layout : L R C LFE Ls Rs
Частота : 48,0 КГц
Частота кадров : 31,250 кадров/сек (1536 SPF)
Метод сжатия : С потерями
Размер потока : 416 Мбайт (6%)
Заголовок : AVO (Андрей Гаврилов)
Язык : Russian
Service kind : Complete Main
Default : Нет
Forced : Нет

Аудио #3
Идентификатор : 4
Формат : AC-3
Формат/Информация : Audio Coding 3
Коммерческое название : Dolby Digital
Идентификатор кодека : A_AC3
Продолжительность : 1 ч. 30 м.
Вид битрейта : Постоянный
Битрейт : 640 Кбит/сек
Каналы : 6 каналов
Channel layout : L R C LFE Ls Rs
Частота : 48,0 КГц
Частота кадров : 31,250 кадров/сек (1536 SPF)
Метод сжатия : С потерями
Размер потока : 416 Мбайт (6%)
Заголовок : AVO (Владимир Королёв)
Язык : Russian
Service kind : Complete Main
Default : Нет
Forced : Нет

Аудио #4
Идентификатор : 5
Формат : AC-3
Формат/Информация : Audio Coding 3
Коммерческое название : Dolby Digital
Идентификатор кодека : A_AC3
Продолжительность : 1 ч. 30 м.
Вид битрейта : Постоянный
Битрейт : 192 Кбит/сек
Каналы : 2 канала
Channel layout : L R
Частота : 48,0 КГц
Частота кадров : 31,250 кадров/сек (1536 SPF)
Метод сжатия : С потерями
Размер потока : 125 Мбайт (2%)
Заголовок : MVO (ICTV, Novyi Kanal)
Язык : Ukrainian
Service kind : Complete Main
Default : Нет
Forced : Нет

Аудио #5
Идентификатор : 6
Формат : AC-3
Формат/Информация : Audio Coding 3
Коммерческое название : Dolby Digital
Идентификатор кодека : A_AC3
Продолжительность : 1 ч. 30 м.
Вид битрейта : Постоянный
Битрейт : 192 Кбит/сек
Каналы : 2 канала
Channel layout : L R
Частота : 48,0 КГц
Частота кадров : 31,250 кадров/сек (1536 SPF)
Метод сжатия : С потерями
Размер потока : 125 Мбайт (2%)
Заголовок : MVO (Inter)
Язык : Ukrainian
Service kind : Complete Main
Default : Нет
Forced : Нет

Аудио #6
Идентификатор : 7
Формат : AC-3
Формат/Информация : Audio Coding 3
Коммерческое название : Dolby Digital
Идентификатор кодека : A_AC3
Продолжительность : 1 ч. 30 м.
Вид битрейта : Постоянный
Битрейт : 640 Кбит/сек
Каналы : 6 каналов
Channel layout : L R C LFE Ls Rs
Частота : 48,0 КГц
Частота кадров : 31,250 кадров/сек (1536 SPF)
Метод сжатия : С потерями
Размер потока : 416 Мбайт (6%)
Язык : English
Service kind : Complete Main
Default : Нет
Forced : Нет

Текст #1
Идентификатор : 8
Формат : UTF-8
Идентификатор кодека : S_TEXT/UTF8
Идентификатор кодека/Информация : UTF-8 Plain Text
Продолжительность : 1 ч. 3 м.
Битрейт : 2 бит/сек
Count of elements : 19
Размер потока : 1,19 Кбайт (0%)
Заголовок : Forced
Язык : Russian
Default : Да
Forced : Нет

Текст #2
Идентификатор : 9
Формат : UTF-8
Идентификатор кодека : S_TEXT/UTF8
Идентификатор кодека/Информация : UTF-8 Plain Text
Продолжительность : 1 ч. 23 м.
Битрейт : 103 бит/сек
Count of elements : 1220
Размер потока : 63,6 Кбайт (0%)
Язык : Russian
Default : Нет
Forced : Нет

Текст #3
Идентификатор : 10
Формат : UTF-8
Идентификатор кодека : S_TEXT/UTF8
Идентификатор кодека/Информация : UTF-8 Plain Text
Продолжительность : 1 ч. 23 м.
Битрейт : 98 бит/сек
Count of elements : 1357
Размер потока : 60,6 Кбайт (0%)
Язык : Ukrainian
Default : Нет
Forced : Нет

Текст #4
Идентификатор : 11
Формат : UTF-8
Идентификатор кодека : S_TEXT/UTF8
Идентификатор кодека/Информация : UTF-8 Plain Text
Продолжительность : 1 ч. 26 м.
Битрейт : 66 бит/сек
Count of elements : 1458
Размер потока : 42,5 Кбайт (0%)
Язык : English
Default : Нет
Forced : Нет

Меню
00:00:00.000 : en:Main Titles
00:05:06.556 : en:Attack at the World Court
00:09:24.230 : en:The Promise
00:12:03.597 : en:The Master
00:17:21.081 : en:Hospital Ambush
00:20:44.117 : en:Interrogation
00:24:06.111 : en:Welcome to Paris
00:29:48.661 : en:Searching for Genevieve
00:35:57.989 : en:Superspy Chase
00:41:56.472 : en:Brothers
00:47:48.323 : en:Showtime!
00:54:17.212 : en:Shy Shen
01:05:50.988 : en:The First Cut
01:11:06.512 : en:Tower Duel
01:15:14.760 : en:What Goes Up
01:21:43.857 : en:Outtakes/End Credits
Загрузка...Cкриншот1 Час пик 3 / Rush Hour 3 (2007) BDRip 1080p [HEVC] 10 bit от OldGamerЗагрузка...Cкриншот2 Час пик 3 / Rush Hour 3 (2007) BDRip 1080p [HEVC] 10 bit от OldGamerЗагрузка...Cкриншот3 Час пик 3 / Rush Hour 3 (2007) BDRip 1080p [HEVC] 10 bit от OldGamerЗагрузка...Cкриншот4 Час пик 3 / Rush Hour 3 (2007) BDRip 1080p [HEVC] 10 bit от OldGamer
Сэмпл
Релиз-группа: RIPS CLUB
Торрент🧲 Магнет

Рейтинги КП и IMDB, кнопки "Позвать в чате" и "Спасибо", а также мультитрекерная статистика доступны только зарегистрированным/авторизованным пользователям!

Файлы: 3
  • Час.пик.Rush.Hour.1998-2007.BDRip-HEVC.1080p
    • 01.Час.пик.Rush.Hour.I.1998.BDRip-HEVC.1080p.mkv   6.5 ГБ
    • 02.Час.пик.2.Rush.Hour.II.2001.BDRip-HEVC.1080p.mkv   9.16 ГБ
    • 03.Час.пик.3.Rush.Hour.III.2007.BDRip-HEVC.1080p.mkv   6.69 ГБ
Поблагодарили: 19
alexyak, and50, bright, Brooklyn, D16T, donadar, Elico1977, FFantasy, Giggalo, Kiran, ko1ob, makss333, michael90, MIGRANT, nazarpavluwun, Nuclear70, Rezident, Spartanec1308, StarLord
OldGamer
4182173 (3)  22.35 ГБ

Добавление нового комментария

Добавление комментариев доступно только зарегистрированным/авторизованным пользователям.
Аватар StarLord
  StarLord  
OldGamer писал(а):
Судя по двухгодичной давности пикче в инстаграмме от комика? хлопец потроллил, народ купился :) да и не такой уж это сверхмегаблокбастер, чтобы с тех пор ни одного слуха не просочилось:)
Не верится. Да и не надо. Все эти сиквелы с постаревшими актёрами может и срубят баблишка на ностальгирующем поколении, но не более того, они не смогут сделать добротное кино на том же уровне. А с учётом нынешней политкорректности Голливуда - я вообще был бы против съёмок четвёртой части.
Кто знает? Бед бойз вроде выстрелили. Может и тут выйдет?)
Аватар OldGamer
  OldGamer  
StarLord писал(а):
Судя по imdb, будет - https://www.imdb.com/title/tt2324606/
Судя по двухгодичной давности пикче в инстаграмме от комика? хлопец потроллил, народ купился :) да и не такой уж это сверхмегаблокбастер, чтобы с тех пор ни одного слуха не просочилось:)
Не верится. Да и не надо. Все эти сиквелы с постаревшими актёрами может и срубят баблишка на ностальгирующем поколении, но не более того, они не смогут сделать добротное кино на том же уровне. А с учётом нынешней политкорректности Голливуда - я вообще был бы против съёмок четвёртой части.
Аватар StarLord
  StarLord  
donadar писал(а):
Круто! Как-же хочеться и 4 часть.
Судя по imdb, будет - https://www.imdb.com/title/tt2324606/
Аватар не указан
  donadar  
Круто! Как-же хочеться и 4 часть.