💬 Мини-чат

Giggaloнет ли у кого в планах "Давайте потанцуем" 2004
GiggaloСообщение удалено (удалил: Giggalo)
StarLordOldGamer, как дела?)
StarLordOldGamer, ура, вернулся 😄
OldGamerRezident, можете скачать этот фильм от другого релизёра, там невелика разница, а раздающие точно есть
OldGamerGiggalo, https://tsya.ru/mnemonic.html
NoMaDСообщение удалено (удалил: NoMaD)
NoMaDСообщение удалено (удалил: NoMaD)
GiggaloСообщение удалено (удалил: Giggalo)
GiggaloСообщение удалено (удалил: Giggalo)
Spartanec1308Был днём
StarLordGiggalo, наверное отрубало беднягу, целый день его нету 😅
GiggaloСообщение удалено (удалил: Giggalo)
OldGamerДоброе. Работы много, некогда на перинах валяться.
GiggaloСообщение удалено (удалил: Giggalo)
GiggaloСообщение удалено (удалил: Giggalo)
  • StarLord
  • Giggalo
  • Andrey_alex
  • donadar
  • litanglong
  • netfigni
Отправка сообщений доступна только зарегистрированным/авторизованным пользователям.
Онлайн (за 10 мин.): 6

Daft Punk. Освобожденные / Daft Punk. Unchained (2015) BDRip 1080p [HEVC] 10 bit от -Star-Lord- (RG RIPS CLUB)

HEVC
10 bit
Обложка Daft Punk. Освобожденные / Daft Punk. Unchained (2015) BDRip 1080p [HEVC] 10 bit от -Star-Lord- (RG RIPS CLUB) Год: 2015
Страна: Франция, США
Студия: BBC Worldwide Productions
Жанр: Документальный, Музыка
Продолжительность: 01:23:59

Режиссер: Эрве Мартин-Дельпьерр
В ролях: Тома Бангальтер, Ги-Мануэль де Омем-Кристо, Skrillex, Жан-Даниэль Бовалле, Daniel Dauxerre, Serge Nicolas, Pascal Bertin

Описание: Фильм рассказывает об истории становлении легендарного французского электронного дуэта Daft Punk, о переломных моментах в его карьере и содержит интервью людей, которым посчастливилось работать с группой за последние 20 лет.


Видео: 1920x1080, ~10250 Кбит/сек
Аудио1: AAC, 2 ch, 128 Kbps - РусскийРусский, Одноголосый
Аудио2: AAC, 2 ch, 192 Kbps - УкраинскийУкраинский, Одноголосый (В одне рило)
Аудио3: DTS, 6 ch, 1509 Kbps - АнглийскийАнглийский, Оригинал
Субтитры: украинские, английские

Как за пару секунд удалить ненужные аудиодорожки и субтитры (Внимание! После удаления вы не сможете поддержать раздачу)

Лог (x265 info)
x265 [info]: frame I: 998, Avg QP:16.71 kb/s: 27026.97
x265 [info]: frame P: 27718, Avg QP:17.88 kb/s: 15131.28
x265 [info]: frame B: 97260, Avg QP:19.92 kb/s: 8687.55
x265 [info]: Weighted P-Frames: Y:7.6% UV:5.4%
x265 [info]: Weighted B-Frames: Y:8.1% UV:5.7%
x265 [info]: consecutive B-frames: 11.4% 7.0% 15.5% 22.5% 10.9% 23.6% 3.5% 2.1% 0.9% 0.7% 0.6% 0.8% 0.1% 0.1% 0.1% 0.1% 0.1%

encoded 125976 frames in 157575.14s (0.80 fps), 10250.62 kb/s, Avg QP:19.44
Медиаинфо
General
Unique ID : 261533527978271098241142222366297744443 (0xC4C1867A067CB049A5901FF463AEE43B)
Complete name : Daft Punk Unchained (2015) BDRip 1080p H.265 [RUS_UKR_ENG] [RIPS-CLUB].mkv
Format : Matroska
Format version : Version 4
File size : 7.09 GiB
Duration : 1 h 23 min
Overall bit rate : 12.1 Mb/s
Movie name : Daft Punk. Освобожденные / Daft Punk: Без гальм / Daft Punk Unchained (2015)
Encoded date : UTC 2021-03-28 10:05:06
Writing application : mkvmerge v20.0.0 ('I Am The Sun') 64-bit
Writing library : libebml v1.3.5 + libmatroska v1.4.8
Cover : Yes
Attachments : Cover.jpg

Video
ID : 1
Format : HEVC
Format/Info : High Efficiency Video Coding
Format profile : Main 10@L4.1@High
Codec ID : V_MPEGH/ISO/HEVC
Duration : 1 h 23 min
Bit rate : 10.3 Mb/s
Width : 1 920 pixels
Height : 1 080 pixels
Display aspect ratio : 16:9
Frame rate mode : Constant
Frame rate : 25.000 FPS
Color space : YUV
Chroma subsampling : 4:2:0
Bit depth : 10 bits
Bits/(Pixel*Frame) : 0.198
Stream size : 6.01 GiB (85%)
Title : Daft Punk. Освобожденные / Daft Punk: Без гальм / Daft Punk Unchained (2015)
Writing library : x265 3.5+1-ce882936d:[Windows][GCC 10.2.0][64 bit] 10bit
Encoding settings : cpuid=1111039 / frame-threads=3 / numa-pools=12 / wpp / no-pmode / no-pme / no-psnr / no-ssim / log-level=2 / input-csp=1 / input-res=1920x1080 / interlace=0 / total-frames=125976 / level-idc=41 / high-tier=1 / uhd-bd=0 / ref=5 / no-allow-non-conformance / no-repeat-headers / annexb / no-aud / no-hrd / info / hash=0 / no-temporal-layers / open-gop / min-keyint=24 / keyint=240 / gop-lookahead=0 / bframes=16 / b-adapt=2 / b-pyramid / bframe-bias=0 / rc-lookahead=60 / lookahead-slices=4 / scenecut=40 / hist-scenecut=0 / radl=0 / no-splice / no-intra-refresh / ctu=32 / min-cu-size=8 / rect / amp / max-tu-size=32 / tu-inter-depth=4 / tu-intra-depth=4 / limit-tu=1 / rdoq-level=2 / dynamic-rd=0.00 / no-ssim-rd / signhide / no-tskip / nr-intra=0 / nr-inter=0 / no-constrained-intra / no-strong-intra-smoothing / max-merge=5 / limit-refs=2 / limit-modes / me=3 / subme=7 / merange=57 / temporal-mvp / no-frame-dup / no-hme / weightp / weightb / no-analyze-src-pics / deblock=-3:-3 / no-sao / no-sao-non-deblock / rd=6 / selective-sao=0 / no-early-skip / no-rskip / no-fast-intra / no-tskip-fast / no-cu-lossless / no-b-intra / no-splitrd-skip / rdpenalty=0 / psy-rd=2.00 / psy-rdoq=1.00 / no-rd-refine / no-lossless / cbqpoffs=0 / crqpoffs=0 / rc=crf / crf=21.0 / qcomp=0.70 / qpstep=4 / stats-write=0 / stats-read=0 / vbv-maxrate=50000 / vbv-bufsize=50000 / vbv-init=0.9 / min-vbv-fullness=50.0 / max-vbv-fullness=80.0 / crf-max=0.0 / crf-min=0.0 / ipratio=1.40 / pbratio=1.30 / aq-mode=1 / aq-strength=1.00 / no-cutree / zone-count=0 / no-strict-cbr / qg-size=32 / no-rc-grain / qpmax=69 / qpmin=0 / no-const-vbv / sar=1 / overscan=0 / videoformat=5 / range=0 / colorprim=2 / transfer=2 / colormatrix=2 / chromaloc=0 / display-window=0 / cll=0,0 / min-luma=0 / max-luma=1023 / log2-max-poc-lsb=8 / vui-timing-info / vui-hrd-info / slices=1 / no-opt-qp-pps / no-opt-ref-list-length-pps / no-multi-pass-opt-rps / scenecut-bias=0.05 / hist-threshold=0.03 / no-opt-cu-delta-qp / no-aq-motion / no-hdr10 / no-hdr10-opt / no-dhdr10-opt / no-idr-recovery-sei / analysis-reuse-level=0 / analysis-save-reuse-level=0 / analysis-load-reuse-level=0 / scale-factor=0 / refine-intra=0 / refine-inter=0 / refine-mv=1 / refine-ctu-distortion=0 / no-limit-sao / ctu-info=0 / no-lowpass-dct / refine-analysis-type=0 / copy-pic=1 / max-ausize-factor=1.0 / no-dynamic-refine / no-single-sei / no-hevc-aq / no-svt / no-field / qp-adaptation-range=1.00 / scenecut-aware-qp=0conformance-window-offsets / right=0 / bottom=0 / decoder-max-rate=0 / no-vbv-live-multi-pass
Default : Yes
Forced : Yes

Audio #1
ID : 2
Format : AAC LC
Format/Info : Advanced Audio Codec Low Complexity
Codec ID : A_AAC-2
Duration : 1 h 23 min
Bit rate : 128 kb/s
Channel(s) : 2 channels
Channel layout : L R
Sampling rate : 44.1 kHz
Frame rate : 43.066 FPS (1024 SPF)
Compression mode : Lossy
Stream size : 76.8 MiB (1%)
Title : AAC / 2.0 Ch / 128 kbps / VO
Language : Russian
Default : Yes
Forced : Yes

Audio #2
ID : 3
Format : AAC LC
Format/Info : Advanced Audio Codec Low Complexity
Codec ID : A_AAC-2
Duration : 1 h 23 min
Bit rate : 192 kb/s
Channel(s) : 2 channels
Channel layout : L R
Sampling rate : 48.0 kHz
Frame rate : 46.875 FPS (1024 SPF)
Compression mode : Lossy
Stream size : 118 MiB (2%)
Title : AAC / 2.0 Ch / 192 kbps / VO / В одне рило
Language : Ukrainian
Default : No
Forced : No

Audio #3
ID : 4
Format : DTS
Format/Info : Digital Theater Systems
Codec ID : A_DTS
Duration : 1 h 23 min
Bit rate mode : Constant
Bit rate : 1 509 kb/s
Channel(s) : 6 channels
Channel layout : C L R Ls Rs LFE
Sampling rate : 48.0 kHz
Frame rate : 93.750 FPS (512 SPF)
Bit depth : 24 bits
Compression mode : Lossy
Stream size : 906 MiB (12%)
Title : DTS / 5.1 Ch / 1509 kbps / Original
Language : English
Default : No
Forced : No

Text #1
ID : 5
Format : UTF-8
Codec ID : S_TEXT/UTF8
Codec ID/Info : UTF-8 Plain Text
Duration : 1 h 21 min
Bit rate : 104 b/s
Count of elements : 947
Stream size : 62.0 KiB (0%)
Title : Full
Language : Ukrainian
Default : No
Forced : No

Text #2
ID : 6
Format : UTF-8
Codec ID : S_TEXT/UTF8
Codec ID/Info : UTF-8 Plain Text
Duration : 1 h 23 min
Bit rate : 27 b/s
Count of elements : 447
Stream size : 16.9 KiB (0%)
Title : Full
Language : English
Default : No
Forced : No
Загрузка...Cкриншот1 Daft Punk. Освобожденные / Daft Punk. Unchained (2015) BDRip 1080p [HEVC] 10 bit от -Star-Lord- (RG RIPS CLUB)Загрузка...Cкриншот2 Daft Punk. Освобожденные / Daft Punk. Unchained (2015) BDRip 1080p [HEVC] 10 bit от -Star-Lord- (RG RIPS CLUB)Загрузка...Cкриншот3 Daft Punk. Освобожденные / Daft Punk. Unchained (2015) BDRip 1080p [HEVC] 10 bit от -Star-Lord- (RG RIPS CLUB)Загрузка...Cкриншот4 Daft Punk. Освобожденные / Daft Punk. Unchained (2015) BDRip 1080p [HEVC] 10 bit от -Star-Lord- (RG RIPS CLUB)
Релиз-группа: RIPS CLUB
Сэмпл Торрент🧲 Магнет

Рейтинги КП и IMDB, кнопки "Позвать в чате" и "Спасибо", а также мультитрекерная статистика доступны только зарегистрированным/авторизованным пользователям!

Файлы: 1
  • Daft Punk Unchained (2015) BDRip 1080p H.265 [RUS_UKR_ENG] [RIPS-CLUB].mkv   7.09 ГБ
Поблагодарили: 2
anderb, Nuclear70
StarLord
2961307.09 ГБ

Добавление нового комментария

Добавление комментариев доступно только зарегистрированным/авторизованным пользователям.
Аватар StarLord
  StarLord  
OldGamer писал(а):
Так есть оказывается озвучка в одно рыло 😆
Ага, только на малое количество документалок :(
Аватар OldGamer
  OldGamer  
Так есть оказывается озвучка в одно рыло 😆