💬 Мини-чат

Giggaloнет ли у кого в планах "Давайте потанцуем" 2004
GiggaloСообщение удалено (удалил: Giggalo)
StarLordOldGamer, как дела?)
StarLordOldGamer, ура, вернулся 😄
OldGamerRezident, можете скачать этот фильм от другого релизёра, там невелика разница, а раздающие точно есть
OldGamerGiggalo, https://tsya.ru/mnemonic.html
NoMaDСообщение удалено (удалил: NoMaD)
NoMaDСообщение удалено (удалил: NoMaD)
GiggaloСообщение удалено (удалил: Giggalo)
GiggaloСообщение удалено (удалил: Giggalo)
Spartanec1308Был днём
StarLordGiggalo, наверное отрубало беднягу, целый день его нету 😅
GiggaloСообщение удалено (удалил: Giggalo)
OldGamerДоброе. Работы много, некогда на перинах валяться.
GiggaloСообщение удалено (удалил: Giggalo)
GiggaloСообщение удалено (удалил: Giggalo)
Отправка сообщений доступна только зарегистрированным/авторизованным пользователям.
Онлайн (за 10 мин.): 0

Миллионер из трущоб / Slumdog Millionaire (2008) [KOR Transfer] BDRip 1080p [HEVC] 10 bit от -Star-Lord- (RG RIPS CLUB)

HEVC
10 bit
Обложка Миллионер из трущоб / Slumdog Millionaire (2008) [KOR Transfer] BDRip 1080p [HEVC] 10 bit от -Star-Lord- (RG RIPS CLUB) Год: 2008
Страна: Великобритания, США
Студия: Celador Films, Film4, 20th Century Fox Home Entertainment, Warner Bros.
Жанр: Драма, Мелодрама
Продолжительность: 02:00:08

Режиссер: Дэнни Бойл, Лавлин Тандан
В ролях: Дев Патель, Фрида Пинто, Мадхур Митталь, Анил Капур, Ирфан Кхан, Саубрабх Шукла, Ражендранат Зутши, Женева Талвар, Азхарудин Моххамед Исмаил, Ауш Махеш Хедекар, Сунил Кумар Агравал, Сарфараз Кхан

Описание: Джамал Малик, 18-летний сирота из трущоб в Мумбаи, всего в одном шаге от победы в телеигре «Кто хочет стать миллионером?» и выигрыша 20 миллионов рупий. Прервав игру, его арестовывает полиция по подозрению в мошенничестве. Откуда юнец, выросший на улице, может знать так много?


Исходник: Slumdog Millionaire 2008 Hybrid 1080p BluRay REMUX AVC DTS-HD MA 5.1-HiFi
Видео: 1920x800, ~10.8 Mb/s
Аудио1: AC3, 6 ch, 448 Kbps - РусскийРусский, Дублированный (Blu-Ray)
Аудио2: AC3, 2 ch, 192 Kbps - РусскийРусский, Многоголосый (LostFilm)
Аудио3: AC3, 6 ch, 384 Kbps - РусскийРусский, Одноголосый (Юрий Сербин)
Аудио4: AC3, 2 ch, 192 Kbps - УкраинскийУкраинский, Дублированный (1+1, TET)
Аудио5: AC3, 2 ch, 192 Kbps - УкраинскийУкраинский, Многоголосый (ICTV)
Аудио6: AC3, 2 ch, 192 Kbps - УкраинскийУкраинский, Многоголосый (Інтер)
Аудио7: AC3, 2 ch, 192 Kbps - УкраинскийУкраинский, Одноголосый (ua2004)
Аудио8: AC3, 6 ch, 640 Kbps - АнглийскийАнглийский, Оригинал
Аудио9: AC3, 2 ch, 192 Kbps - АнглийскийАнглийский, Commentary by director Danny Boyle & actor Dev Patel
Аудио10: AC3, 2 ch, 192 Kbps - АнглийскийАнглийский, Commentary by producer Christian Colson & writer Simon Beaufoy
Субтитры: русские (полные х3), английские (форсированные, полные, SDH)

Как за пару секунд удалить ненужные аудиодорожки и субтитры (Внимание! После удаления вы не сможете поддержать раздачу)

Лог (x265 info)
x265 [info]: frame I: 1858, Avg QP:17.58 kb/s: 23559.16
x265 [info]: frame P: 34790, Avg QP:18.85 kb/s: 15545.82
x265 [info]: frame B: 136176, Avg QP:21.17 kb/s: 9365.21
x265 [info]: Weighted P-Frames: Y:7.8% UV:6.7%
x265 [info]: Weighted B-Frames: Y:8.2% UV:6.8%
x265 [info]: consecutive B-frames: 12.6% 6.3% 7.7% 29.8% 9.6% 14.7% 4.7% 8.8% 1.6% 1.2% 0.5% 1.0% 0.3% 0.2% 0.2% 0.4% 0.2%

encoded 172824 frames in 205031.18s (0.84 fps), 10761.99 kb/s, Avg QP:20.66
Медиаинфо
General
Unique ID : 53220582263180132497681981882306806992 (0x2809E94B3556245585FA12D46DCA44D0)
Complete name : Slumdog Millionaire (2008) [KOR Transfer] BDRip 1080p H.265 [3xRUS_4xUKR_ENG] [RIPS-CLUB].mkv
Format : Matroska
Format version : Version 4
File size : 11.4 GiB
Duration : 2 h 0 min
Overall bit rate : 13.6 Mb/s
Movie name : Миллионер из трущоб / Мільйонер з нетрів (Мільйонер із нетрів) / Slumdog Millionaire (2008)
Encoded date : UTC 2021-03-31 10:43:09
Writing application : mkvmerge v20.0.0 ('I Am The Sun') 64-bit
Writing library : libebml v1.3.5 + libmatroska v1.4.8
Cover : Yes
Attachments : Cover.jpg

Video
ID : 1
Format : HEVC
Format/Info : High Efficiency Video Coding
Format profile : Main 10@L4.1@High
Codec ID : V_MPEGH/ISO/HEVC
Duration : 2 h 0 min
Bit rate : 10.8 Mb/s
Width : 1 920 pixels
Height : 800 pixels
Display aspect ratio : 2.40:1
Frame rate mode : Constant
Frame rate : 23.976 (24000/1001) FPS
Color space : YUV
Chroma subsampling : 4:2:0
Bit depth : 10 bits
Bits/(Pixel*Frame) : 0.292
Stream size : 9.03 GiB (79%)
Title : Миллионер из трущоб / Мільйонер з нетрів (Мільйонер із нетрів) / Slumdog Millionaire (2008)
Writing library : x265 3.5+1-ce882936d:[Windows][GCC 10.2.0][64 bit] 10bit
Encoding settings : cpuid=1111039 / frame-threads=3 / numa-pools=12 / wpp / no-pmode / no-pme / no-psnr / no-ssim / log-level=2 / input-csp=1 / input-res=1920x800 / interlace=0 / total-frames=172824 / level-idc=41 / high-tier=1 / uhd-bd=0 / ref=5 / no-allow-non-conformance / no-repeat-headers / annexb / no-aud / no-hrd / info / hash=0 / no-temporal-layers / open-gop / min-keyint=23 / keyint=240 / gop-lookahead=0 / bframes=16 / b-adapt=2 / b-pyramid / bframe-bias=0 / rc-lookahead=60 / lookahead-slices=4 / scenecut=40 / hist-scenecut=0 / radl=0 / no-splice / no-intra-refresh / ctu=32 / min-cu-size=8 / rect / amp / max-tu-size=32 / tu-inter-depth=4 / tu-intra-depth=4 / limit-tu=1 / rdoq-level=2 / dynamic-rd=0.00 / no-ssim-rd / signhide / no-tskip / nr-intra=0 / nr-inter=0 / no-constrained-intra / no-strong-intra-smoothing / max-merge=5 / limit-refs=2 / limit-modes / me=3 / subme=7 / merange=57 / temporal-mvp / no-frame-dup / no-hme / weightp / weightb / no-analyze-src-pics / deblock=-3:-3 / no-sao / no-sao-non-deblock / rd=6 / selective-sao=0 / no-early-skip / no-rskip / no-fast-intra / no-tskip-fast / no-cu-lossless / no-b-intra / no-splitrd-skip / rdpenalty=0 / psy-rd=2.00 / psy-rdoq=1.00 / no-rd-refine / no-lossless / cbqpoffs=0 / crqpoffs=0 / rc=crf / crf=20.6 / qcomp=0.70 / qpstep=4 / stats-write=0 / stats-read=0 / vbv-maxrate=50000 / vbv-bufsize=50000 / vbv-init=0.9 / min-vbv-fullness=50.0 / max-vbv-fullness=80.0 / crf-max=0.0 / crf-min=0.0 / ipratio=1.40 / pbratio=1.30 / aq-mode=1 / aq-strength=1.00 / no-cutree / zone-count=0 / no-strict-cbr / qg-size=32 / no-rc-grain / qpmax=69 / qpmin=0 / no-const-vbv / sar=1 / overscan=0 / videoformat=5 / range=0 / colorprim=2 / transfer=2 / colormatrix=2 / chromaloc=0 / display-window=0 / cll=0,0 / min-luma=0 / max-luma=1023 / log2-max-poc-lsb=8 / vui-timing-info / vui-hrd-info / slices=1 / no-opt-qp-pps / no-opt-ref-list-length-pps / no-multi-pass-opt-rps / scenecut-bias=0.05 / hist-threshold=0.03 / no-opt-cu-delta-qp / no-aq-motion / no-hdr10 / no-hdr10-opt / no-dhdr10-opt / no-idr-recovery-sei / analysis-reuse-level=0 / analysis-save-reuse-level=0 / analysis-load-reuse-level=0 / scale-factor=0 / refine-intra=0 / refine-inter=0 / refine-mv=1 / refine-ctu-distortion=0 / no-limit-sao / ctu-info=0 / no-lowpass-dct / refine-analysis-type=0 / copy-pic=1 / max-ausize-factor=1.0 / no-dynamic-refine / no-single-sei / no-hevc-aq / no-svt / no-field / qp-adaptation-range=1.00 / scenecut-aware-qp=0conformance-window-offsets / right=0 / bottom=0 / decoder-max-rate=0 / no-vbv-live-multi-pass
Default : Yes
Forced : No

Audio #1
ID : 2
Format : AC-3
Format/Info : Audio Coding 3
Commercial name : Dolby Digital
Codec ID : A_AC3
Duration : 2 h 0 min
Bit rate mode : Constant
Bit rate : 448 kb/s
Channel(s) : 6 channels
Channel layout : L R C LFE Ls Rs
Sampling rate : 48.0 kHz
Frame rate : 31.250 FPS (1536 SPF)
Compression mode : Lossy
Stream size : 385 MiB (3%)
Title : AC-3 / 5.1 Ch / 448 kbps / DUB / Blu-Ray
Language : Russian
Service kind : Complete Main
Default : Yes
Forced : Yes

Audio #2
ID : 3
Format : AC-3
Format/Info : Audio Coding 3
Commercial name : Dolby Digital
Codec ID : A_AC3
Duration : 2 h 0 min
Bit rate mode : Constant
Bit rate : 192 kb/s
Channel(s) : 2 channels
Channel layout : L R
Sampling rate : 48.0 kHz
Frame rate : 31.250 FPS (1536 SPF)
Compression mode : Lossy
Stream size : 165 MiB (1%)
Title : AC-3 / 2.0 Ch / 192 kbps / MVO / LostFilm
Language : Russian
Service kind : Complete Main
Default : No
Forced : No

Audio #3
ID : 4
Format : AC-3
Format/Info : Audio Coding 3
Commercial name : Dolby Digital
Codec ID : A_AC3
Duration : 2 h 0 min
Bit rate mode : Constant
Bit rate : 384 kb/s
Channel(s) : 6 channels
Channel layout : L R C LFE Ls Rs
Sampling rate : 48.0 kHz
Frame rate : 31.250 FPS (1536 SPF)
Compression mode : Lossy
Stream size : 330 MiB (3%)
Title : AC-3 / 5.1 Ch / 384 kbps / AVO / Юрий Сербин
Language : Russian
Service kind : Complete Main
Default : No
Forced : No

Audio #4
ID : 5
Format : AC-3
Format/Info : Audio Coding 3
Commercial name : Dolby Digital
Codec ID : A_AC3
Duration : 2 h 0 min
Bit rate mode : Constant
Bit rate : 192 kb/s
Channel(s) : 2 channels
Channel layout : L R
Sampling rate : 48.0 kHz
Frame rate : 31.250 FPS (1536 SPF)
Compression mode : Lossy
Stream size : 165 MiB (1%)
Title : AC-3 / 2.0 Ch / 192 kbps / DUB / 1+1, TET
Language : Ukrainian
Service kind : Complete Main
Default : No
Forced : No

Audio #5
ID : 6
Format : AC-3
Format/Info : Audio Coding 3
Commercial name : Dolby Digital
Codec ID : A_AC3
Duration : 2 h 0 min
Bit rate mode : Constant
Bit rate : 192 kb/s
Channel(s) : 2 channels
Channel layout : L R
Sampling rate : 48.0 kHz
Frame rate : 31.250 FPS (1536 SPF)
Compression mode : Lossy
Stream size : 165 MiB (1%)
Title : AC-3 / 2.0 Ch / 192 kbps / MVO / ICTV (Stereo)
Language : Ukrainian
Service kind : Complete Main
Default : No
Forced : No

Audio #6
ID : 7
Format : AC-3
Format/Info : Audio Coding 3
Commercial name : Dolby Digital
Codec ID : A_AC3
Duration : 2 h 0 min
Bit rate mode : Constant
Bit rate : 192 kb/s
Channel(s) : 2 channels
Channel layout : L R
Sampling rate : 48.0 kHz
Frame rate : 31.250 FPS (1536 SPF)
Compression mode : Lossy
Stream size : 165 MiB (1%)
Title : AC-3 / 2.0 Ch / 192 kbps / MVO / Інтер
Language : Ukrainian
Service kind : Complete Main
Default : No
Forced : No

Audio #7
ID : 8
Format : AC-3
Format/Info : Audio Coding 3
Commercial name : Dolby Digital
Codec ID : A_AC3
Duration : 2 h 0 min
Bit rate mode : Constant
Bit rate : 192 kb/s
Channel(s) : 2 channels
Channel layout : L R
Sampling rate : 48.0 kHz
Frame rate : 31.250 FPS (1536 SPF)
Compression mode : Lossy
Stream size : 165 MiB (1%)
Title : AC-3 / 2.0 Ch / 192 kbps / VO / ua2004
Language : Ukrainian
Service kind : Complete Main
Default : No
Forced : No

Audio #8
ID : 9
Format : AC-3
Format/Info : Audio Coding 3
Commercial name : Dolby Digital
Codec ID : A_AC3
Duration : 2 h 0 min
Bit rate mode : Constant
Bit rate : 640 kb/s
Channel(s) : 6 channels
Channel layout : L R C LFE Ls Rs
Sampling rate : 48.0 kHz
Frame rate : 31.250 FPS (1536 SPF)
Compression mode : Lossy
Stream size : 550 MiB (5%)
Title : AC-3 / 5.1 Ch / 640 kbps / Original
Language : English
Service kind : Complete Main
Default : No
Forced : No

Audio #9
ID : 10
Format : AC-3
Format/Info : Audio Coding 3
Commercial name : Dolby Digital
Codec ID : A_AC3
Duration : 2 h 0 min
Bit rate mode : Constant
Bit rate : 192 kb/s
Channel(s) : 2 channels
Channel layout : L R
Sampling rate : 48.0 kHz
Frame rate : 31.250 FPS (1536 SPF)
Compression mode : Lossy
Stream size : 165 MiB (1%)
Title : AC-3 / 2.0 Ch / 192 kbps / Original / Commentary by director Danny Boyle & actor Dev Patel
Language : English
Service kind : Complete Main
Default : No
Forced : No

Audio #10
ID : 11
Format : AC-3
Format/Info : Audio Coding 3
Commercial name : Dolby Digital
Codec ID : A_AC3
Duration : 2 h 0 min
Bit rate mode : Constant
Bit rate : 192 kb/s
Channel(s) : 2 channels
Channel layout : L R
Sampling rate : 48.0 kHz
Frame rate : 31.250 FPS (1536 SPF)
Compression mode : Lossy
Stream size : 165 MiB (1%)
Title : AC-3 / 2.0 Ch / 192 kbps / Original / Commentary by producer Christian Colson & writer Simon Beaufoy
Language : English
Service kind : Complete Main
Default : No
Forced : No

Text #1
ID : 12
Format : UTF-8
Codec ID : S_TEXT/UTF8
Codec ID/Info : UTF-8 Plain Text
Duration : 1 h 52 min
Bit rate : 54 b/s
Count of elements : 960
Stream size : 44.4 KiB (0%)
Title : Full v1
Language : Russian
Default : No
Forced : No

Text #2
ID : 13
Format : UTF-8
Codec ID : S_TEXT/UTF8
Codec ID/Info : UTF-8 Plain Text
Duration : 1 h 51 min
Bit rate : 58 b/s
Count of elements : 1156
Stream size : 47.9 KiB (0%)
Title : Full v2
Language : Russian
Default : No
Forced : No

Text #3
ID : 14
Format : UTF-8
Codec ID : S_TEXT/UTF8
Codec ID/Info : UTF-8 Plain Text
Duration : 1 h 52 min
Bit rate : 59 b/s
Count of elements : 964
Stream size : 48.6 KiB (0%)
Title : Full v3
Language : Russian
Default : No
Forced : No

Text #4
ID : 15
Format : UTF-8
Codec ID : S_TEXT/UTF8
Codec ID/Info : UTF-8 Plain Text
Duration : 1 h 46 min
Bit rate : 7 b/s
Count of elements : 211
Stream size : 5.76 KiB (0%)
Title : Forced
Language : English
Default : No
Forced : No

Text #5
ID : 16
Format : UTF-8
Codec ID : S_TEXT/UTF8
Codec ID/Info : UTF-8 Plain Text
Duration : 1 h 59 min
Bit rate : 34 b/s
Count of elements : 1007
Stream size : 30.2 KiB (0%)
Title : Full
Language : English
Default : No
Forced : No

Text #6
ID : 17
Format : UTF-8
Codec ID : S_TEXT/UTF8
Codec ID/Info : UTF-8 Plain Text
Duration : 1 h 59 min
Bit rate : 42 b/s
Count of elements : 1385
Stream size : 37.2 KiB (0%)
Title : SDH
Language : English
Default : No
Forced : No

Menu
00:00:00.000 : en:One Question Away
00:03:21.265 : en:Tell Me How You Cheated
00:06:00.757 : en:Children of the Slums
00:09:19.456 : en:Superstar!
00:14:29.057 : en:India's National Emblem
00:16:21.836 : en:Bow and Arrow
00:20:27.039 : en:Orphaned and Homeless
00:22:45.886 : en:A Bloody Saint
00:25:49.278 : en:Little Beggars
00:29:42.386 : en:Run!
00:37:56.880 : en:Riding the Rails
00:40:54.182 : en:Is This Heaven?
00:47:47.595 : en:Ben Franklin
00:49:51.802 : en:The Unlucky One
00:53:57.548 : en:On His Knees
00:59:07.649 : en:My Enemy's Enemy
01:01:57.527 : en:The Man with the Gun
01:06:27.714 : en:Friends and Family
01:12:19.399 : en:The Old Slum
01:15:33.468 : en:Why are You Here?
01:23:20.809 : en:You could Lose Everything
01:24:22.538 : en:So Close
01:27:04.783 : en:The Answer is B.
01:34:51.333 : en:Please Forgive Me
01:39:25.940 : en:We Love You, Jamal!
01:42:01.345 : en:The Third Musketeer
01:50:07.831 : en:It is Written
01:52:55.374 : en:End Titles
Загрузка...Cкриншот1 Миллионер из трущоб / Slumdog Millionaire (2008) [KOR Transfer] BDRip 1080p [HEVC] 10 bit от -Star-Lord- (RG RIPS CLUB)Загрузка...Cкриншот2 Миллионер из трущоб / Slumdog Millionaire (2008) [KOR Transfer] BDRip 1080p [HEVC] 10 bit от -Star-Lord- (RG RIPS CLUB)Загрузка...Cкриншот3 Миллионер из трущоб / Slumdog Millionaire (2008) [KOR Transfer] BDRip 1080p [HEVC] 10 bit от -Star-Lord- (RG RIPS CLUB)Загрузка...Cкриншот4 Миллионер из трущоб / Slumdog Millionaire (2008) [KOR Transfer] BDRip 1080p [HEVC] 10 bit от -Star-Lord- (RG RIPS CLUB)
Релиз-группа: RIPS CLUB
Сэмпл Торрент🧲 Магнет

Рейтинги КП и IMDB, кнопки "Позвать в чате" и "Спасибо", а также мультитрекерная статистика доступны только зарегистрированным/авторизованным пользователям!

Файлы: 1
  • Slumdog Millionaire (2008) [KOR Transfer] BDRip 1080p H.265 [3xRUS_4xUKR_ENG] [RIPS-CLUB].mkv   11.4 ГБ
Поблагодарили: 3
donadar, makss333, Temperest
StarLord
09310111.4 ГБ

Добавление нового комментария

Добавление комментариев доступно только зарегистрированным/авторизованным пользователям.