💬 Мини-чат

OldGamerнет
Giggaloнет ли у кого в планах "Давайте потанцуем" 2004
GiggaloСообщение удалено (удалил: Giggalo)
StarLordOldGamer, как дела?)
StarLordOldGamer, ура, вернулся 😄
OldGamerRezident, можете скачать этот фильм от другого релизёра, там невелика разница, а раздающие точно есть
OldGamerGiggalo, https://tsya.ru/mnemonic.html
NoMaDСообщение удалено (удалил: NoMaD)
NoMaDСообщение удалено (удалил: NoMaD)
GiggaloСообщение удалено (удалил: Giggalo)
GiggaloСообщение удалено (удалил: Giggalo)
Spartanec1308Был днём
StarLordGiggalo, наверное отрубало беднягу, целый день его нету 😅
GiggaloСообщение удалено (удалил: Giggalo)
OldGamerДоброе. Работы много, некогда на перинах валяться.
GiggaloСообщение удалено (удалил: Giggalo)
GiggaloСообщение удалено (удалил: Giggalo)
  • OldGamer
  • StarLord
  • ancestor87
  • Andrey_alex
  • MIGRANT
Отправка сообщений доступна только зарегистрированным/авторизованным пользователям.
Онлайн (за 10 мин.): 5

Судья Дредд / Judge Dredd (1995) BDRip 1080p [HEVC] 10 bit от HANNIBAL

HEVC
10 bit
Обложка Судья Дредд / Judge Dredd (1995) BDRip 1080p [HEVC] 10 bit от HANNIBAL Год: 1995
Страна: США
Студия: Hollywood Pictures, Cinergi Pictures Entertainment Inc.
Жанр: Боевик, Триллер, Фантастика
Продолжительность: 01:36:07

Режиссер: Дэнни Кэннон
В ролях: Сильвестр Сталлоне, Арманд Ассанте, Роб Шнайдер, Юрген Прохнов, Макс фон Сюдов, Дайан Лэйн, Джоанна Майлс, Джоан Чен, Бэльтазар Гетти, Морис Роевз

Описание: В третьем тысячелетии мир переменился. Климат, народы — все перевернулось… Земля превратилась в ядовитую, выжженную пустыню, которую стали называть «Проклятая земля». Миллионы людей сосредоточились в нескольких огромных городах, на улицах которых царили хаос и преступники. Система правосудия не смогла справиться с анархией, и был создан новый порядок — элитные подразделения, которые сами задерживали, судили, выносили приговор и приводили его в исполнение. Их называли Судьями.


Видео: 1920x824, ~9640 Кбит/сек
Аудио1: AC3, 6 ch, 640 Kbps - РусскийРусский, Многоголосый (TYCOON)
Аудио2: AC3, 6 ch, 448 Kbps - РусскийРусский, Одноголосый (Гаврилов)
Аудио3: AC3, 2 ch, 192 Kbps - УкраинскийУкраинский, Многоголосый (ICTV)
Аудио4: AC3, 6 ch, 640 Kbps - АнглийскийАнглийский, Оригинал
Субтитры: Русские, английские

Как за пару секунд удалить ненужные аудиодорожки и субтитры (Внимание! После удаления вы не сможете поддержать раздачу)

Лог (x265 info)
x265 [info]: frame I: 1621, Avg QP:16.11 kb/s: 23616.58
x265 [info]: frame P: 28923, Avg QP:17.62 kb/s: 17926.13
x265 [info]: frame B: 107742, Avg QP:19.63 kb/s: 7203.97
x265 [info]: Weighted P-Frames: Y:12.9% UV:9.8%
x265 [info]: Weighted B-Frames: Y:11.1% UV:7.5%
x265 [info]: consecutive B-frames: 10.8% 3.8% 8.2% 29.8% 9.5% 28.6% 3.5% 5.3% 0.2% 0.1% 0.1% 0.1%
Медиаинфо
General
Unique ID : 246748803240371613210505942000333244700 (0xB9A217449519174F75DAC7978EF8491C)
Complete name : G:\HEVC-CLUB\Judge Dredd (1995) BDRip-HEVC 1080p 10 bit.mkv
Format : Matroska
Format version : Version 4
File size : 7.76 GiB
Duration : 1 h 36 min
Overall bit rate : 11.6 Mb/s
Movie name : by- hannibal
Encoded date : UTC 2021-03-31 16:00:13
Writing application : mkvmerge v47.0.0 ('Black Flag') 64-bit
Writing library : libebml v1.3.10 + libmatroska v1.5.2
Cover : Yes
Attachments : cover.jpg

Video
ID : 1
Format : HEVC
Format/Info : High Efficiency Video Coding
Format profile : Main 10@L4.1@High
Codec ID : V_MPEGH/ISO/HEVC
Duration : 1 h 36 min
Bit rate : 9 640 kb/s
Width : 1 920 pixels
Height : 824 pixels
Display aspect ratio : 2.35:1
Frame rate mode : Constant
Frame rate : 23.976 (23976/1000) FPS
Original frame rate : 23.976 (24000/1001) FPS
Color space : YUV
Chroma subsampling : 4:2:0
Bit depth : 10 bits
Bits/(Pixel*Frame) : 0.254
Stream size : 6.47 GiB (83%)
Writing library : x265 3.3+33-04275ae58030:[Windows][GCC 10.1.0][64 bit] 10bit
Encoding settings : cpuid=1111039 / frame-threads=3 / numa-pools=12 / wpp / no-pmode / no-pme / no-psnr / no-ssim / log-level=2 / input-csp=1 / input-res=1920x824 / interlace=0 / total-frames=138286 / level-idc=41 / high-tier=1 / uhd-bd=0 / ref=5 / no-allow-non-conformance / no-repeat-headers / annexb / no-aud / no-hrd / info / hash=0 / no-temporal-layers / open-gop / min-keyint=23 / keyint=240 / gop-lookahead=0 / bframes=11 / b-adapt=2 / b-pyramid / bframe-bias=0 / rc-lookahead=60 / lookahead-slices=0 / scenecut=40 / hist-scenecut=0 / radl=0 / no-splice / no-intra-refresh / ctu=32 / min-cu-size=8 / rect / amp / max-tu-size=32 / tu-inter-depth=3 / tu-intra-depth=3 / limit-tu=0 / rdoq-level=2 / dynamic-rd=0.00 / no-ssim-rd / signhide / no-tskip / nr-intra=0 / nr-inter=0 / no-constrained-intra / strong-intra-smoothing / max-merge=5 / limit-refs=0 / no-limit-modes / me=3 / subme=7 / merange=57 / temporal-mvp / no-frame-dup / no-hme / weightp / weightb / no-analyze-src-pics / deblock=0:0 / no-sao / no-sao-non-deblock / rd=4 / selective-sao=0 / no-early-skip / rskip / no-fast-intra / no-tskip-fast / no-cu-lossless / b-intra / no-splitrd-skip / rdpenalty=0 / psy-rd=2.00 / psy-rdoq=1.00 / no-rd-refine / no-lossless / cbqpoffs=0 / crqpoffs=0 / rc=crf / crf=19.0 / qcomp=0.70 / qpstep=4 / stats-write=0 / stats-read=0 / vbv-maxrate=50000 / vbv-bufsize=50000 / vbv-init=0.9 / crf-max=0.0 / crf-min=0.0 / ipratio=1.40 / pbratio=1.30 / aq-mode=2 / aq-strength=1.00 / no-cutree / zone-count=0 / no-strict-cbr / qg-size=32 / no-rc-grain / qpmax=69 / qpmin=0 / no-const-vbv / sar=1 / overscan=0 / videoformat=5 / range=0 / colorprim=1 / transfer=1 / colormatrix=1 / chromaloc=0 / display-window=0 / cll=0,0 / min-luma=0 / max-luma=1023 / log2-max-poc-lsb=8 / vui-timing-info / vui-hrd-info / slices=1 / no-opt-qp-pps / no-opt-ref-list-length-pps / no-multi-pass-opt-rps / scenecut-bias=0.05 / hist-threshold=0.01 / no-opt-cu-delta-qp / no-aq-motion / no-hdr10 / no-hdr10-opt / no-dhdr10-opt / no-idr-recovery-sei / analysis-reuse-level=0 / analysis-save-reuse-level=0 / analysis-load-reuse-level=0 / scale-factor=0 / refine-intra=0 / refine-inter=0 / refine-mv=1 / refine-ctu-distortion=0 / no-limit-sao / ctu-info=0 / no-lowpass-dct / refine-analysis-type=0 / copy-pic=1 / max-ausize-factor=1.0 / no-dynamic-refine / no-single-sei / no-hevc-aq / no-svt / no-field / qp-adaptation-range=1.00 / no-scenecut-aware-qpconformance-window-offsets / right=0 / bottom=0 / decoder-max-rate=0
Default : Yes
Forced : No
Color range : Limited
Color primaries : BT.709
Transfer characteristics : BT.709
Matrix coefficients : BT.709

Audio #1
ID : 2
Format : AC-3
Format/Info : Audio Coding 3
Commercial name : Dolby Digital
Codec ID : A_AC3
Duration : 1 h 35 min
Bit rate mode : Constant
Bit rate : 640 kb/s
Channel(s) : 6 channels
Channel layout : L R C LFE Ls Rs
Sampling rate : 48.0 kHz
Frame rate : 31.250 FPS (1536 SPF)
Compression mode : Lossy
Stream size : 439 MiB (6%)
Title : MVO (TYCOON)
Language : Russian
Service kind : Complete Main
Default : Yes
Forced : No

Audio #2
ID : 3
Format : AC-3
Format/Info : Audio Coding 3
Commercial name : Dolby Digital
Codec ID : A_AC3
Duration : 1 h 36 min
Bit rate mode : Constant
Bit rate : 448 kb/s
Channel(s) : 6 channels
Channel layout : L R C LFE Ls Rs
Sampling rate : 48.0 kHz
Frame rate : 31.250 FPS (1536 SPF)
Compression mode : Lossy
Stream size : 308 MiB (4%)
Title : AVO - Гаврилов
Language : Russian
Service kind : Complete Main
Default : No
Forced : No

Audio #3
ID : 4
Format : AC-3
Format/Info : Audio Coding 3
Commercial name : Dolby Digital
Codec ID : A_AC3
Duration : 1 h 36 min
Bit rate mode : Constant
Bit rate : 192 kb/s
Channel(s) : 2 channels
Channel layout : L R
Sampling rate : 48.0 kHz
Frame rate : 31.250 FPS (1536 SPF)
Compression mode : Lossy
Stream size : 132 MiB (2%)
Title : MVO - ICTV
Language : Ukrainian
Service kind : Complete Main
Default : No
Forced : No

Audio #4
ID : 5
Format : AC-3
Format/Info : Audio Coding 3
Commercial name : Dolby Digital
Codec ID : A_AC3
Duration : 1 h 36 min
Bit rate mode : Constant
Bit rate : 640 kb/s
Channel(s) : 6 channels
Channel layout : L R C LFE Ls Rs
Sampling rate : 48.0 kHz
Frame rate : 31.250 FPS (1536 SPF)
Compression mode : Lossy
Stream size : 440 MiB (6%)
Language : English
Service kind : Complete Main
Default : No
Forced : No

Text #1
ID : 6
Format : UTF-8
Codec ID : S_TEXT/UTF8
Codec ID/Info : UTF-8 Plain Text
Duration : 1 h 28 min
Bit rate : 95 b/s
Count of elements : 1047
Stream size : 61.9 KiB (0%)
Title : rus
Language : Russian
Default : No
Forced : No

Text #2
ID : 7
Format : ASS
Codec ID : S_TEXT/ASS
Codec ID/Info : Advanced Sub Station Alpha
Duration : 1 h 26 min
Bit rate : 86 b/s
Count of elements : 777
Compression mode : Lossless
Stream size : 54.8 KiB (0%)
Title : eng
Language : English
Default : No
Forced : No

Menu
00:00:00.000 : :Chapter 01
00:02:17.345 : :Chapter 02
00:06:15.666 : :Chapter 03
00:09:50.006 : :Chapter 04
00:12:05.599 : :Chapter 05
00:15:39.104 : :Chapter 06
00:17:38.557 : :Chapter 07
00:20:55.128 : :Chapter 08
00:22:54.039 : :Chapter 09
00:27:59.969 : :Chapter 10
00:30:25.114 : :Chapter 11
00:35:43.850 : :Chapter 12
00:40:55.744 : :Chapter 13
00:43:56.675 : :Chapter 14
00:47:44.319 : :Chapter 15
00:55:22.193 : :Chapter 16
01:00:25.455 : :Chapter 17
01:03:07.700 : :Chapter 18
01:08:36.821 : :Chapter 19
01:14:08.110 : :Chapter 20
01:18:54.146 : :Chapter 21
01:23:53.653 : :Chapter 22
01:28:10.201 : :Chapter 23
01:30:24.836 : :Chapter 24
Загрузка...Cкриншот1 Судья Дредд / Judge Dredd (1995) BDRip 1080p [HEVC] 10 bit от HANNIBALЗагрузка...Cкриншот2 Судья Дредд / Judge Dredd (1995) BDRip 1080p [HEVC] 10 bit от HANNIBALЗагрузка...Cкриншот3 Судья Дредд / Judge Dredd (1995) BDRip 1080p [HEVC] 10 bit от HANNIBALЗагрузка...Cкриншот4 Судья Дредд / Judge Dredd (1995) BDRip 1080p [HEVC] 10 bit от HANNIBAL
Сэмпл Торрент🧲 Магнет

Рейтинги КП и IMDB, кнопки "Позвать в чате" и "Спасибо", а также мультитрекерная статистика доступны только зарегистрированным/авторизованным пользователям!

Файлы: 1
  • Judge Dredd (1995) BDRip-HEVC 1080p 10 bit.mkv   7.76 ГБ
Поблагодарили: 7
anderb, Andrey_alex, donadar, GIS88, joker63, Kiran, makss333
HANNIBAL
024307.76 ГБ

Добавление нового комментария

Добавление комментариев доступно только зарегистрированным/авторизованным пользователям.