💬 Мини-чат

OldGamerнет
Giggaloнет ли у кого в планах "Давайте потанцуем" 2004
GiggaloСообщение удалено (удалил: Giggalo)
StarLordOldGamer, как дела?)
StarLordOldGamer, ура, вернулся 😄
OldGamerRezident, можете скачать этот фильм от другого релизёра, там невелика разница, а раздающие точно есть
OldGamerGiggalo, https://tsya.ru/mnemonic.html
NoMaDСообщение удалено (удалил: NoMaD)
NoMaDСообщение удалено (удалил: NoMaD)
GiggaloСообщение удалено (удалил: Giggalo)
GiggaloСообщение удалено (удалил: Giggalo)
Spartanec1308Был днём
StarLordGiggalo, наверное отрубало беднягу, целый день его нету 😅
GiggaloСообщение удалено (удалил: Giggalo)
OldGamerДоброе. Работы много, некогда на перинах валяться.
GiggaloСообщение удалено (удалил: Giggalo)
GiggaloСообщение удалено (удалил: Giggalo)
  • OldGamer
  • garant3v
  • mr_nikitin
  • sharkey71
Отправка сообщений доступна только зарегистрированным/авторизованным пользователям.
Онлайн (за 10 мин.): 4

Охотник на монстров / Monster Hunter (2020) BDRip 1080p [HEVC] 10 bit от mikos

HEVC
10 bit
Обложка Охотник на монстров / Monster Hunter (2020) BDRip 1080p [HEVC] 10 bit от mikos Год: 2020
Страна: США, Китай, Германия, Япония
Студия: Constantin Film, Impact Pictures, Capcom Company
Жанр: Боевик, Приключения, Фэнтези
Продолжительность: 01:43:08

Режиссер: Пол У. С. Андерсон
В ролях: Милла Йовович, Тони Джа, Рон Перлман, Ти-Ай, Диего Бонета, Миган Гуд, Джош Хелман, Джин О-Юн, Хирона Ямадзаки, Янник Шуманн

Описание: Параллельно нашему миру существует иной: мир, где правят крайне опасные и наделенные невероятной силой монстры, яростно оберегающие свои владения от чужаков. Именно сюда через пространственный портал попадают лейтенант Артемис и ее отряд элитных бойцов. И теперь им предстоит проверить себя на прочность перед лицом невиданной ранее угрозы. В попытке выжить и найти дорогу домой, Артемис объединяет силы с таинственным Охотником, который научился выживать в этих враждебных землях. Вместе героям предстоит вступить в беспощадную схватку с монстрами, не знающими страха и жалости.


Видео: 1920x804, ~5504 Кбит/сек
Аудио1: AC3, 6 ch, 384 Kbps - РусскийРусский, Дублированный (iTunes)
Аудио2: AC3, 6 ch, 448 Kbps - РусскийРусский, Многоголосый (HDRezka Studio)
Аудио3: AC3, 6 ch, 384 Kbps - УкраинскийУкраинский, Многоголосый (HDRezka Studio)
Аудио4: AC3, 6 ch, 640 Kbps - АнглийскийАнглийский, Оригинал
Субтитры: Русские (форсированные, полные), Украинские (форсированные), Английские (форсированные, полные, SDH)

Как за пару секунд удалить ненужные аудиодорожки и субтитры (Внимание! После удаления вы не сможете поддержать раздачу)

Лог (x265 info)
x265 info: frame I: 2167, Avg QP:16.51 kb/s: 15291.47
x265 info: frame P: 35087, Avg QP:18.02 kb/s: 9746.88
x265 info: frame B: 111113, Avg QP:20.51 kb/s: 3972.68
Медиаинфо
General
Unique ID : 317742494508644270943825679252273158325 (0xEF0AFA7D863B6678759A9BD70C42D8B5)
Complete name : E:\Торрент\Monster Hunter 2020.BDRip.1080p.HEVC.DUB.10bit.mikos.mkv
Format : Matroska
Format version : Version 4
File size : 5.30 GiB
Duration : 1 h 43 min
Overall bit rate : 7 363 kb/s
Movie name : Monster Hunter 2020.BDRip.1080p.HEVC.DUB.10bit.mikos
Encoded date : UTC 2021-03-31 15:41:40
Writing application : mkvmerge v55.0.0 ('Waiting For Space') 64-bit
Writing library : libebml v1.4.2 + libmatroska v1.6.4
Attachments : Poster

Video
ID : 1
Format : HEVC
Format/Info : High Efficiency Video Coding
Format profile : Main 10@L4.1@High
Codec ID : V_MPEGH/ISO/HEVC
Duration : 1 h 43 min
Bit rate : 5 504 kb/s
Width : 1 920 pixels
Height : 804 pixels
Display aspect ratio : 2.40:1
Frame rate mode : Constant
Frame rate : 23.976 (24000/1001) FPS
Color space : YUV
Chroma subsampling : 4:2:0
Bit depth : 10 bits
Bits/(Pixel*Frame) : 0.149
Stream size : 3.97 GiB (75%)
Title : Rip by mikos
Writing library : x265 3.4+28-419182243:[Windows][clang 11.0.0][64 bit] 10bit
Encoding settings : cpuid=1111039 / frame-threads=3 / numa-pools=12 / wpp / no-pmode / no-pme / no-psnr / no-ssim / log-level=3 / input-csp=1 / input-res=1920x804 / interlace=0 / total-frames=0 / level-idc=41 / high-tier=1 / uhd-bd=0 / ref=5 / allow-non-conformance / no-repeat-headers / annexb / no-aud / no-hrd / info / hash=0 / no-temporal-layers / open-gop / min-keyint=23 / keyint=250 / gop-lookahead=0 / bframes=14 / b-adapt=2 / b-pyramid / bframe-bias=0 / rc-lookahead=60 / lookahead-slices=5 / scenecut=40 / hist-scenecut=0 / radl=0 / no-splice / no-intra-refresh / ctu=32 / min-cu-size=8 / no-rect / no-amp / max-tu-size=32 / tu-inter-depth=4 / tu-intra-depth=4 / limit-tu=1 / rdoq-level=2 / dynamic-rd=0.00 / no-ssim-rd / signhide / no-tskip / nr-intra=0 / nr-inter=0 / no-constrained-intra / strong-intra-smoothing / max-merge=5 / limit-refs=3 / no-limit-modes / me=3 / subme=7 / merange=57 / temporal-mvp / no-frame-dup / no-hme / weightp / no-weightb / no-analyze-src-pics / deblock=-3:-3 / no-sao / no-sao-non-deblock / rd=4 / selective-sao=0 / early-skip / no-rskip / no-fast-intra / no-tskip-fast / no-cu-lossless / b-intra / no-splitrd-skip / rdpenalty=0 / psy-rd=2.00 / psy-rdoq=1.00 / no-rd-refine / no-lossless / cbqpoffs=0 / crqpoffs=0 / rc=crf / crf=20.7 / qcomp=0.70 / qpstep=4 / stats-write=0 / stats-read=0 / vbv-maxrate=50000 / vbv-bufsize=50000 / vbv-init=0.9 / min-vbv-fullness=50.0 / max-vbv-fullness=80.0 / crf-max=30.0 / crf-min=0.0 / ipratio=1.40 / pbratio=1.30 / aq-mode=1 / aq-strength=1.00 / no-cutree / zone-count=0 / no-strict-cbr / qg-size=32 / no-rc-grain / qpmax=69 / qpmin=0 / no-const-vbv / sar=1 / overscan=0 / videoformat=5 / range=0 / colorprim=2 / transfer=2 / colormatrix=2 / chromaloc=0 / display-window=0 / cll=0,0 / min-luma=0 / max-luma=1023 / log2-max-poc-lsb=8 / vui-timing-info / vui-hrd-info / slices=1 / no-opt-qp-pps / no-opt-ref-list-length-pps / no-multi-pass-opt-rps / scenecut-bias=0.05 / hist-threshold=0.03 / no-opt-cu-delta-qp / no-aq-motion / no-hdr10 / no-hdr10-opt / no-dhdr10-opt / no-idr-recovery-sei / analysis-reuse-level=0 / analysis-save-reuse-level=0 / analysis-load-reuse-level=0 / scale-factor=0 / refine-intra=0 / refine-inter=0 / refine-mv=1 / refine-ctu-distortion=0 / no-limit-sao / ctu-info=0 / no-lowpass-dct / refine-analysis-type=0 / copy-pic=1 / max-ausize-factor=1.0 / no-dynamic-refine / no-single-sei / no-hevc-aq / no-svt / no-field / qp-adaptation-range=1.00 / no-scenecut-aware-qpconformance-window-offsets / right=0 / bottom=0 / decoder-max-rate=0 / no-vbv-live-multi-pass
Language : English
Default : Yes
Forced : No
Color range : Limited

Audio #1
ID : 2
Format : AC-3
Format/Info : Audio Coding 3
Commercial name : Dolby Digital
Codec ID : A_AC3
Duration : 1 h 43 min
Bit rate mode : Constant
Bit rate : 384 kb/s
Channel(s) : 6 channels
Channel layout : L R C LFE Ls Rs
Sampling rate : 48.0 kHz
Frame rate : 31.250 FPS (1536 SPF)
Compression mode : Lossy
Stream size : 283 MiB (5%)
Title : Dub
Language : Russian
Service kind : Complete Main
Default : Yes
Forced : Yes

Audio #2
ID : 3
Format : AC-3
Format/Info : Audio Coding 3
Commercial name : Dolby Digital
Codec ID : A_AC3
Duration : 1 h 43 min
Bit rate mode : Constant
Bit rate : 448 kb/s
Channel(s) : 6 channels
Channel layout : L R C LFE Ls Rs
Sampling rate : 48.0 kHz
Frame rate : 31.250 FPS (1536 SPF)
Compression mode : Lossy
Stream size : 330 MiB (6%)
Title : Russian MVO HDRezka Studio
Language : Russian
Service kind : Complete Main
Default : No
Forced : No

Audio #3
ID : 4
Format : AC-3
Format/Info : Audio Coding 3
Commercial name : Dolby Digital
Codec ID : A_AC3
Duration : 1 h 43 min
Bit rate mode : Constant
Bit rate : 384 kb/s
Channel(s) : 6 channels
Channel layout : L R C LFE Ls Rs
Sampling rate : 48.0 kHz
Frame rate : 31.250 FPS (1536 SPF)
Compression mode : Lossy
Stream size : 283 MiB (5%)
Title : Ukrainian MVO HDRezka Studio
Language : Ukrainian
Service kind : Complete Main
Default : No
Forced : No

Audio #4
ID : 5
Format : AC-3
Format/Info : Audio Coding 3
Commercial name : Dolby Digital
Codec ID : A_AC3
Duration : 1 h 43 min
Bit rate mode : Constant
Bit rate : 640 kb/s
Channel(s) : 6 channels
Channel layout : L R C LFE Ls Rs
Sampling rate : 48.0 kHz
Frame rate : 31.250 FPS (1536 SPF)
Compression mode : Lossy
Stream size : 472 MiB (9%)
Title : Original
Language : English
Service kind : Complete Main
Default : No
Forced : No

Text #1
ID : 6
Format : UTF-8
Codec ID : S_TEXT/UTF8
Codec ID/Info : UTF-8 Plain Text
Duration : 1 h 41 min
Bit rate : 0 b/s
Count of elements : 10
Stream size : 536 Bytes (0%)
Title : Forced
Language : Russian
Default : Yes
Forced : Yes

Text #2
ID : 7
Format : UTF-8
Codec ID : S_TEXT/UTF8
Codec ID/Info : UTF-8 Plain Text
Duration : 1 h 41 min
Bit rate : 27 b/s
Count of elements : 490
Stream size : 20.3 KiB (0%)
Title : Full
Language : Russian
Default : No
Forced : No

Text #3
ID : 8
Format : UTF-8
Codec ID : S_TEXT/UTF8
Codec ID/Info : UTF-8 Plain Text
Duration : 1 h 32 min
Bit rate : 30 b/s
Count of elements : 521
Stream size : 20.9 KiB (0%)
Title : Full [Enigma]
Language : Russian
Default : No
Forced : No

Text #4
ID : 9
Format : UTF-8
Codec ID : S_TEXT/UTF8
Codec ID/Info : UTF-8 Plain Text
Duration : 1 h 33 min
Bit rate : 29 b/s
Count of elements : 502
Stream size : 20.3 KiB (0%)
Title : Full [FOCS]
Language : Russian
Default : No
Forced : No

Text #5
ID : 10
Format : UTF-8
Codec ID : S_TEXT/UTF8
Codec ID/Info : UTF-8 Plain Text
Duration : 1 h 31 min
Bit rate : 3 b/s
Count of elements : 25
Stream size : 2.12 KiB (0%)
Title : Ukrainian forced
Language : Ukrainian
Default : No
Forced : No

Text #6
ID : 11
Format : UTF-8
Codec ID : S_TEXT/UTF8
Codec ID/Info : UTF-8 Plain Text
Duration : 19 min 24 s
Bit rate : 0 b/s
Count of elements : 4
Stream size : 112 Bytes (0%)
Title : Forced
Language : English
Default : No
Forced : No

Text #7
ID : 12
Format : UTF-8
Codec ID : S_TEXT/UTF8
Codec ID/Info : UTF-8 Plain Text
Duration : 1 h 29 min
Bit rate : 19 b/s
Count of elements : 498
Stream size : 12.7 KiB (0%)
Title : Full
Language : English
Default : No
Forced : No

Text #8
ID : 13
Format : UTF-8
Codec ID : S_TEXT/UTF8
Codec ID/Info : UTF-8 Plain Text
Duration : 1 h 35 min
Bit rate : 26 b/s
Count of elements : 814
Stream size : 18.6 KiB (0%)
Title : SDH
Language : English
Default : No
Forced : No

Menu
00:00:00.000 : :Chapter 01
00:04:59.424 : :Chapter 02
00:10:28.211 : :Chapter 03
00:15:26.342 : :Chapter 04
00:21:12.938 : :Chapter 05
00:24:53.492 : :Chapter 06
00:31:53.328 : :Chapter 07
00:35:58.698 : :Chapter 08
00:41:10.301 : :Chapter 09
00:48:05.007 : :Chapter 10
00:54:10.080 : :Chapter 11
01:01:36.109 : :Chapter 12
01:06:18.516 : :Chapter 13
01:13:21.689 : :Chapter 14
01:23:01.727 : :Chapter 15
01:31:21.601 : :Chapter 16
01:35:39.734 : :Chapter 17
Загрузка...Cкриншот1 Охотник на монстров / Monster Hunter (2020) BDRip 1080p [HEVC] 10 bit от mikosЗагрузка...Cкриншот2 Охотник на монстров / Monster Hunter (2020) BDRip 1080p [HEVC] 10 bit от mikosЗагрузка...Cкриншот3 Охотник на монстров / Monster Hunter (2020) BDRip 1080p [HEVC] 10 bit от mikosЗагрузка...Cкриншот4 Охотник на монстров / Monster Hunter (2020) BDRip 1080p [HEVC] 10 bit от mikos
Сэмпл Торрент🧲 Магнет

Рейтинги КП и IMDB, кнопки "Позвать в чате" и "Спасибо", а также мультитрекерная статистика доступны только зарегистрированным/авторизованным пользователям!

Файлы: 1
  • Monster Hunter 2020.BDRip.1080p.HEVC.DUB.10bit.mikos.mkv   5.3 ГБ
Поблагодарили: 6
cdmitry, donadar, GIS88, Kiran, makss333, MIGRANT
HANNIBAL
936405.3 ГБ

Добавление нового комментария

Добавление комментариев доступно только зарегистрированным/авторизованным пользователям.
Аватар mafo2
  mafo2  
Tony писал(а):
А кикие у вас телики-моники? HDR вещь? Тоже вот мечтаю...)
Присоединяюсь к предыдущему мнению )
Аватар не указан
  donadar  
Tony писал(а):
А кикие у вас телики-моники? HDR вещь? Тоже вот мечтаю...)
Вещь, не то слово!
Аватар не указан
  Tony  
А кикие у вас телики-моники? HDR вещь? Тоже вот мечтаю...)
Аватар NoMaD
  NoMaD  
mafo2 писал(а):
ну не прям все )
Ну почти))) Список всё равно большой)))
Аватар mafo2
  mafo2  
NoMaD писал(а):
Ну так все обычные рипы будут переделаны в HDR. Конечно только на которые есть UHD исходники
ну не прям все )
Аватар NoMaD
  NoMaD  
Priest2017 писал(а):
Твои рипы в HDR просто отличные побольше бы))
Ну так все обычные рипы будут переделаны в HDR. Конечно только на которые есть UHD исходники
Аватар не указан
  Priest2017  
Твои рипы в HDR просто отличные побольше бы))
Аватар NoMaD
  NoMaD  
mafo2 писал(а):
О! Надо его с HDR забабахать.
По-моему, у меня немного крыша съехала на почве HDR )
Да, есть немного))) Душу ждём)))
Аватар mafo2
  mafo2  
О! Надо его с HDR забабахать.
По-моему, у меня немного крыша съехала на почве HDR )