💬 Мини-чат

GiggaloСообщение удалено (удалил: Giggalo)
StarLordOldGamer, как дела?)
StarLordOldGamer, ура, вернулся 😄
OldGamerRezident, можете скачать этот фильм от другого релизёра, там невелика разница, а раздающие точно есть
OldGamerGiggalo, https://tsya.ru/mnemonic.html
NoMaDСообщение удалено (удалил: NoMaD)
NoMaDСообщение удалено (удалил: NoMaD)
GiggaloСообщение удалено (удалил: Giggalo)
GiggaloСообщение удалено (удалил: Giggalo)
Spartanec1308Был днём
StarLordGiggalo, наверное отрубало беднягу, целый день его нету 😅
GiggaloСообщение удалено (удалил: Giggalo)
OldGamerДоброе. Работы много, некогда на перинах валяться.
GiggaloСообщение удалено (удалил: Giggalo)
GiggaloСообщение удалено (удалил: Giggalo)
  • Spartanec1308
  • StarLord
  • Krem_OFF
  • litanglong
  • mr_nikitin
Отправка сообщений доступна только зарегистрированным/авторизованным пользователям.
Онлайн (за 10 мин.): 5

Американский президент / The American President (1995) BDRip 1080p [HEVC] 10 bit от OldGamer (RG RIPS CLUB)

HEVC
10 bit
Обложка Американский президент / The American President (1995) BDRip 1080p [HEVC] 10 bit от OldGamer (RG RIPS CLUB) Год: 1995
Страна: США
Студия: Castle Rock Entertainment, Columbia Pictures Corporation, Digital Image Associates
Жанр: Драма, Мелодрама, Комедия
Продолжительность: 01:53:23

Режиссер: Роб Райнер
В ролях: Майкл Дуглас, Аннетт Бенинг, Мартин Шин, Майкл Дж. Фокс, Анна Дивер Смит, Саманта Мэтис, Шона Уолдрон, Дэвид Пэймер, Энн Хейни, Ричард Дрейфусс

Описание: Эндрю Шепард — президент США. Но помимо этого он отец, вдовец и просто человек, ищущий своё счастье. Приближаются новые выборы президента, на которых у него есть все шансы быть переизбранным. Но внезапно в его жизни появляется дерзкая, яркая, бескомпромиссная Сидней Элен Уэйд, и избиратели начинают сомневаться в семейных ценностях главы Белого дома. Теперь Эндрю Шепард должен сделать тяжёлый выбор между личным счастьем и политической карьерой.


Исходник: Blu-Ray Remux 1080p (rutracker)
Видео: 1908x796 (2.40:1), 8392 Кбит/сек, HEVC (Main10@L.4.1@High)
Аудио1: AC3, 2 ch, 192 Kbps - РусскийРусский, Многоголосый (Премьер-видео)
Аудио2: AC3, 2 ch, 192 Kbps - РусскийРусский, Многоголосый (R5)
Аудио3: AC3, 6 ch, 640 Kbps - РусскийРусский, Авторский (Юрий Живов)
Аудио4: AC3, 6 ch, 640 Kbps - РусскийРусский, Авторский (Андрей Гаврилов)
Аудио5: AC3, 2 ch, 192 Kbps - УкраинскийУкраинский, Многоголосый (ICTV)
Аудио6: AC3, 2 ch, 192 Kbps - УкраинскийУкраинский, Многоголосый (ТРК Україна)
Аудио7: AC3, 6 ch, 640 Kbps - EnglishEnglish, Original
Субтитры: English full (SDH)

Как за пару секунд удалить ненужные аудиодорожки и субтитры (Внимание! После удаления вы не сможете поддержать раздачу)

Лог (x265 info)
x265 [info]: frame I: 680, Avg QP:18.30 kb/s: 20448.91
x265 [info]: frame P: 26977, Avg QP:19.41 kb/s: 15679.30
x265 [info]: frame B: 135471, Avg QP:21.64 kb/s: 6879.69
x265 [info]: Weighted P-Frames: Y:7.6% UV:5.6%
x265 [info]: Weighted B-Frames: Y:6.1% UV:3.7%
x265 [info]: consecutive B-frames: 0.5% 0.8% 1.3% 17.5% 5.8% 53.4% 8.3% 9.0% 1.8% 1.2% 0.2% 0.1% 0.1% 0.1% 0.0% 0.1% 0.0%
x265 [info]: encoded 163128 frames in 100525.03s (1.62 fps), 8391.47 kb/s, Avg QP:21.26
Медиаинфо
Общее
Уникальный идентификатор : 327885608848199608371039870848563391094 (0xF6AC78A347682EDB6C5A2C724E6FAA76)
Полное имя : \\.\Американский.президент.The.American.President.1995.BDRip-HEVC.1080p.mkv
Формат : Matroska
Версия формата : Version 4
Размер файла : 8,78 Гбайт
Продолжительность : 1 ч. 53 м.
Общий поток : 11,1 Мбит/сек
Название фильма : Американский.президент.The.American.President.1995.BDRip-HEVC.1080p
Дата кодирования : UTC 2021-04-08 02:56:15
Программа кодирования : mkvmerge v56.0.0 ('Strasbourg / St. Denis') 64-bit
Библиотека кодирования : libebml v1.4.2 + libmatroska v1.6.4

Видео
Идентификатор : 1
Формат : HEVC
Формат/Информация : High Efficiency Video Coding
Профиль формата : Main 10@L4.1@High
Идентификатор кодека : V_MPEGH/ISO/HEVC
Продолжительность : 1 ч. 53 м.
Битрейт : 8 392 Кбит/сек
Ширина : 1 908 пикселей
Высота : 796 пикселей
Соотношение сторон : 2,40:1
Режим частоты кадров : Постоянный
Частота кадров : 23,976 (24000/1001) кадра/сек
Цветовое пространство : YUV
Субдискретизация насыщенности : 4:2:0
Битовая глубина : 10 бит
Бит/(Пиксели*Кадры) : 0.230
Размер потока : 6,65 Гбайт (76%)
Заголовок : The American President / Rip by OldGamer
Библиотека кодирования : x265 3.5+1-ce882936d:[Windows][GCC 10.2.0][64 bit] 10bit
Настройки программы : cpuid=1111039 / frame-threads=3 / numa-pools=8 / wpp / no-pmode / no-pme / no-psnr / no-ssim / log-level=2 / input-csp=1 / input-res=1908x796 / interlace=0 / total-frames=163128 / level-idc=41 / high-tier=1 / uhd-bd=0 / ref=5 / no-allow-non-conformance / no-repeat-headers / annexb / no-aud / no-hrd / info / hash=0 / no-temporal-layers / open-gop / min-keyint=23 / keyint=240 / gop-lookahead=0 / bframes=16 / b-adapt=2 / b-pyramid / bframe-bias=0 / rc-lookahead=40 / lookahead-slices=0 / scenecut=40 / hist-scenecut=0 / radl=0 / no-splice / no-intra-refresh / ctu=32 / min-cu-size=8 / rect / amp / max-tu-size=32 / tu-inter-depth=4 / tu-intra-depth=4 / limit-tu=1 / rdoq-level=2 / dynamic-rd=0.00 / no-ssim-rd / signhide / no-tskip / nr-intra=0 / nr-inter=0 / no-constrained-intra / no-strong-intra-smoothing / max-merge=5 / limit-refs=3 / no-limit-modes / me=3 / subme=7 / merange=57 / temporal-mvp / no-frame-dup / no-hme / weightp / weightb / no-analyze-src-pics / deblock=-3:-3 / no-sao / no-sao-non-deblock / rd=6 / selective-sao=0 / no-early-skip / rskip / no-fast-intra / no-tskip-fast / no-cu-lossless / b-intra / no-splitrd-skip / rdpenalty=0 / psy-rd=2.00 / psy-rdoq=1.00 / no-rd-refine / no-lossless / cbqpoffs=0 / crqpoffs=0 / rc=crf / crf=19.7 / qcomp=0.60 / qpstep=4 / stats-write=0 / stats-read=0 / vbv-maxrate=50000 / vbv-bufsize=50000 / vbv-init=0.9 / min-vbv-fullness=50.0 / max-vbv-fullness=80.0 / crf-max=0.0 / crf-min=0.0 / ipratio=1.40 / pbratio=1.30 / aq-mode=1 / aq-strength=1.00 / no-cutree / zone-count=1 / zones: / start-frame=155746 / end-frame=163128 / qp=35 / no-strict-cbr / qg-size=32 / no-rc-grain / qpmax=69 / qpmin=0 / no-const-vbv / sar=1 / overscan=0 / videoformat=5 / range=0 / colorprim=2 / transfer=2 / colormatrix=2 / chromaloc=0 / display-window=0 / cll=0,0 / min-luma=0 / max-luma=1023 / log2-max-poc-lsb=8 / vui-timing-info / vui-hrd-info / slices=1 / no-opt-qp-pps / no-opt-ref-list-length-pps / no-multi-pass-opt-rps / scenecut-bias=0.00 / hist-threshold=0.03 / no-opt-cu-delta-qp / no-aq-motion / no-hdr10 / no-hdr10-opt / no-dhdr10-opt / no-idr-recovery-sei / analysis-reuse-level=0 / analysis-save-reuse-level=0 / analysis-load-reuse-level=0 / scale-factor=0 / refine-intra=0 / refine-inter=0 / refine-mv=1 / refine-ctu-distortion=0 / no-limit-sao / ctu-info=0 / no-lowpass-dct / refine-analysis-type=0 / copy-pic=1 / max-ausize-factor=1.0 / no-dynamic-refine / no-single-sei / no-hevc-aq / no-svt / no-field / qp-adaptation-range=1.00 / scenecut-aware-qp=0conformance-window-offsets / right=0 / bottom=0 / decoder-max-rate=0 / no-vbv-live-multi-pass
Язык : English
Default : Да
Forced : Нет

Аудио #1
Идентификатор : 2
Формат : AC-3
Формат/Информация : Audio Coding 3
Коммерческое название : Dolby Digital
Идентификатор кодека : A_AC3
Продолжительность : 1 ч. 53 м.
Вид битрейта : Постоянный
Битрейт : 192 Кбит/сек
Каналы : 2 канала
Channel layout : L R
Частота : 48,0 КГц
Частота кадров : 31,250 кадров/сек (1536 SPF)
Метод сжатия : С потерями
Размер потока : 156 Мбайт (2%)
Заголовок : MVO (Премьер-видео)
Язык : Russian
Service kind : Complete Main
Default : Да
Forced : Нет

Аудио #2
Идентификатор : 3
Формат : AC-3
Формат/Информация : Audio Coding 3
Коммерческое название : Dolby Digital
Идентификатор кодека : A_AC3
Продолжительность : 1 ч. 53 м.
Вид битрейта : Постоянный
Битрейт : 192 Кбит/сек
Каналы : 2 канала
Channel layout : L R
Частота : 48,0 КГц
Частота кадров : 31,250 кадров/сек (1536 SPF)
Метод сжатия : С потерями
Размер потока : 156 Мбайт (2%)
Заголовок : MVO (R5)
Язык : Russian
Service kind : Complete Main
Default : Нет
Forced : Нет

Аудио #3
Идентификатор : 4
Формат : AC-3
Формат/Информация : Audio Coding 3
Коммерческое название : Dolby Digital
Идентификатор кодека : A_AC3
Продолжительность : 1 ч. 53 м.
Вид битрейта : Постоянный
Битрейт : 640 Кбит/сек
Каналы : 6 каналов
Channel layout : L R C LFE Ls Rs
Частота : 48,0 КГц
Частота кадров : 31,250 кадров/сек (1536 SPF)
Метод сжатия : С потерями
Размер потока : 519 Мбайт (6%)
Заголовок : AVO (Юрий Живов)
Язык : Russian
Service kind : Complete Main
Default : Нет
Forced : Нет

Аудио #4
Идентификатор : 5
Формат : AC-3
Формат/Информация : Audio Coding 3
Коммерческое название : Dolby Digital
Идентификатор кодека : A_AC3
Продолжительность : 1 ч. 53 м.
Вид битрейта : Постоянный
Битрейт : 640 Кбит/сек
Каналы : 6 каналов
Channel layout : L R C LFE Ls Rs
Частота : 48,0 КГц
Частота кадров : 31,250 кадров/сек (1536 SPF)
Метод сжатия : С потерями
Размер потока : 519 Мбайт (6%)
Заголовок : AVO (Андрей Гаврилов)
Язык : Russian
Service kind : Complete Main
Default : Нет
Forced : Нет

Аудио #5
Идентификатор : 6
Формат : AC-3
Формат/Информация : Audio Coding 3
Коммерческое название : Dolby Digital
Идентификатор кодека : A_AC3
Продолжительность : 1 ч. 53 м.
Вид битрейта : Постоянный
Битрейт : 192 Кбит/сек
Каналы : 2 канала
Channel layout : L R
Частота : 48,0 КГц
Частота кадров : 31,250 кадров/сек (1536 SPF)
Метод сжатия : С потерями
Размер потока : 156 Мбайт (2%)
Заголовок : MVO (ICTV)
Язык : Ukrainian
Service kind : Complete Main
Default : Нет
Forced : Нет

Аудио #6
Идентификатор : 7
Формат : AC-3
Формат/Информация : Audio Coding 3
Коммерческое название : Dolby Digital
Идентификатор кодека : A_AC3
Продолжительность : 1 ч. 53 м.
Вид битрейта : Постоянный
Битрейт : 192 Кбит/сек
Каналы : 2 канала
Channel layout : L R
Частота : 48,0 КГц
Частота кадров : 31,250 кадров/сек (1536 SPF)
Метод сжатия : С потерями
Размер потока : 156 Мбайт (2%)
Заголовок : MVO (ТРК Україна)
Язык : Ukrainian
Service kind : Complete Main
Default : Нет
Forced : Нет

Аудио #7
Идентификатор : 8
Формат : AC-3
Формат/Информация : Audio Coding 3
Коммерческое название : Dolby Digital
Идентификатор кодека : A_AC3
Продолжительность : 1 ч. 53 м.
Вид битрейта : Постоянный
Битрейт : 640 Кбит/сек
Каналы : 6 каналов
Channel layout : L R C LFE Ls Rs
Частота : 48,0 КГц
Частота кадров : 31,250 кадров/сек (1536 SPF)
Метод сжатия : С потерями
Размер потока : 519 Мбайт (6%)
Язык : English
Service kind : Complete Main
Default : Нет
Forced : Нет

Текст
Идентификатор : 9
Формат : UTF-8
Идентификатор кодека : S_TEXT/UTF8
Идентификатор кодека/Информация : UTF-8 Plain Text
Продолжительность : 1 ч. 50 м.
Битрейт : 106 бит/сек
Count of elements : 1958
Размер потока : 86,1 Кбайт (0%)
Заголовок : English SDH
Язык : English
Default : Нет
Forced : Нет

Меню
00:00:00.000 : 1. President Credits.
00:02:39.785 : 2. Monday Morning.
00:08:03.191 : 3. A Heavy Bat.
00:09:08.631 : 4. Widower/Daughter.
00:12:17.111 : 5. Call Me Andy.
00:14:07.346 : 6. Both Intimidated.
00:21:20.738 : 7. He Likes Her.
00:25:16.515 : 8. Used To Be Easier.
00:30:28.285 : 9. One Thing at a Time.
00:31:55.122 : 10. Typical First Date.
00:36:29.562 : 11. Invited to Dance.
00:40:10.241 : 12. No Halfway.
00:46:01.968 : 13. Invitation to Dine.
00:48:36.914 : 14. Got a Girlfriend.
00:51:04.812 : 15. The 25-Cent Tour.
00:53:33.001 : 16. Hard Decision.
00:56:58.749 : 17. Their Relationship.
00:59:27.773 : 18. Get Comfortable.
01:04:08.928 : 19. Morning-After Exit.
01:07:36.052 : 20. Girlfriend Factor.
01:09:00.303 : 21. Sydney's Past.
01:10:51.372 : 22. A Floral Hop-Out.
01:14:56.575 : 23. First Mistress?
01:20:13.225 : 24. Freefall.
01:25:12.607 : 25. The Face Thing.
01:26:57.546 : 26. Crunch Time.
01:28:14.122 : 27. Leadership.
01:31:51.131 : 28. A Lost Vote.
01:35:29.432 : 29. One Step Behind.
01:38:45.920 : 30. Getting Serious.
01:44:05.614 : 31. Whatever Reason.
01:46:38.142 : 32. Last Minute Prep.
01:48:17.491 : 33. End Credits.
Загрузка...Cкриншот1 Американский президент / The American President (1995) BDRip 1080p [HEVC] 10 bit от OldGamer (RG RIPS CLUB)Загрузка...Cкриншот2 Американский президент / The American President (1995) BDRip 1080p [HEVC] 10 bit от OldGamer (RG RIPS CLUB)Загрузка...Cкриншот3 Американский президент / The American President (1995) BDRip 1080p [HEVC] 10 bit от OldGamer (RG RIPS CLUB)Загрузка...Cкриншот4 Американский президент / The American President (1995) BDRip 1080p [HEVC] 10 bit от OldGamer (RG RIPS CLUB)
Релиз-группа: RIPS CLUB
Сэмпл Торрент🧲 Магнет

Рейтинги КП и IMDB, кнопки "Позвать в чате" и "Спасибо", а также мультитрекерная статистика доступны только зарегистрированным/авторизованным пользователям!

Файлы: 1
  • Американский.президент.The.American.President.1995.BDRip-HEVC.1080p.mkv   8.78 ГБ
Поблагодарили: 7
Andrey_alex, Brooklyn, Giggalo, ivan_1965, ko1ob, makss333, Nuclear70
OldGamer
057818.78 ГБ

Добавление нового комментария

Добавление комментариев доступно только зарегистрированным/авторизованным пользователям.