💬 Мини-чат

OldGamerну и акустические излучатели собрать хорошие, типа Penaudio Legato Signature или похожие, тут надо тщательно собирать систему для прослушивания
OldGamerне помешает ещё посетить отоларинголога для промывки слухового аппарата от серных пробок специализированным сертифицированным раствором, это (промывка) имеет немаловажное значение
OldGamer😆🤐🤐
OldGamerи всё же лучше hi-end, с подключением кабелями типа Analysis-Plus Oval 9 из бескислородной меди и с их предварительным прогревом системой типа Nordost Vidar, иначе всё теряет смысл
XuMuKManson_Fan, не надо hi-end акустики, достаточно hi-fi. "Кристольность" на высоких частотах другая, в DTS кажется более "живым" звук. Но самая большая разница, когда сравниваешь АС3 с каким-нибудь DTS-HD MA
IRITРаздайте, пожалуйста, Байки из склепа: Демон ночи / Tales from the Crypt: Demon Knight (1995) BDRip 1080p [HEVC] 10 bit от druidblack
OldGamerManson_Fan, у меня нет hi-end акустики, поэтому не слушал, не знаю, может и есть разница. За других говорить не буду. В любом случае, продвинутым слухачам будет несложно найти, скачать и прикрепить дорожки требуемого им качества.
mafo2Manson_Fan, не все телевизоры поддерживают DTS. например, мой через встроенный плеер его не воспроизводит. можно конечно смотреть через ПК, но порой хочется и через ТВ.
Manson_FanOldGamer, "Скажите зачем релизёры звук DTS 768 kbps переделывают в AC3 640 kbps" Интересно, а разницу в качестве в фильмах кому то удавалось услышать?😕 мне вот нет
Manson_Fanникто еще не сравнивал HEVC и новый AV1?
IRITРаздайте, пожалуйста, Маньяк-полицейский 3: Знак молчания / Maniac Cop 3: Badge of Silence (1993) BDRip 1080p [HEVC] 10 bit от HANNIBAL
Spartanec1308С Днём Великой Победы!
BrooklynВсех с праздником! С Днем Великой Победы! Ура-Ура-Урааааааа
BrooklynADVOKAT69, Спасибо большое!
ADVOKAT69Операция «Ы» и другие приключения Шурика (1965) раздаю
mafo2С Днем Победы!
joker63Поздравляю всех с Днем Победы!
ADVOKAT69Admin, Спасибо деду за победу!Тебе за поздравление!
AdminADVOKAT69, Дедам спасибо.
ADVOKAT69Admin, спасибо большое!✋
  • Admin
  • alexyak
  • z_artem
Отправка сообщений доступна только зарегистрированным/авторизованным пользователям.
Онлайн (за 10 мин.): 3

Отряд самоубийц / Suicide Squad (2016) [Расширенная версия] BDRip 1080p [HEVC] 10 bit от -Star-Lord- (RG RIPS CLUB)

HEVC
10 bit
Обложка Отряд самоубийц / Suicide Squad (2016) [Расширенная версия] BDRip 1080p [HEVC] 10 bit от -Star-Lord- (RG RIPS CLUB) Год: 2016
Страна: США
Студия: DC Comics, Warner Bros. Pictures
Жанр: Фантастика, Боевик, Триллер, Криминал
Продолжительность: 02:14:32

Режиссер: Дэвид Эйр
В ролях: Марго Робби, Уилл Смит, Джаред Лето, Джай Кортни, Кара Делевинь, Джей Эрнандес, Юэль Киннаман, Виола Дэвис

Описание: Однажды директорше Агентства Национальной Безопасности привиделся жуткий кошмар – Супермену надоело летать над крышами небоскребов и вечно спасать мир. Когда Супермен бросил это позорное занятие, то явился в Белый Дом, выгнал оттуда к чертовой бабушке президента, сел в кресло в Овальном кабинете и заявил: «Этот домик мой немножко будет». Проснулась директорша в холодном поту и возопила – кто, кто спасет нас от съехавших с катушек супергероев? Ну конечно, только «Отряд Х» – отмороженная бригада из суперзлодеев, мотающих срок по тюрьмам да по темницам. И в самом деле – случись что, так их не жалко, а выйдут они из-под контроля, так у каждого на этот случай вживленная бомба имеется. И только этот бравый отряд успели собрать, как тут же во мрачном подземелье обнаружился древний злобный бог, решивший без шума и пыли весь мир к своим грязным лапам прибрать.


Видео: 1920x800, ~7774 Кбит/сек
Аудио1: AC3, 6 ch, 640 Kbps - РусскийРусский, Дублированный (Blu-Ray (Расширенные сцены озвучены А. Матвеевым))
Аудио2: AC3, 6 ch, 640 Kbps - РусскийРусский, Авторский (В. Горчаков)
Аудио3: AC3, 6 ch, 640 Kbps - РусскийРусский, Авторский (А. Матвеев)
Аудио4: AC3, 6 ch, 640 Kbps - РусскийРусский, Авторский (Ю. Живов)
Аудио5: AC3, 6 ch, 640 Kbps - РусскийРусский, Авторский (А. Гаврилов)
Аудио6: AC3, 2 ch, 192 Kbps - УкраинскийУкраинский, Дублированный (iTunes + вставки оригіналу)
Аудио7: AC3, 6 ch, 640 Kbps - АнглийскийАнглийский, Оригинал
Субтитры: русские (форс., полные х2), украинские (форс. х2), английские (полные, SDH, SDH-Colored)

Как за пару секунд удалить ненужные аудиодорожки и субтитры (Внимание! После удаления вы не сможете поддержать раздачу)

Лог (x265 info)
x265 [info]: frame I: 2105, Avg QP:16.60 kb/s: 20348.68
x265 [info]: frame P: 33398, Avg QP:17.70 kb/s: 13301.44
x265 [info]: frame B: 158053, Avg QP:19.68 kb/s: 6437.55
x265 [info]: Weighted P-Frames: Y:14.9% UV:12.7%
x265 [info]: Weighted B-Frames: Y:15.1% UV:11.7%
x265 [info]: consecutive B-frames: 11.3% 4.9% 6.9% 21.3% 9.8% 17.1% 7.2% 8.0% 3.6% 3.4% 2.0% 1.6% 1.0% 0.7% 0.6% 0.5% 0.4%

encoded 193556 frames in 201443.40s (0.96 fps), 7773.20 kb/s, Avg QP:19.30
Медиаинфо
General
Unique ID : 57612074765337187965018463533288816155 (0x2B57AE97377A717ABFD00A3CAACE7E1B)
Complete name : Suicide Squad (2016) [Extended Cut] BDRip 1080p H.265 [5xRUS_UKR_ENG] [RIPS-CLUB].mkv
Format : Matroska
Format version : Version 4
File size : 10.9 GiB
Duration : 2 h 14 min
Overall bit rate : 11.6 Mb/s
Movie name : Загін самогубців / Suicide Squad (2016) [Extended Cut]
Encoded date : UTC 2021-04-17 15:39:34
Writing application : mkvmerge v20.0.0 ('I Am The Sun') 64-bit
Writing library : libebml v1.3.5 + libmatroska v1.4.8
Cover : Yes
Attachments : Cover.jpg

Video
ID : 1
Format : HEVC
Format/Info : High Efficiency Video Coding
Format profile : Main 10@L4.1@High
Codec ID : V_MPEGH/ISO/HEVC
Duration : 2 h 14 min
Bit rate : 7 774 kb/s
Width : 1 920 pixels
Height : 800 pixels
Display aspect ratio : 2.40:1
Frame rate mode : Constant
Frame rate : 23.976 (24000/1001) FPS
Color space : YUV
Chroma subsampling : 4:2:0
Bit depth : 10 bits
Bits/(Pixel*Frame) : 0.211
Stream size : 7.31 GiB (67%)
Title : Загін самогубців / Suicide Squad (2016) [Extended Cut]
Writing library : x265 3.5+1-ce882936d:[Windows][GCC 10.2.0][64 bit] 10bit
Encoding settings : cpuid=1111039 / frame-threads=3 / numa-pools=12 / wpp / no-pmode / no-pme / no-psnr / no-ssim / log-level=2 / input-csp=1 / input-res=1920x800 / interlace=0 / total-frames=193556 / level-idc=41 / high-tier=1 / uhd-bd=0 / ref=5 / no-allow-non-conformance / no-repeat-headers / annexb / no-aud / no-hrd / info / hash=0 / no-temporal-layers / open-gop / min-keyint=23 / keyint=240 / gop-lookahead=0 / bframes=16 / b-adapt=2 / b-pyramid / bframe-bias=0 / rc-lookahead=60 / lookahead-slices=4 / scenecut=40 / hist-scenecut=0 / radl=0 / no-splice / no-intra-refresh / ctu=32 / min-cu-size=8 / rect / amp / max-tu-size=32 / tu-inter-depth=4 / tu-intra-depth=4 / limit-tu=1 / rdoq-level=2 / dynamic-rd=0.00 / no-ssim-rd / signhide / no-tskip / nr-intra=0 / nr-inter=0 / no-constrained-intra / no-strong-intra-smoothing / max-merge=5 / limit-refs=2 / limit-modes / me=3 / subme=7 / merange=57 / temporal-mvp / no-frame-dup / no-hme / weightp / weightb / no-analyze-src-pics / deblock=-3:-3 / no-sao / no-sao-non-deblock / rd=6 / selective-sao=0 / no-early-skip / no-rskip / no-fast-intra / no-tskip-fast / no-cu-lossless / no-b-intra / no-splitrd-skip / rdpenalty=0 / psy-rd=2.00 / psy-rdoq=1.00 / no-rd-refine / no-lossless / cbqpoffs=0 / crqpoffs=0 / rc=crf / crf=20.5 / qcomp=0.70 / qpstep=4 / stats-write=0 / stats-read=0 / vbv-maxrate=50000 / vbv-bufsize=50000 / vbv-init=0.9 / min-vbv-fullness=50.0 / max-vbv-fullness=80.0 / crf-max=0.0 / crf-min=0.0 / ipratio=1.40 / pbratio=1.30 / aq-mode=1 / aq-strength=1.00 / no-cutree / zone-count=0 / no-strict-cbr / qg-size=32 / no-rc-grain / qpmax=69 / qpmin=0 / no-const-vbv / sar=1 / overscan=0 / videoformat=5 / range=0 / colorprim=2 / transfer=2 / colormatrix=2 / chromaloc=0 / display-window=0 / cll=0,0 / min-luma=0 / max-luma=1023 / log2-max-poc-lsb=8 / vui-timing-info / vui-hrd-info / slices=1 / no-opt-qp-pps / no-opt-ref-list-length-pps / no-multi-pass-opt-rps / scenecut-bias=0.05 / hist-threshold=0.03 / no-opt-cu-delta-qp / no-aq-motion / no-hdr10 / no-hdr10-opt / no-dhdr10-opt / no-idr-recovery-sei / analysis-reuse-level=0 / analysis-save-reuse-level=0 / analysis-load-reuse-level=0 / scale-factor=0 / refine-intra=0 / refine-inter=0 / refine-mv=1 / refine-ctu-distortion=0 / no-limit-sao / ctu-info=0 / no-lowpass-dct / refine-analysis-type=0 / copy-pic=1 / max-ausize-factor=1.0 / no-dynamic-refine / no-single-sei / no-hevc-aq / no-svt / no-field / qp-adaptation-range=1.00 / scenecut-aware-qp=0conformance-window-offsets / right=0 / bottom=0 / decoder-max-rate=0 / no-vbv-live-multi-pass
Language : English
Default : Yes
Forced : Yes

Audio #1
ID : 2
Format : AC-3
Format/Info : Audio Coding 3
Commercial name : Dolby Digital
Codec ID : A_AC3
Duration : 2 h 14 min
Bit rate mode : Constant
Bit rate : 640 kb/s
Channel(s) : 6 channels
Channel layout : L R C LFE Ls Rs
Sampling rate : 48.0 kHz
Frame rate : 31.250 FPS (1536 SPF)
Compression mode : Lossy
Stream size : 616 MiB (6%)
Title : AC-3 / 5.1 Ch / 640 kbps / DUB / Blu-Ray (Расширенные сцены озвучены А. Матвеевым)
Language : Russian
Service kind : Complete Main
Default : Yes
Forced : Yes

Audio #2
ID : 3
Format : AC-3
Format/Info : Audio Coding 3
Commercial name : Dolby Digital
Codec ID : A_AC3
Duration : 2 h 14 min
Bit rate mode : Constant
Bit rate : 640 kb/s
Channel(s) : 6 channels
Channel layout : L R C LFE Ls Rs
Sampling rate : 48.0 kHz
Frame rate : 31.250 FPS (1536 SPF)
Compression mode : Lossy
Stream size : 616 MiB (6%)
Title : AC-3 / 5.1 Ch / 640 kbps / AVO / В. Горчаков
Language : Russian
Service kind : Complete Main
Default : No
Forced : No

Audio #3
ID : 4
Format : AC-3
Format/Info : Audio Coding 3
Commercial name : Dolby Digital
Codec ID : A_AC3
Duration : 2 h 14 min
Bit rate mode : Constant
Bit rate : 640 kb/s
Channel(s) : 6 channels
Channel layout : L R C LFE Ls Rs
Sampling rate : 48.0 kHz
Frame rate : 31.250 FPS (1536 SPF)
Compression mode : Lossy
Stream size : 616 MiB (6%)
Title : AC-3 / 5.1 Ch / 640 kbps / AVO / А. Матвеев
Language : Russian
Service kind : Complete Main
Default : No
Forced : No

Audio #4
ID : 5
Format : AC-3
Format/Info : Audio Coding 3
Commercial name : Dolby Digital
Codec ID : A_AC3
Duration : 2 h 14 min
Bit rate mode : Constant
Bit rate : 640 kb/s
Channel(s) : 6 channels
Channel layout : L R C LFE Ls Rs
Sampling rate : 48.0 kHz
Frame rate : 31.250 FPS (1536 SPF)
Compression mode : Lossy
Stream size : 616 MiB (6%)
Title : AC-3 / 5.1 Ch / 640 kbps / AVO / Ю. Живов
Language : Russian
Service kind : Complete Main
Default : No
Forced : No

Audio #5
ID : 6
Format : AC-3
Format/Info : Audio Coding 3
Commercial name : Dolby Digital
Codec ID : A_AC3
Duration : 2 h 14 min
Bit rate mode : Constant
Bit rate : 448 kb/s
Channel(s) : 6 channels
Channel layout : L R C LFE Ls Rs
Sampling rate : 48.0 kHz
Frame rate : 31.250 FPS (1536 SPF)
Compression mode : Lossy
Stream size : 431 MiB (4%)
Title : AC-3 / 5.1 Ch / 448 kbps / AVO / А. Гаврилов
Language : Russian
Service kind : Complete Main
Default : No
Forced : No

Audio #6
ID : 7
Format : AC-3
Format/Info : Audio Coding 3
Commercial name : Dolby Digital
Codec ID : A_AC3
Duration : 2 h 14 min
Bit rate mode : Constant
Bit rate : 192 kb/s
Channel(s) : 2 channels
Channel layout : L R
Sampling rate : 48.0 kHz
Frame rate : 31.250 FPS (1536 SPF)
Compression mode : Lossy
Stream size : 185 MiB (2%)
Title : AC-3 / 2.0 Ch / 192 kbps / DUB / iTunes + вставки оригіналу
Language : Ukrainian
Service kind : Complete Main
Default : No
Forced : No

Audio #7
ID : 8
Format : AC-3
Format/Info : Audio Coding 3
Commercial name : Dolby Digital
Codec ID : A_AC3
Duration : 2 h 14 min
Bit rate mode : Constant
Bit rate : 640 kb/s
Channel(s) : 6 channels
Channel layout : L R C LFE Ls Rs
Sampling rate : 48.0 kHz
Frame rate : 31.250 FPS (1536 SPF)
Compression mode : Lossy
Stream size : 616 MiB (6%)
Title : AC-3 / 5.1 Ch / 640 kbps / Original
Language : English
Service kind : Complete Main
Default : No
Forced : No

Text #1
ID : 9
Format : UTF-8
Codec ID : S_TEXT/UTF8
Codec ID/Info : UTF-8 Plain Text
Duration : 2 h 13 min
Bit rate : 5 b/s
Count of elements : 111
Stream size : 5.03 KiB (0%)
Title : Forced
Language : Russian
Default : Yes
Forced : Yes

Text #2
ID : 10
Format : UTF-8
Codec ID : S_TEXT/UTF8
Codec ID/Info : UTF-8 Plain Text
Duration : 2 h 13 min
Bit rate : 72 b/s
Count of elements : 1570
Stream size : 71.4 KiB (0%)
Title : Full from iTunes
Language : Russian
Default : No
Forced : No

Text #3
ID : 11
Format : UTF-8
Codec ID : S_TEXT/UTF8
Codec ID/Info : UTF-8 Plain Text
Duration : 2 h 7 min
Bit rate : 80 b/s
Count of elements : 1592
Stream size : 75.0 KiB (0%)
Title : Full by Jet
Language : Russian
Default : No
Forced : No

Text #4
ID : 12
Format : UTF-8
Codec ID : S_TEXT/UTF8
Codec ID/Info : UTF-8 Plain Text
Duration : 2 h 5 min
Bit rate : 13 b/s
Count of elements : 256
Stream size : 12.9 KiB (0%)
Title : Forced by Taras_F21.03
Language : Ukrainian
Default : No
Forced : No

Text #5
ID : 13
Format : UTF-8
Codec ID : S_TEXT/UTF8
Codec ID/Info : UTF-8 Plain Text
Duration : 1 h 45 min
Bit rate : 13 b/s
Count of elements : 219
Stream size : 10.6 KiB (0%)
Title : Forced
Language : Ukrainian
Default : No
Forced : No

Text #6
ID : 14
Format : UTF-8
Codec ID : S_TEXT/UTF8
Codec ID/Info : UTF-8 Plain Text
Duration : 2 h 6 min
Bit rate : 46 b/s
Count of elements : 1507
Stream size : 43.1 KiB (0%)
Title : Full
Language : English
Default : No
Forced : No

Text #7
ID : 15
Format : UTF-8
Codec ID : S_TEXT/UTF8
Codec ID/Info : UTF-8 Plain Text
Duration : 2 h 6 min
Bit rate : 53 b/s
Count of elements : 1821
Stream size : 49.6 KiB (0%)
Title : SDH
Language : English
Default : No
Forced : No

Text #8
ID : 16
Format : UTF-8
Codec ID : S_TEXT/UTF8
Codec ID/Info : UTF-8 Plain Text
Duration : 2 h 6 min
Bit rate : 70 b/s
Count of elements : 1822
Stream size : 65.4 KiB (0%)
Title : SDH-Colored
Language : English
Default : No
Forced : No

Menu
00:00:00.000 : en:00:00:00.000
00:09:08.506 : en:00:09:08.506
00:20:22.972 : en:00:20:22.972
00:31:14.706 : en:00:31:14.706
00:41:04.879 : en:00:41:04.879
00:52:21.805 : en:00:52:21.805
01:04:48.843 : en:01:04:48.843
01:21:12.743 : en:01:21:12.743
01:32:11.943 : en:01:32:11.943
01:42:57.671 : en:01:42:57.671
01:50:58.652 : en:01:50:58.652
02:04:04.812 : en:02:04:04.812
Загрузка...Cкриншот1 Отряд самоубийц / Suicide Squad (2016) [Расширенная версия] BDRip 1080p [HEVC] 10 bit от -Star-Lord- (RG RIPS CLUB)Загрузка...Cкриншот2 Отряд самоубийц / Suicide Squad (2016) [Расширенная версия] BDRip 1080p [HEVC] 10 bit от -Star-Lord- (RG RIPS CLUB)Загрузка...Cкриншот3 Отряд самоубийц / Suicide Squad (2016) [Расширенная версия] BDRip 1080p [HEVC] 10 bit от -Star-Lord- (RG RIPS CLUB)Загрузка...Cкриншот4 Отряд самоубийц / Suicide Squad (2016) [Расширенная версия] BDRip 1080p [HEVC] 10 bit от -Star-Lord- (RG RIPS CLUB)
Релиз-группа: RIPS CLUB
Сэмпл Торрент🧲 Магнет

Рейтинги КП и IMDB, кнопки "Позвать в чате" и "Спасибо", а также мультитрекерная статистика доступны только зарегистрированным/авторизованным пользователям!

Файлы: 1
  • Suicide Squad (2016) [Extended Cut] BDRip 1080p H.265 [5xRUS_UKR_ENG] [RIPS-CLUB].mkv   10.92 ГБ
Поблагодарили: 10
D16T, Diman, Kiran, makss333, maximka, nazarpavluwun, NoMaD, Nuclear70, Rexfire, TimofeevP
StarLord
021247510.92 ГБ

Добавление нового комментария

Добавление комментариев доступно только зарегистрированным/авторизованным пользователям.