💬 Мини-чат

OldGamerну и акустические излучатели собрать хорошие, типа Penaudio Legato Signature или похожие, тут надо тщательно собирать систему для прослушивания
OldGamerне помешает ещё посетить отоларинголога для промывки слухового аппарата от серных пробок специализированным сертифицированным раствором, это (промывка) имеет немаловажное значение
OldGamer😆🤐🤐
OldGamerи всё же лучше hi-end, с подключением кабелями типа Analysis-Plus Oval 9 из бескислородной меди и с их предварительным прогревом системой типа Nordost Vidar, иначе всё теряет смысл
XuMuKManson_Fan, не надо hi-end акустики, достаточно hi-fi. "Кристольность" на высоких частотах другая, в DTS кажется более "живым" звук. Но самая большая разница, когда сравниваешь АС3 с каким-нибудь DTS-HD MA
IRITРаздайте, пожалуйста, Байки из склепа: Демон ночи / Tales from the Crypt: Demon Knight (1995) BDRip 1080p [HEVC] 10 bit от druidblack
OldGamerManson_Fan, у меня нет hi-end акустики, поэтому не слушал, не знаю, может и есть разница. За других говорить не буду. В любом случае, продвинутым слухачам будет несложно найти, скачать и прикрепить дорожки требуемого им качества.
mafo2Manson_Fan, не все телевизоры поддерживают DTS. например, мой через встроенный плеер его не воспроизводит. можно конечно смотреть через ПК, но порой хочется и через ТВ.
Manson_FanOldGamer, "Скажите зачем релизёры звук DTS 768 kbps переделывают в AC3 640 kbps" Интересно, а разницу в качестве в фильмах кому то удавалось услышать?😕 мне вот нет
Manson_Fanникто еще не сравнивал HEVC и новый AV1?
IRITРаздайте, пожалуйста, Маньяк-полицейский 3: Знак молчания / Maniac Cop 3: Badge of Silence (1993) BDRip 1080p [HEVC] 10 bit от HANNIBAL
Spartanec1308С Днём Великой Победы!
BrooklynВсех с праздником! С Днем Великой Победы! Ура-Ура-Урааааааа
BrooklynADVOKAT69, Спасибо большое!
ADVOKAT69Операция «Ы» и другие приключения Шурика (1965) раздаю
mafo2С Днем Победы!
joker63Поздравляю всех с Днем Победы!
ADVOKAT69Admin, Спасибо деду за победу!Тебе за поздравление!
AdminADVOKAT69, Дедам спасибо.
ADVOKAT69Admin, спасибо большое!✋
  • Admin
  • alenu
  • masterok36
  • z_artem
Отправка сообщений доступна только зарегистрированным/авторизованным пользователям.
Онлайн (за 10 мин.): 4

Супермен: Антология / Superman: Anthology (1978-2013) BDRip 1080p [HEVC] 10 bit от OldGamer (RG RIPS CLUB)

HEVC
10 bit
Обложка Супермен: Антология / Superman: Anthology (1978-2013) BDRip 1080p [HEVC] 10 bit от OldGamer (RG RIPS CLUB) Год: 1978-2013
Страна: США, Великобритания, Канада, Швейцария
Жанр: Фантастика, Боевик, Драма, Приключения

1. Супермен / Superman (1978) [Director's Cut] BDRip 1080p [HEVC] 10 bit от OldGamer
HEVC
10 bit
Обложка Супермен / Superman (1978) [Director's Cut] BDRip 1080p [HEVC] 10 bit от OldGamer Год: 1978
Страна: США, Великобритания, Канада, Швейцария
Студия: Dovemead Films, Film Export A.G., International Film Production
Жанр: Фантастика, Боевик, Драма, Приключения
Продолжительность: 02:31:25

Режиссер: Ричард Доннер
В ролях: Кристофер Рив, Джин Хэкмен, Марго Киддер, Марлон Брандо, Нед Битти, Валери Перрайн, Джекки Купер, Марк МакКлюр, Джефф Ист, Гленн Форд

Описание: Цивилизация планеты Криптон стоит на грани гибели. Ученый Джор-Эл, чтобы спасти своему ребенку жизнь, отправляет его на Землю. Маленький мальчик вырастает и открывает в себе неземные возможности. Он - Супермен! Огромная сила и способность летать помогают ему в борьбе с любыми проявлениями зла. И когда коварный злодей Лекс Лютор строит зловещие планы, угрожающие всему человечеству, только Супермен может помешать ему...


Исходник: Blu-Ray Remux 1080p
Видео: 1920x796 (2.40:1), 5989 Кбит/сек, HEVC (Main10@L.4.1@High)
Аудио1: AC3, 2 ch, 192 Kbps - РусскийРусский, Дублированный (ТРК "Останкино" со вставками MVO)
Аудио2: AC3, 6 ch, 384 Kbps - РусскийРусский, Многоголосый (Пифагор)
Аудио3: AC3, 6 ch, 640 Kbps - EnglishEnglish, Original
Субтитры: Русские полные (SRT), English full (SRT)

Как за пару секунд удалить ненужные аудиодорожки и субтитры (Внимание! После удаления вы не сможете поддержать раздачу)

Лог (x265 info)
x265 [info]: frame I: 927, Avg QP:17.82 kb/s: 17189.80
x265 [info]: frame P: 42148, Avg QP:19.25 kb/s: 12128.71
x265 [info]: frame B: 174768, Avg QP:21.28 kb/s: 4625.81
x265 [info]: Weighted P-Frames: Y:21.5% UV:16.4%
x265 [info]: Weighted B-Frames: Y:23.2% UV:15.0%
x265 [info]: consecutive B-frames: 2.2% 2.8% 4.6% 31.7% 16.8% 31.9% 5.0% 3.2% 0.6% 0.3% 0.2% 0.1% 0.1% 0.2% 0.3%
x265 [info]: encoded 217843 frames in 258926.17s (0.84 fps), 6130.93 kb/s, Avg QP:20.87
Медиаинфо
Общее
Уникальный идентификатор : 79785715272939057060026265608071348194 (0x3C062B792EC32F532DD47CC706F6FFE2)
Полное имя : \\.\01.Супермен.Superman.1978.Expanded.Edition.BDRip-HEVC.1080p.mkv
Формат : Matroska
Версия формата : Version 4
Размер файла : 7,78 Гбайт
Продолжительность : 2 ч. 31 м.
Общий поток : 7 351 Кбит/сек
Название фильма : 01.Супермен.Superman.1978.Expanded.Edition.BDRip-HEVC.1080p
Дата кодирования : UTC 2021-04-14 08:58:47
Программа кодирования : mkvmerge v56.1.0 ('My Friend') 64-bit
Библиотека кодирования : libebml v1.4.2 + libmatroska v1.6.4

Видео
Идентификатор : 1
Формат : HEVC
Формат/Информация : High Efficiency Video Coding
Профиль формата : Main 10@L4.1@High
Идентификатор кодека : V_MPEGH/ISO/HEVC
Продолжительность : 2 ч. 31 м.
Битрейт : 5 989 Кбит/сек
Ширина : 1 920 пикселей
Высота : 796 пикселей
Соотношение сторон : 2,40:1
Режим частоты кадров : Постоянный
Частота кадров : 23,976 (24000/1001) кадра/сек
Цветовое пространство : YUV
Субдискретизация насыщенности : 4:2:0
Битовая глубина : 10 бит
Бит/(Пиксели*Кадры) : 0.163
Размер потока : 6,33 Гбайт (81%)
Заголовок : Superman / Rip by OldGamer
Библиотека кодирования : x265 3.5+1-ce882936d:[Windows][GCC 10.2.0][64 bit] 10bit
Настройки программы : cpuid=1111039 / frame-threads=3 / numa-pools=8 / wpp / no-pmode / no-pme / no-psnr / no-ssim / log-level=2 / input-csp=1 / input-res=1920x796 / interlace=0 / total-frames=217843 / level-idc=41 / high-tier=1 / uhd-bd=0 / ref=5 / no-allow-non-conformance / no-repeat-headers / annexb / no-aud / no-hrd / info / hash=0 / no-temporal-layers / open-gop / min-keyint=23 / keyint=240 / gop-lookahead=0 / bframes=14 / b-adapt=2 / b-pyramid / bframe-bias=0 / rc-lookahead=40 / lookahead-slices=0 / scenecut=40 / hist-scenecut=0 / radl=0 / no-splice / no-intra-refresh / ctu=32 / min-cu-size=8 / rect / amp / max-tu-size=32 / tu-inter-depth=4 / tu-intra-depth=4 / limit-tu=1 / rdoq-level=2 / dynamic-rd=0.00 / no-ssim-rd / signhide / no-tskip / nr-intra=0 / nr-inter=0 / no-constrained-intra / no-strong-intra-smoothing / max-merge=5 / limit-refs=3 / no-limit-modes / me=3 / subme=7 / merange=57 / temporal-mvp / no-frame-dup / no-hme / weightp / weightb / no-analyze-src-pics / deblock=-3:-3 / no-sao / no-sao-non-deblock / rd=6 / selective-sao=0 / no-early-skip / rskip / no-fast-intra / no-tskip-fast / no-cu-lossless / b-intra / no-splitrd-skip / rdpenalty=0 / psy-rd=2.00 / psy-rdoq=1.00 / no-rd-refine / no-lossless / cbqpoffs=0 / crqpoffs=0 / rc=crf / crf=20.0 / qcomp=0.60 / qpstep=4 / stats-write=0 / stats-read=0 / vbv-maxrate=50000 / vbv-bufsize=50000 / vbv-init=0.9 / min-vbv-fullness=50.0 / max-vbv-fullness=80.0 / crf-max=0.0 / crf-min=0.0 / ipratio=1.40 / pbratio=1.30 / aq-mode=1 / aq-strength=1.00 / no-cutree / zone-count=1 / zones: / start-frame=206873 / end-frame=217843 / qp=35 / no-strict-cbr / qg-size=32 / no-rc-grain / qpmax=69 / qpmin=0 / no-const-vbv / sar=1 / overscan=0 / videoformat=5 / range=0 / colorprim=2 / transfer=2 / colormatrix=2 / chromaloc=0 / display-window=0 / cll=0,0 / min-luma=0 / max-luma=1023 / log2-max-poc-lsb=8 / vui-timing-info / vui-hrd-info / slices=1 / no-opt-qp-pps / no-opt-ref-list-length-pps / no-multi-pass-opt-rps / scenecut-bias=0.00 / hist-threshold=0.03 / no-opt-cu-delta-qp / no-aq-motion / no-hdr10 / no-hdr10-opt / no-dhdr10-opt / no-idr-recovery-sei / analysis-reuse-level=0 / analysis-save-reuse-level=0 / analysis-load-reuse-level=0 / scale-factor=0 / refine-intra=0 / refine-inter=0 / refine-mv=1 / refine-ctu-distortion=0 / no-limit-sao / ctu-info=0 / no-lowpass-dct / refine-analysis-type=0 / copy-pic=1 / max-ausize-factor=1.0 / no-dynamic-refine / no-single-sei / no-hevc-aq / no-svt / no-field / qp-adaptation-range=1.00 / scenecut-aware-qp=0conformance-window-offsets / right=0 / bottom=0 / decoder-max-rate=0 / no-vbv-live-multi-pass
Язык : English
Default : Да
Forced : Нет

Аудио #1
Идентификатор : 2
Формат : AC-3
Формат/Информация : Audio Coding 3
Коммерческое название : Dolby Digital
Идентификатор кодека : A_AC3
Продолжительность : 2 ч. 31 м.
Вид битрейта : Постоянный
Битрейт : 192 Кбит/сек
Каналы : 2 канала
Channel layout : L R
Частота : 48,0 КГц
Частота кадров : 31,250 кадров/сек (1536 SPF)
Метод сжатия : С потерями
Размер потока : 208 Мбайт (3%)
Заголовок : DUB (ТРК "Останкино" со вставками MVO)
Язык : Russian
Service kind : Complete Main
Default : Да
Forced : Нет

Аудио #2
Идентификатор : 3
Формат : AC-3
Формат/Информация : Audio Coding 3
Коммерческое название : Dolby Digital
Идентификатор кодека : A_AC3
Продолжительность : 2 ч. 31 м.
Вид битрейта : Постоянный
Битрейт : 384 Кбит/сек
Каналы : 6 каналов
Channel layout : L R C LFE Ls Rs
Частота : 48,0 КГц
Частота кадров : 31,250 кадров/сек (1536 SPF)
Метод сжатия : С потерями
Размер потока : 416 Мбайт (5%)
Заголовок : MVO (Пифагор)
Язык : Russian
Service kind : Complete Main
Default : Нет
Forced : Нет

Аудио #3
Идентификатор : 4
Формат : AC-3
Формат/Информация : Audio Coding 3
Коммерческое название : Dolby Digital
Идентификатор кодека : A_AC3
Продолжительность : 2 ч. 31 м.
Вид битрейта : Постоянный
Битрейт : 640 Кбит/сек
Каналы : 6 каналов
Channel layout : L R C LFE Ls Rs
Частота : 48,0 КГц
Частота кадров : 31,250 кадров/сек (1536 SPF)
Метод сжатия : С потерями
Размер потока : 693 Мбайт (9%)
Язык : English
Service kind : Complete Main
Default : Нет
Forced : Нет

Текст #1
Идентификатор : 5
Формат : UTF-8
Идентификатор кодека : S_TEXT/UTF8
Идентификатор кодека/Информация : UTF-8 Plain Text
Язык : Russian
Default : Нет
Forced : Нет

Текст #2
Идентификатор : 6
Формат : UTF-8
Идентификатор кодека : S_TEXT/UTF8
Идентификатор кодека/Информация : UTF-8 Plain Text
Язык : English
Default : Нет
Forced : Нет

Меню
00:00:00.000 : Intergalactic Credits
00:05:18.151 : Verdict on Krypton
00:09:38.411 : The Phantom Zone
00:11:18.010 : Jor-El's Warning
00:14:37.209 : A Father's Farewell
00:19:08.147 : Blastoff to Safety
00:21:32.791 : Krypton's End
00:22:50.202 : Education en Route
00:24:49.321 : Help with a Flat
00:27:44.829 : Unbelievable Lois
00:30:54.853 : A Father's Farewell
00:35:50.148 : Time to Leave
00:41:25.149 : Fortress of Solitude
00:45:00.531 : Twelve Years Tutelage
00:50:19.182 : The Daily Planet
00:54:52.789 : Faster Than a Bullet
00:58:06.316 : Dead-end Trail
01:02:38.254 : Luthor's Lair
01:05:24.754 : It's Not a Date
01:07:31.213 : Helicopter Emergency
01:10:39.902 : "Who's Got You?!?"
01:13:23.565 : Crooks to Cats
01:18:13.021 : Air Force One
01:19:53.455 : Fatherly Advice
01:22:14.930 : Story of the Century
01:25:51.813 : Vital Statistics
01:30:47.608 : Test Flights
01:33:50.124 : Can You Read My Mind?
01:37:18.999 : "That's Clark, Nice"
01:39:30.297 : Deducing His Weakness
01:43:09.183 : Diversionary Tactic #1
01:46:34.388 : Diversionary Tactic #2
01:47:56.636 : Luthor's Challenge
01:51:53.206 : The Gauntlet
01:54:48.548 : Luthor's Land Grab
01:58:21.761 : Kyptonite Necklace
02:02:24.670 : Unlikely Rescuer
02:05:36.028 : Disasters Galore
02:09:55.621 : Rescues Galore
02:12:21.266 : Damming the Dam
02:15:27.285 : Too Late for Lois
02:18:46.151 : As the World (Re)Turns
02:22:28.540 : Prison Break-in
02:23:48.119 : End Credits
Загрузка...Cкриншот1 Супермен / Superman (1978) [Director's Cut] BDRip 1080p [HEVC] 10 bit от OldGamerЗагрузка...Cкриншот2 Супермен / Superman (1978) [Director's Cut] BDRip 1080p [HEVC] 10 bit от OldGamerЗагрузка...Cкриншот3 Супермен / Superman (1978) [Director's Cut] BDRip 1080p [HEVC] 10 bit от OldGamerЗагрузка...Cкриншот4 Супермен / Superman (1978) [Director's Cut] BDRip 1080p [HEVC] 10 bit от OldGamer
Сэмпл
2. Супермен 2 / Superman II (1980) [Theatrical Cut] BDRip 1080p [HEVC] 10 bit от OldGamer
HEVC
10 bit
Обложка Супермен 2 / Superman II (1980) [Theatrical Cut] BDRip 1080p [HEVC] 10 bit от OldGamer Год: 1980
Страна: США, Великобритания, Канада
Студия: Dovemead Films, Film Export A.G., International Film Production, Major Studio Partners
Жанр: Фантастика, Боевик, Приключения
Продолжительность: 02:07:30

Режиссер: Ричард Лестер, Ричард Доннер
В ролях: Кристофер Рив, Джин Хэкмен, Нед Битти, Джекки Купер, Сара Дуглас, Марго Киддер, Джек О’Хэллоран, Валери Перрайн, Сюзанна Йорк, Клифтон Джеймс

Описание: Оказывается, он не единственный уцелевший житель погибшей планеты. На Землю попадают три криптонианина-злодея. Они обладают такими же силами, как и Супермен, и собираются уничтожить человечество. Супермену предстоит сразиться с безжалостными врагами и встретить любовь.


Исходник: Blu-Ray Remux 1080p
Видео: 1920x800 (2.40:1), 8716 Кбит/сек, HEVC (Main10@L.4.1@High)
Аудио1: AC3, 2 ch, 192 Kbps - РусскийРусский, Многоголосый (Пифагор)
Аудио2: AC3, 2 ch, 192 Kbps - РусскийРусский, Многоголосый (НТВ+)
Аудио3: AC3, 2 ch, 192 Kbps - РусскийРусский, Авторский (Сергей Кузнецов)
Аудио4: AC3, 6 ch, 640 Kbps - EnglishEnglish, Original
Субтитры: Русские полные (SRT), English full (SRT)

Как за пару секунд удалить ненужные аудиодорожки и субтитры (Внимание! После удаления вы не сможете поддержать раздачу)

Лог (x265 info)
x265 [info]: frame I: 773, Avg QP:18.50 kb/s: 21020.29
x265 [info]: frame P: 33061, Avg QP:19.80 kb/s: 15535.83
x265 [info]: frame B: 149574, Avg QP:21.98 kb/s: 7388.38
x265 [info]: Weighted P-Frames: Y:9.2% UV:7.3%
x265 [info]: Weighted B-Frames: Y:8.9% UV:6.3%
x265 [info]: consecutive B-frames: 1.8% 1.9% 3.1% 25.3% 9.1% 45.6% 5.1% 5.4% 1.1% 1.0% 0.2% 0.2% 0.1% 0.2%
x265 [info]: encoded 183408 frames in 122202.92s (1.50 fps), 8914.49 kb/s, Avg QP:21.57
Медиаинфо
Общее
Уникальный идентификатор : 143951000373812572219056440326711720244 (0x6C4BF44765CF66381AE8FC89ECB4B934)
Полное имя : \\.\02.Супермен.2.Superman.II.1980.Theatrical.Cut.BDRip-HEVC.1080p.mkv
Формат : Matroska
Версия формата : Version 4
Размер файла : 9,03 Гбайт
Продолжительность : 2 ч. 7 м.
Общий поток : 10,1 Мбит/сек
Название фильма : 02.Супермен.2.Superman.II.1980.Theatrical.Cut.BDRip-HEVC.1080p
Дата кодирования : UTC 2021-04-13 04:18:16
Программа кодирования : mkvmerge v56.1.0 ('My Friend') 64-bit
Библиотека кодирования : libebml v1.4.2 + libmatroska v1.6.4

Видео
Идентификатор : 1
Формат : HEVC
Формат/Информация : High Efficiency Video Coding
Профиль формата : Main 10@L4.1@High
Идентификатор кодека : V_MPEGH/ISO/HEVC
Продолжительность : 2 ч. 7 м.
Битрейт : 8 716 Кбит/сек
Ширина : 1 920 пикселей
Высота : 800 пикселей
Соотношение сторон : 2,40:1
Режим частоты кадров : Постоянный
Частота кадров : 23,976 (24000/1001) кадра/сек
Цветовое пространство : YUV
Субдискретизация насыщенности : 4:2:0
Битовая глубина : 10 бит
Бит/(Пиксели*Кадры) : 0.237
Размер потока : 7,76 Гбайт (86%)
Заголовок : Superman II / Rip by OldGamer
Библиотека кодирования : x265 3.5+1-ce882936d:[Windows][GCC 10.2.0][64 bit] 10bit
Настройки программы : cpuid=1111039 / frame-threads=3 / numa-pools=8 / wpp / no-pmode / no-pme / no-psnr / no-ssim / log-level=2 / input-csp=1 / input-res=1920x800 / interlace=0 / total-frames=183408 / level-idc=41 / high-tier=1 / uhd-bd=0 / ref=5 / no-allow-non-conformance / no-repeat-headers / annexb / no-aud / no-hrd / info / hash=0 / no-temporal-layers / open-gop / min-keyint=23 / keyint=240 / gop-lookahead=0 / bframes=13 / b-adapt=2 / b-pyramid / bframe-bias=0 / rc-lookahead=40 / lookahead-slices=0 / scenecut=40 / hist-scenecut=0 / radl=0 / no-splice / no-intra-refresh / ctu=32 / min-cu-size=8 / rect / amp / max-tu-size=32 / tu-inter-depth=4 / tu-intra-depth=4 / limit-tu=1 / rdoq-level=2 / dynamic-rd=0.00 / no-ssim-rd / signhide / no-tskip / nr-intra=0 / nr-inter=0 / no-constrained-intra / no-strong-intra-smoothing / max-merge=5 / limit-refs=3 / no-limit-modes / me=3 / subme=7 / merange=57 / temporal-mvp / no-frame-dup / no-hme / weightp / weightb / no-analyze-src-pics / deblock=-3:-3 / no-sao / no-sao-non-deblock / rd=6 / selective-sao=0 / no-early-skip / rskip / no-fast-intra / no-tskip-fast / no-cu-lossless / b-intra / no-splitrd-skip / rdpenalty=0 / psy-rd=2.00 / psy-rdoq=1.00 / no-rd-refine / no-lossless / cbqpoffs=0 / crqpoffs=0 / rc=crf / crf=19.3 / qcomp=0.60 / qpstep=4 / stats-write=0 / stats-read=0 / vbv-maxrate=50000 / vbv-bufsize=50000 / vbv-init=0.9 / min-vbv-fullness=50.0 / max-vbv-fullness=80.0 / crf-max=0.0 / crf-min=0.0 / ipratio=1.40 / pbratio=1.30 / aq-mode=1 / aq-strength=1.00 / no-cutree / zone-count=1 / zones: / start-frame=177395 / end-frame=183408 / qp=35 / no-strict-cbr / qg-size=32 / no-rc-grain / qpmax=69 / qpmin=0 / no-const-vbv / sar=1 / overscan=0 / videoformat=5 / range=0 / colorprim=2 / transfer=2 / colormatrix=2 / chromaloc=0 / display-window=0 / cll=0,0 / min-luma=0 / max-luma=1023 / log2-max-poc-lsb=8 / vui-timing-info / vui-hrd-info / slices=1 / no-opt-qp-pps / no-opt-ref-list-length-pps / no-multi-pass-opt-rps / scenecut-bias=0.00 / hist-threshold=0.03 / no-opt-cu-delta-qp / no-aq-motion / no-hdr10 / no-hdr10-opt / no-dhdr10-opt / no-idr-recovery-sei / analysis-reuse-level=0 / analysis-save-reuse-level=0 / analysis-load-reuse-level=0 / scale-factor=0 / refine-intra=0 / refine-inter=0 / refine-mv=1 / refine-ctu-distortion=0 / no-limit-sao / ctu-info=0 / no-lowpass-dct / refine-analysis-type=0 / copy-pic=1 / max-ausize-factor=1.0 / no-dynamic-refine / no-single-sei / no-hevc-aq / no-svt / no-field / qp-adaptation-range=1.00 / scenecut-aware-qp=0conformance-window-offsets / right=0 / bottom=0 / decoder-max-rate=0 / no-vbv-live-multi-pass
Язык : English
Default : Да
Forced : Нет

Аудио #1
Идентификатор : 2
Формат : AC-3
Формат/Информация : Audio Coding 3
Коммерческое название : Dolby Digital
Идентификатор кодека : A_AC3
Продолжительность : 2 ч. 7 м.
Вид битрейта : Постоянный
Битрейт : 192 Кбит/сек
Каналы : 2 канала
Channel layout : L R
Частота : 48,0 КГц
Частота кадров : 31,250 кадров/сек (1536 SPF)
Метод сжатия : С потерями
Размер потока : 175 Мбайт (2%)
Заголовок : MVO (Пифагор)
Язык : Russian
Service kind : Complete Main
Default : Да
Forced : Нет

Аудио #2
Идентификатор : 3
Формат : AC-3
Формат/Информация : Audio Coding 3
Коммерческое название : Dolby Digital
Идентификатор кодека : A_AC3
Продолжительность : 2 ч. 7 м.
Вид битрейта : Постоянный
Битрейт : 192 Кбит/сек
Каналы : 2 канала
Channel layout : L R
Частота : 48,0 КГц
Частота кадров : 31,250 кадров/сек (1536 SPF)
Метод сжатия : С потерями
Размер потока : 175 Мбайт (2%)
Заголовок : MVO (НТВ+)
Язык : Russian
Service kind : Complete Main
Default : Нет
Forced : Нет

Аудио #3
Идентификатор : 4
Формат : AC-3
Формат/Информация : Audio Coding 3
Коммерческое название : Dolby Digital
Идентификатор кодека : A_AC3
Продолжительность : 2 ч. 7 м.
Вид битрейта : Постоянный
Битрейт : 192 Кбит/сек
Каналы : 2 канала
Channel layout : L R
Частота : 48,0 КГц
Частота кадров : 31,250 кадров/сек (1536 SPF)
Метод сжатия : С потерями
Размер потока : 175 Мбайт (2%)
Заголовок : AVO (Сергей Кузнецов)
Язык : Russian
Service kind : Complete Main
Default : Нет
Forced : Нет

Аудио #4
Идентификатор : 5
Формат : AC-3
Формат/Информация : Audio Coding 3
Коммерческое название : Dolby Digital
Идентификатор кодека : A_AC3
Продолжительность : 2 ч. 7 м.
Вид битрейта : Постоянный
Битрейт : 640 Кбит/сек
Каналы : 6 каналов
Channel layout : L R C LFE Ls Rs
Частота : 48,0 КГц
Частота кадров : 31,250 кадров/сек (1536 SPF)
Метод сжатия : С потерями
Размер потока : 584 Мбайт (6%)
Язык : English
Service kind : Complete Main
Default : Нет
Forced : Нет

Текст #1
Идентификатор : 6
Формат : UTF-8
Идентификатор кодека : S_TEXT/UTF8
Идентификатор кодека/Информация : UTF-8 Plain Text
Язык : Russian
Default : Нет
Forced : Нет

Текст #2
Идентификатор : 7
Формат : UTF-8
Идентификатор кодека : S_TEXT/UTF8
Идентификатор кодека/Информация : UTF-8 Plain Text
Язык : English
Default : Нет
Forced : Нет

Меню
00:00:00.000 : Intergalactic Travelers
00:03:08.521 : Collision Course
00:08:34.055 : Credits
00:12:18.446 : Lois Draws A Conclusion
00:17:59.411 : Leap of Faith
00:22:33.477 : Luthor Does Laundry
00:24:44.649 : Unidentified Flying Villions
00:30:13.520 : Ballon Bustout
00:33:13.199 : Fortress of Solitude Intruders
00:37:14.106 : Lex's Inside Information
00:41:44.960 : Niagara Rescue
00:46:20.736 : "You Are Superman"
00:49:44.523 : Trip North
00:51:42.432 : Crude Noisemaker
00:54:57.210 : Everything's Clear
00:57:57.348 : Something More Interesting
00:59:04.707 : Selfish Pursuits
01:01:43.324 : White House Visitors
01:03:43.444 : Diner Humiliation
01:06:35.032 : "I Have To Go Back"
01:10:31.560 : Oval Office Negotiation
01:14:42.853 : Green Crystal
01:18:14.314 : "Remember Me, My Son"
01:21:39.644 : Daily Planet Visitors
01:23:31.715 : Battle Of Titans
01:26:12.834 : Big Wind In Metropolis
01:29:13.222 : Northern Pursuit
01:32:23.746 : Molecular Rearrangement
01:39:44.520 : Don't Ever Forget
01:41:44.890 : Another Spin
01:44:13.246 : Pizza Run
01:46:39.893 : Diner Return Match
01:50:27.662 : End Credits
01:55:38.431 : Slight Case of Amnesia
02:00:46.280 : Diner Return Match
02:02:33.471 : Flag Flying High
02:03:19.266 : End Credits
02:07:29.433 : Глава 38
Загрузка...Cкриншот1 Супермен 2 / Superman II (1980) [Theatrical Cut] BDRip 1080p [HEVC] 10 bit от OldGamerЗагрузка...Cкриншот2 Супермен 2 / Superman II (1980) [Theatrical Cut] BDRip 1080p [HEVC] 10 bit от OldGamerЗагрузка...Cкриншот3 Супермен 2 / Superman II (1980) [Theatrical Cut] BDRip 1080p [HEVC] 10 bit от OldGamerЗагрузка...Cкриншот4 Супермен 2 / Superman II (1980) [Theatrical Cut] BDRip 1080p [HEVC] 10 bit от OldGamer
Сэмпл
3. Супермен 2 / Superman II (1980) [Richard Donner Cut] BDRip 1080p [HEVC] 10 bit от OldGamer
HEVC
10 bit
Обложка Супермен 2 / Superman II (1980) [Richard Donner Cut] BDRip 1080p [HEVC] 10 bit от OldGamer Год: 1980
Страна: США, Великобритания, Канада
Студия: Dovemead Films, Film Export A.G., International Film Production, Major Studio Partners
Жанр: Фантастика, Боевик, Приключения
Продолжительность: 01:55:52

Режиссер: Ричард Доннер
В ролях: Кристофер Рив, Джин Хэкмен, Нед Битти, Джекки Купер, Сара Дуглас, Марго Киддер, Джек О’Хэллоран, Валери Перрайн, Сюзанна Йорк, Клифтон Джеймс

Описание: Оказывается, он не единственный уцелевший житель погибшей планеты. На Землю попадают три криптонианина-злодея. Они обладают такими же силами, как и Супермен, и собираются уничтожить человечество. Супермену предстоит сразиться с безжалостными врагами и встретить любовь.


Исходник: Blu-Ray Remux 1080p
Видео: 1908x796 (2.40:1), 7293 Кбит/сек, HEVC (Main10@L.4.1@High)
Аудио1: AC3, 6 ch, 448 Kbps - РусскийРусский, Двухголосый (Студия "Навь")
Аудио2: AC3, 6 ch, 640 Kbps - EnglishEnglish, Original
Субтитры: Русские полные (SRT), English full (SRT)

Как за пару секунд удалить ненужные аудиодорожки и субтитры (Внимание! После удаления вы не сможете поддержать раздачу)

Лог (x265 info)
x265 [info]: frame I: 703, Avg QP:17.39 kb/s: 17888.62
x265 [info]: frame P: 27874, Avg QP:18.54 kb/s: 13352.52
x265 [info]: frame B: 138116, Avg QP:20.66 kb/s: 6217.62
x265 [info]: Weighted P-Frames: Y:14.0% UV:10.9%
x265 [info]: Weighted B-Frames: Y:13.2% UV:8.5%
x265 [info]: consecutive B-frames: 2.1% 2.5% 3.6% 19.8% 11.9% 32.9% 10.5% 9.4% 2.1% 1.8% 1.1% 1.1% 0.2% 0.3% 0.2% 0.3% 0.3%
x265 [info]: encoded 166693 frames in 99723.44s (1.67 fps), 7459.92 kb/s, Avg QP:20.30
Медиаинфо
Общее
Уникальный идентификатор : 170526929354597178523091605628781677416 (0x804A4ABDAF029204F4FED010CC814B68)
Полное имя : \\.\03.Супермен.2.Superman.II.1980.Richard.Donner.Cut.BDRip-HEVC.1080p.mkv
Формат : Matroska
Версия формата : Version 4
Размер файла : 6,92 Гбайт
Продолжительность : 1 ч. 55 м.
Общий поток : 8 551 Кбит/сек
Название фильма : 03.Супермен.2.Superman.II.1980.Richard.Donner.Cut.BDRip-HEVC.1080p
Дата кодирования : UTC 2021-04-15 13:21:24
Программа кодирования : mkvmerge v56.1.0 ('My Friend') 64-bit
Библиотека кодирования : libebml v1.4.2 + libmatroska v1.6.4

Видео
Идентификатор : 1
Формат : HEVC
Формат/Информация : High Efficiency Video Coding
Профиль формата : Main 10@L4.1@High
Идентификатор кодека : V_MPEGH/ISO/HEVC
Продолжительность : 1 ч. 55 м.
Битрейт : 7 293 Кбит/сек
Ширина : 1 908 пикселей
Высота : 796 пикселей
Соотношение сторон : 2,40:1
Режим частоты кадров : Постоянный
Частота кадров : 23,976 (24000/1001) кадра/сек
Цветовое пространство : YUV
Субдискретизация насыщенности : 4:2:0
Битовая глубина : 10 бит
Бит/(Пиксели*Кадры) : 0.200
Размер потока : 5,90 Гбайт (85%)
Заголовок : Superman II / Rip by OldGamer
Библиотека кодирования : x265 3.5+1-ce882936d:[Windows][GCC 10.2.0][64 bit] 10bit
Настройки программы : cpuid=1111039 / frame-threads=3 / numa-pools=8 / wpp / no-pmode / no-pme / no-psnr / no-ssim / log-level=2 / input-csp=1 / input-res=1908x796 / interlace=0 / total-frames=166693 / level-idc=41 / high-tier=1 / uhd-bd=0 / ref=5 / no-allow-non-conformance / no-repeat-headers / annexb / no-aud / no-hrd / info / hash=0 / no-temporal-layers / open-gop / min-keyint=23 / keyint=240 / gop-lookahead=0 / bframes=16 / b-adapt=2 / b-pyramid / bframe-bias=0 / rc-lookahead=40 / lookahead-slices=0 / scenecut=40 / hist-scenecut=0 / radl=0 / no-splice / no-intra-refresh / ctu=32 / min-cu-size=8 / rect / amp / max-tu-size=32 / tu-inter-depth=4 / tu-intra-depth=4 / limit-tu=1 / rdoq-level=2 / dynamic-rd=0.00 / no-ssim-rd / signhide / no-tskip / nr-intra=0 / nr-inter=0 / no-constrained-intra / no-strong-intra-smoothing / max-merge=5 / limit-refs=3 / no-limit-modes / me=3 / subme=7 / merange=57 / temporal-mvp / no-frame-dup / no-hme / weightp / weightb / no-analyze-src-pics / deblock=-3:-3 / no-sao / no-sao-non-deblock / rd=6 / selective-sao=0 / no-early-skip / rskip / no-fast-intra / no-tskip-fast / no-cu-lossless / b-intra / no-splitrd-skip / rdpenalty=0 / psy-rd=2.00 / psy-rdoq=1.00 / no-rd-refine / no-lossless / cbqpoffs=0 / crqpoffs=0 / rc=crf / crf=19.5 / qcomp=0.60 / qpstep=4 / stats-write=0 / stats-read=0 / vbv-maxrate=50000 / vbv-bufsize=50000 / vbv-init=0.9 / min-vbv-fullness=50.0 / max-vbv-fullness=80.0 / crf-max=0.0 / crf-min=0.0 / ipratio=1.40 / pbratio=1.30 / aq-mode=1 / aq-strength=1.00 / no-cutree / zone-count=1 / zones: / start-frame=159997 / end-frame=166693 / qp=35 / no-strict-cbr / qg-size=32 / no-rc-grain / qpmax=69 / qpmin=0 / no-const-vbv / sar=1 / overscan=0 / videoformat=5 / range=0 / colorprim=2 / transfer=2 / colormatrix=2 / chromaloc=0 / display-window=0 / cll=0,0 / min-luma=0 / max-luma=1023 / log2-max-poc-lsb=8 / vui-timing-info / vui-hrd-info / slices=1 / no-opt-qp-pps / no-opt-ref-list-length-pps / no-multi-pass-opt-rps / scenecut-bias=0.00 / hist-threshold=0.03 / no-opt-cu-delta-qp / no-aq-motion / no-hdr10 / no-hdr10-opt / no-dhdr10-opt / no-idr-recovery-sei / analysis-reuse-level=0 / analysis-save-reuse-level=0 / analysis-load-reuse-level=0 / scale-factor=0 / refine-intra=0 / refine-inter=0 / refine-mv=1 / refine-ctu-distortion=0 / no-limit-sao / ctu-info=0 / no-lowpass-dct / refine-analysis-type=0 / copy-pic=1 / max-ausize-factor=1.0 / no-dynamic-refine / no-single-sei / no-hevc-aq / no-svt / no-field / qp-adaptation-range=1.00 / scenecut-aware-qp=0conformance-window-offsets / right=0 / bottom=0 / decoder-max-rate=0 / no-vbv-live-multi-pass
Язык : English
Default : Да
Forced : Нет

Аудио #1
Идентификатор : 2
Формат : AC-3
Формат/Информация : Audio Coding 3
Коммерческое название : Dolby Digital
Идентификатор кодека : A_AC3
Продолжительность : 1 ч. 55 м.
Вид битрейта : Постоянный
Битрейт : 448 Кбит/сек
Каналы : 6 каналов
Channel layout : L R C LFE Ls Rs
Частота : 48,0 КГц
Частота кадров : 31,250 кадров/сек (1536 SPF)
Метод сжатия : С потерями
Размер потока : 371 Мбайт (5%)
Заголовок : DVO (Студия "Навь")
Язык : Russian
Service kind : Complete Main
Default : Да
Forced : Нет

Аудио #2
Идентификатор : 3
Формат : AC-3
Формат/Информация : Audio Coding 3
Коммерческое название : Dolby Digital
Идентификатор кодека : A_AC3
Продолжительность : 1 ч. 55 м.
Вид битрейта : Постоянный
Битрейт : 640 Кбит/сек
Каналы : 6 каналов
Channel layout : L R C LFE Ls Rs
Частота : 48,0 КГц
Частота кадров : 31,250 кадров/сек (1536 SPF)
Метод сжатия : С потерями
Размер потока : 530 Мбайт (7%)
Язык : English
Service kind : Complete Main
Default : Нет
Forced : Нет

Текст #1
Идентификатор : 4
Формат : UTF-8
Идентификатор кодека : S_TEXT/UTF8
Идентификатор кодека/Информация : UTF-8 Plain Text
Язык : Russian
Default : Нет
Forced : Нет

Текст #2
Идентификатор : 5
Формат : UTF-8
Идентификатор кодека : S_TEXT/UTF8
Идентификатор кодека/Информация : UTF-8 Plain Text
Язык : English
Default : Нет
Forced : Нет

Меню
00:00:00.000 : Intergalactic Travelers
00:05:14.647 : Collision Course
00:08:27.340 : Credits
00:11:58.551 : Lois Draws A Conclusion
00:14:57.396 : Leap of Faith
00:17:17.703 : Luthor Does Laundry
00:19:57.696 : Unidentified Flying Villions
00:25:06.004 : Ballon Bustout
00:29:49.287 : Fortress of Solitude Intruders
00:33:07.318 : Lex's Inside Information
00:37:59.277 : Niagara Rescue
00:41:06.630 : "You Are Superman"
00:46:32.956 : Trip North
00:48:21.231 : Crude Noisemaker
00:49:54.324 : Everything's Clear
00:50:51.882 : Something More Interesting
00:53:55.232 : Selfish Pursuits
01:00:19.115 : White House Visitors
01:03:49.826 : Diner Humiliation
01:07:20.703 : "I Have To Go Back"
01:09:04.974 : Oval Office Negotiation
01:12:20.169 : Green Crystal
01:15:16.178 : "Remember Me, My Son"
01:18:15.357 : Daily Planet Visitors
01:21:14.369 : Battle Of Titans
01:28:17.125 : Big Wind In Metropolis
01:31:56.844 : Northern Pursuit
01:35:46.240 : Molecular Rearrangement
01:40:59.053 : Don't Ever Forget
01:45:02.629 : Another Spin
01:46:36.556 : Pizza Run
01:49:06.706 : Diner Return Match
01:51:13.667 : End Credits
Загрузка...Cкриншот1 Супермен 2 / Superman II (1980) [Richard Donner Cut] BDRip 1080p [HEVC] 10 bit от OldGamerЗагрузка...Cкриншот2 Супермен 2 / Superman II (1980) [Richard Donner Cut] BDRip 1080p [HEVC] 10 bit от OldGamerЗагрузка...Cкриншот3 Супермен 2 / Superman II (1980) [Richard Donner Cut] BDRip 1080p [HEVC] 10 bit от OldGamerЗагрузка...Cкриншот4 Супермен 2 / Superman II (1980) [Richard Donner Cut] BDRip 1080p [HEVC] 10 bit от OldGamer
Сэмпл
4. Супермен 3 / Superman III (1983) BDRip 1080p [HEVC] 10 bit от OldGamer
HEVC
10 bit
Обложка Супермен 3 / Superman III (1983) BDRip 1080p [HEVC] 10 bit от OldGamer Год: 1983
Страна: Великобритания, США
Студия: Cantharus Productions, Dovemead Films, Major Studio Partners
Жанр: Фантастика, Боевик, Комедия, Приключения
Продолжительность: 02:04:57

Режиссер: Ричард Лестер
В ролях: Кристофер Рив, Ричард Прайор, Джекки Купер, Марк МакКлюр, Аннетт О’Тул, Энни Росс, Памела Стивенсон, Роберт Вон, Марго Киддер, Гэвэн О’Херлихи

Описание: Оператор компьютера (в исполнении известнейшего комедийного чернокожего актера Ричарда Прайора) дает шанс злодею захватить Супермена. Такое впечатление, что история Супермена просто использована как предлог подурачиться и повеселиться. На этот раз Супермен противостоит программисту, который по заказу своего босса собирается уничтожить урожай кофе в Колумбии.


Исходник: Blu-Ray Remux 1080p
Видео: 1920x800 (2.40:1), 10,5 Мбит/сек, HEVC (Main10@L.4.1@High)
Аудио1: AC3, 2 ch, 192 Kbps - РусскийРусский, Многоголосый (СТС)
Аудио2: AC3, 2 ch, 192 Kbps - РусскийРусский, Авторский (Юрий Товбин)
Аудио3: AC3, 6 ch, 640 Kbps - EnglishEnglish, Original
Субтитры: Русские полные (SRT), English full (SDH)

Как за пару секунд удалить ненужные аудиодорожки и субтитры (Внимание! После удаления вы не сможете поддержать раздачу)

Лог (x265 info)
x265 [info]: frame I: 755, Avg QP:17.46 kb/s: 27146.62
x265 [info]: frame P: 33393, Avg QP:18.86 kb/s: 19226.45
x265 [info]: frame B: 145588, Avg QP:20.71 kb/s: 8656.30
x265 [info]: Weighted P-Frames: Y:7.9% UV:6.2%
x265 [info]: Weighted B-Frames: Y:7.3% UV:5.2%
x265 [info]: consecutive B-frames: 1.5% 2.4% 3.8% 26.7% 10.3% 45.1% 4.6% 4.0% 0.7% 0.5% 0.1% 0.1% 0.1%
x265 [info]: encoded 179736 frames in 121566.34s (1.48 fps), 10697.79 kb/s, Avg QP:20.35
Медиаинфо
Общее
Уникальный идентификатор : 213174335127726668905754380907777270966 (0xA05FE22FA8F159DE8D62C19F696AA4B6)
Полное имя : \\.\04.Супермен.3.Superman.III.1983.BDRip-HEVC.1080p.mkv
Формат : Matroska
Версия формата : Version 4
Размер файла : 10,2 Гбайт
Продолжительность : 2 ч. 4 м.
Общий поток : 11,7 Мбит/сек
Дата кодирования : UTC 2021-04-18 10:16:16
Программа кодирования : mkvmerge v56.1.0 ('My Friend') 64-bit
Библиотека кодирования : libebml v1.4.2 + libmatroska v1.6.4

Видео
Идентификатор : 1
Формат : HEVC
Формат/Информация : High Efficiency Video Coding
Профиль формата : Main 10@L4.1@High
Идентификатор кодека : V_MPEGH/ISO/HEVC
Продолжительность : 2 ч. 4 м.
Битрейт : 10,7 Мбит/сек
Ширина : 1 920 пикселей
Высота : 800 пикселей
Соотношение сторон : 2,40:1
Режим частоты кадров : Постоянный
Частота кадров : 23,976 (24000/1001) кадра/сек
Цветовое пространство : YUV
Субдискретизация насыщенности : 4:2:0
Битовая глубина : 10 бит
Бит/(Пиксели*Кадры) : 0.291
Размер потока : 9,34 Гбайт (91%)
Заголовок : Superman III / Rip by OldGamer
Библиотека кодирования : x265 3.5+1-ce882936d:[Windows][GCC 10.2.0][64 bit] 10bit
Настройки программы : cpuid=1111039 / frame-threads=3 / numa-pools=8 / wpp / no-pmode / no-pme / no-psnr / no-ssim / log-level=2 / input-csp=1 / input-res=1920x800 / interlace=0 / total-frames=179736 / level-idc=41 / high-tier=1 / uhd-bd=0 / ref=5 / no-allow-non-conformance / no-repeat-headers / annexb / no-aud / no-hrd / info / hash=0 / no-temporal-layers / open-gop / min-keyint=23 / keyint=240 / gop-lookahead=0 / bframes=12 / b-adapt=2 / b-pyramid / bframe-bias=0 / rc-lookahead=40 / lookahead-slices=0 / scenecut=40 / hist-scenecut=0 / radl=0 / no-splice / no-intra-refresh / ctu=32 / min-cu-size=8 / rect / amp / max-tu-size=32 / tu-inter-depth=4 / tu-intra-depth=4 / limit-tu=1 / rdoq-level=2 / dynamic-rd=0.00 / no-ssim-rd / signhide / no-tskip / nr-intra=0 / nr-inter=0 / no-constrained-intra / no-strong-intra-smoothing / max-merge=5 / limit-refs=3 / no-limit-modes / me=3 / subme=7 / merange=57 / temporal-mvp / no-frame-dup / no-hme / weightp / weightb / no-analyze-src-pics / deblock=-3:-3 / no-sao / no-sao-non-deblock / rd=6 / selective-sao=0 / no-early-skip / rskip / no-fast-intra / no-tskip-fast / no-cu-lossless / b-intra / no-splitrd-skip / rdpenalty=0 / psy-rd=2.00 / psy-rdoq=1.00 / no-rd-refine / no-lossless / cbqpoffs=0 / crqpoffs=0 / rc=crf / crf=18.2 / qcomp=0.60 / qpstep=4 / stats-write=0 / stats-read=0 / vbv-maxrate=50000 / vbv-bufsize=50000 / vbv-init=0.9 / min-vbv-fullness=50.0 / max-vbv-fullness=80.0 / crf-max=0.0 / crf-min=0.0 / ipratio=1.40 / pbratio=1.30 / aq-mode=1 / aq-strength=1.00 / no-cutree / zone-count=1 / zones: / start-frame=174492 / end-frame=179736 / qp=35 / no-strict-cbr / qg-size=32 / no-rc-grain / qpmax=69 / qpmin=0 / no-const-vbv / sar=1 / overscan=0 / videoformat=5 / range=0 / colorprim=2 / transfer=2 / colormatrix=2 / chromaloc=0 / display-window=0 / cll=0,0 / min-luma=0 / max-luma=1023 / log2-max-poc-lsb=8 / vui-timing-info / vui-hrd-info / slices=1 / no-opt-qp-pps / no-opt-ref-list-length-pps / no-multi-pass-opt-rps / scenecut-bias=0.00 / hist-threshold=0.03 / no-opt-cu-delta-qp / no-aq-motion / no-hdr10 / no-hdr10-opt / no-dhdr10-opt / no-idr-recovery-sei / analysis-reuse-level=0 / analysis-save-reuse-level=0 / analysis-load-reuse-level=0 / scale-factor=0 / refine-intra=0 / refine-inter=0 / refine-mv=1 / refine-ctu-distortion=0 / no-limit-sao / ctu-info=0 / no-lowpass-dct / refine-analysis-type=0 / copy-pic=1 / max-ausize-factor=1.0 / no-dynamic-refine / no-single-sei / no-hevc-aq / no-svt / no-field / qp-adaptation-range=1.00 / scenecut-aware-qp=0conformance-window-offsets / right=0 / bottom=0 / decoder-max-rate=0 / no-vbv-live-multi-pass
Язык : English
Default : Да
Forced : Нет

Аудио #1
Идентификатор : 2
Формат : AC-3
Формат/Информация : Audio Coding 3
Коммерческое название : Dolby Digital
Идентификатор кодека : A_AC3
Продолжительность : 2 ч. 4 м.
Вид битрейта : Постоянный
Битрейт : 192 Кбит/сек
Каналы : 2 канала
Channel layout : L R
Частота : 48,0 КГц
Частота кадров : 31,250 кадров/сек (1536 SPF)
Метод сжатия : С потерями
Размер потока : 172 Мбайт (2%)
Заголовок : MVO (СТС)
Язык : Russian
Service kind : Complete Main
Default : Да
Forced : Нет

Аудио #2
Идентификатор : 3
Формат : AC-3
Формат/Информация : Audio Coding 3
Коммерческое название : Dolby Digital
Идентификатор кодека : A_AC3
Продолжительность : 2 ч. 4 м.
Вид битрейта : Постоянный
Битрейт : 192 Кбит/сек
Каналы : 2 канала
Channel layout : L R
Частота : 48,0 КГц
Частота кадров : 31,250 кадров/сек (1536 SPF)
Метод сжатия : С потерями
Размер потока : 172 Мбайт (2%)
Заголовок : AVO (Юрий Товбин)
Язык : Russian
Service kind : Complete Main
Default : Нет
Forced : Нет

Аудио #3
Идентификатор : 4
Формат : AC-3
Формат/Информация : Audio Coding 3
Коммерческое название : Dolby Digital
Идентификатор кодека : A_AC3
Продолжительность : 2 ч. 4 м.
Вид битрейта : Постоянный
Битрейт : 640 Кбит/сек
Каналы : 6 каналов
Channel layout : L R C LFE Ls Rs
Частота : 48,0 КГц
Частота кадров : 31,250 кадров/сек (1536 SPF)
Метод сжатия : С потерями
Размер потока : 572 Мбайт (5%)
Язык : English
Service kind : Complete Main
Default : Нет
Forced : Нет

Текст #1
Идентификатор : 5
Формат : UTF-8
Идентификатор кодека : S_TEXT/UTF8
Идентификатор кодека/Информация : UTF-8 Plain Text
Продолжительность : 1 ч. 59 м.
Битрейт : 73 бит/сек
Count of elements : 798
Размер потока : 64,2 Кбайт (0%)
Язык : Russian
Default : Нет
Forced : Нет

Текст #2
Идентификатор : 6
Формат : UTF-8
Идентификатор кодека : S_TEXT/UTF8
Идентификатор кодека/Информация : UTF-8 Plain Text
Продолжительность : 2 ч. 4 м.
Битрейт : 53 бит/сек
Count of elements : 1411
Размер потока : 48,7 Кбайт (0%)
Заголовок : SDH
Язык : English
Default : Нет
Forced : Нет

Меню
00:00:00.000 : Job Hunter Gus Gorman
00:02:35.200 : Metropolis Credits and Chaos
00:08:31.034 : Travel Plans
00:12:05.835 : Penny Larceny
00:14:31.669 : Blazing Chemicals
00:20:00.503 : Lake-Sized Miracle
00:21:54.037 : Smallville Class of 1965
00:26:30.671 : Lana Lang and the One That Got Away
00:28:38.671 : Complete and Utter Moron
00:30:47.171 : Bowled Over
00:32:47.371 : Push-Button Proposition
00:37:52.371 : Gus in Smallville
00:39:15.838 : Ricky's Close Call
00:43:57.005 : Drinking Away the Night Shift
00:46:33.339 : Hacker Havoc
00:51:23.539 : Stormy Weather
00:53:42.706 : Rooftop Skiing
00:59:06.674 : Formula for Kryptonite
01:02:16.508 : Key to Smallville
01:03:16.541 : Three-Star Saboteur
01:06:52.008 : Too Late the Hero
01:09:30.041 : No More Mr. Nice Guy
01:12:43.508 : Gus's Pocketful of Plans
01:16:47.177 : Big Spill
01:23:33.844 : Young Fan's Encouragement
01:25:52.011 : His Own Worst Enemy
01:31:47.845 : Rid of His Bad Self
01:34:37.512 : What a Jukebox!
01:38:23.512 : Let the Games Begin
01:41:26.179 : Defensive Action
01:43:42.679 : Lethal Green Ray
01:46:22.346 : Yo-Yo to the Rescue?
01:48:29.546 : Attack of the Cyberwoman
01:50:39.380 : Micro Meltdown
01:52:52.047 : Gus Flies High
01:56:48.015 : Ring From Superman
01:58:34.349 : New Face
01:59:57.349 : Lean on Superman
02:01:11.016 : End Credits
Загрузка...Cкриншот1 Супермен 3 / Superman III (1983) BDRip 1080p [HEVC] 10 bit от OldGamerЗагрузка...Cкриншот2 Супермен 3 / Superman III (1983) BDRip 1080p [HEVC] 10 bit от OldGamerЗагрузка...Cкриншот3 Супермен 3 / Superman III (1983) BDRip 1080p [HEVC] 10 bit от OldGamerЗагрузка...Cкриншот4 Супермен 3 / Superman III (1983) BDRip 1080p [HEVC] 10 bit от OldGamer
Сэмпл
5. Супермен 4: В поисках мира / Superman IV: The Quest for Peace (1987) BDRip 1080p [HEVC] 10 bit от OldGamer
HEVC
10 bit
Обложка Супермен 4: В поисках мира / Superman IV: The Quest for Peace (1987) BDRip 1080p [HEVC] 10 bit от OldGamer Год: 1987
Страна: Великобритания, США
Студия: Cannon Films, Golan / Globus Production, London-Cannon Films, Warner Bros.
Жанр: Фантастика, Боевик, Приключения, Семейный
Продолжительность: 01:29:53

Режиссер: Сидни Дж. Фьюри
В ролях: Кристофер Рив, Джин Хэкмен, Джекки Купер, Марк МакКлюр, Джон Крайер, Сэм Уонамейкер, Марк Пиллоу, Мэриэл Хемингуэй, Марго Киддер, Дэмиэн МакЛохорн

Описание: Продолжение экранизации комиксов про Супермена. На этот раз - криптонианцу предстоит уничтожить всё ядерное оружие, вознести прелюдию к миру, а также разобраться в своих чувствах и сразиться с очередным противником.


Исходник: Blu-Ray Remux 1080p
Видео: 1920x800 (2.40:1), 10,1 Мбит/сек, HEVC (Main10@L.4.1@High)
Аудио1: AC3, 2 ch, 192 Kbps - РусскийРусский, Многоголосый (ТВ3)
Аудио2: AC3, 2 ch, 192 Kbps - РусскийРусский, Многоголосый (ТВЦ)
Аудио3: AC3, 2 ch, 192 Kbps - РусскийРусский, Одноголосый (ANTipiGo)
Аудио4: AC3, 2 ch, 192 Kbps - РусскийРусский, Одноголосый (Rihard88)
Аудио5: AC3, 2 ch, 640 Kbps - EnglishEnglish, Original
Субтитры: Русские полные (SRT), English full (SRT)

Как за пару секунд удалить ненужные аудиодорожки и субтитры (Внимание! После удаления вы не сможете поддержать раздачу)

Лог (x265 info)
x265 [info]: frame I: 551, Avg QP:17.39 kb/s: 28087.59
x265 [info]: frame P: 24238, Avg QP:18.58 kb/s: 20284.25
x265 [info]: frame B: 104499, Avg QP:20.83 kb/s: 7883.97
x265 [info]: Weighted P-Frames: Y:12.5% UV:9.9%
x265 [info]: Weighted B-Frames: Y:12.5% UV:9.1%
x265 [info]: consecutive B-frames: 2.5% 3.1% 4.2% 29.4% 13.0% 33.6% 5.9% 5.5% 0.9% 0.6% 0.4% 0.3% 0.3% 0.3%
x265 [info]: encoded 129288 frames in 99601.83s (1.30 fps), 10294.79 kb/s, Avg QP:20.40
Медиаинфо
Общее
Уникальный идентификатор : 246288780468247069211632032997275117653 (0xB9497E64E536C4D5C6802E0B0074A855)
Полное имя : \\.\05.Супермен.4.В.поисках.мира.Superman.IV.The.Quest.for.Peace.1987.BDRip-HEVC.1080p.mkv
Формат : Matroska
Версия формата : Version 4
Размер файла : 7,35 Гбайт
Продолжительность : 1 ч. 29 м.
Общий поток : 11,7 Мбит/сек
Название фильма : 05.Супермен.4.В.поисках.мира.Superman.IV.The.Quest.for.Peace.1987.BDRip-HEVC.1080p
Дата кодирования : UTC 2021-04-18 02:26:36
Программа кодирования : mkvmerge v56.1.0 ('My Friend') 64-bit
Библиотека кодирования : libebml v1.4.2 + libmatroska v1.6.4

Видео
Идентификатор : 1
Формат : HEVC
Формат/Информация : High Efficiency Video Coding
Профиль формата : Main 10@L4.1@High
Идентификатор кодека : V_MPEGH/ISO/HEVC
Продолжительность : 1 ч. 29 м.
Битрейт : 10,1 Мбит/сек
Ширина : 1 920 пикселей
Высота : 800 пикселей
Соотношение сторон : 2,40:1
Режим частоты кадров : Постоянный
Частота кадров : 23,976 (24000/1001) кадра/сек
Цветовое пространство : YUV
Субдискретизация насыщенности : 4:2:0
Битовая глубина : 10 бит
Бит/(Пиксели*Кадры) : 0.273
Размер потока : 6,32 Гбайт (86%)
Заголовок : Superman IV / Rip by OldGamer
Библиотека кодирования : x265 3.5+1-ce882936d:[Windows][GCC 10.2.0][64 bit] 10bit
Настройки программы : cpuid=1111039 / frame-threads=3 / numa-pools=8 / wpp / no-pmode / no-pme / no-psnr / no-ssim / log-level=2 / input-csp=1 / input-res=1920x800 / interlace=0 / total-frames=129288 / level-idc=41 / high-tier=1 / uhd-bd=0 / ref=5 / no-allow-non-conformance / no-repeat-headers / annexb / no-aud / no-hrd / info / hash=0 / no-temporal-layers / open-gop / min-keyint=23 / keyint=240 / gop-lookahead=0 / bframes=13 / b-adapt=2 / b-pyramid / bframe-bias=0 / rc-lookahead=40 / lookahead-slices=0 / scenecut=40 / hist-scenecut=0 / radl=0 / no-splice / no-intra-refresh / ctu=32 / min-cu-size=8 / rect / amp / max-tu-size=32 / tu-inter-depth=4 / tu-intra-depth=4 / limit-tu=1 / rdoq-level=2 / dynamic-rd=0.00 / no-ssim-rd / signhide / no-tskip / nr-intra=0 / nr-inter=0 / no-constrained-intra / no-strong-intra-smoothing / max-merge=5 / limit-refs=3 / no-limit-modes / me=3 / subme=7 / merange=57 / temporal-mvp / no-frame-dup / no-hme / weightp / weightb / no-analyze-src-pics / deblock=-3:-3 / no-sao / no-sao-non-deblock / rd=6 / selective-sao=0 / no-early-skip / rskip / no-fast-intra / no-tskip-fast / no-cu-lossless / b-intra / no-splitrd-skip / rdpenalty=0 / psy-rd=2.00 / psy-rdoq=1.00 / no-rd-refine / no-lossless / cbqpoffs=0 / crqpoffs=0 / rc=crf / crf=18.0 / qcomp=0.60 / qpstep=4 / stats-write=0 / stats-read=0 / vbv-maxrate=50000 / vbv-bufsize=50000 / vbv-init=0.9 / min-vbv-fullness=50.0 / max-vbv-fullness=80.0 / crf-max=0.0 / crf-min=0.0 / ipratio=1.40 / pbratio=1.30 / aq-mode=1 / aq-strength=1.00 / no-cutree / zone-count=1 / zones: / start-frame=124501 / end-frame=129288 / qp=35 / no-strict-cbr / qg-size=32 / no-rc-grain / qpmax=69 / qpmin=0 / no-const-vbv / sar=1 / overscan=0 / videoformat=5 / range=0 / colorprim=2 / transfer=2 / colormatrix=2 / chromaloc=0 / display-window=0 / cll=0,0 / min-luma=0 / max-luma=1023 / log2-max-poc-lsb=8 / vui-timing-info / vui-hrd-info / slices=1 / no-opt-qp-pps / no-opt-ref-list-length-pps / no-multi-pass-opt-rps / scenecut-bias=0.00 / hist-threshold=0.03 / no-opt-cu-delta-qp / no-aq-motion / no-hdr10 / no-hdr10-opt / no-dhdr10-opt / no-idr-recovery-sei / analysis-reuse-level=0 / analysis-save-reuse-level=0 / analysis-load-reuse-level=0 / scale-factor=0 / refine-intra=0 / refine-inter=0 / refine-mv=1 / refine-ctu-distortion=0 / no-limit-sao / ctu-info=0 / no-lowpass-dct / refine-analysis-type=0 / copy-pic=1 / max-ausize-factor=1.0 / no-dynamic-refine / no-single-sei / no-hevc-aq / no-svt / no-field / qp-adaptation-range=1.00 / scenecut-aware-qp=0conformance-window-offsets / right=0 / bottom=0 / decoder-max-rate=0 / no-vbv-live-multi-pass
Язык : English
Default : Да
Forced : Нет

Аудио #1
Идентификатор : 2
Формат : AC-3
Формат/Информация : Audio Coding 3
Коммерческое название : Dolby Digital
Идентификатор кодека : A_AC3
Продолжительность : 1 ч. 29 м.
Вид битрейта : Постоянный
Битрейт : 192 Кбит/сек
Каналы : 2 канала
Channel layout : L R
Частота : 48,0 КГц
Частота кадров : 31,250 кадров/сек (1536 SPF)
Метод сжатия : С потерями
Размер потока : 123 Мбайт (2%)
Заголовок : MVO (ТВ3)
Язык : Russian
Service kind : Complete Main
Default : Да
Forced : Нет

Аудио #2
Идентификатор : 3
Формат : AC-3
Формат/Информация : Audio Coding 3
Коммерческое название : Dolby Digital
Идентификатор кодека : A_AC3
Продолжительность : 1 ч. 29 м.
Вид битрейта : Постоянный
Битрейт : 192 Кбит/сек
Каналы : 2 канала
Channel layout : L R
Частота : 48,0 КГц
Частота кадров : 31,250 кадров/сек (1536 SPF)
Метод сжатия : С потерями
Размер потока : 123 Мбайт (2%)
Заголовок : MVO (ТВЦ)
Язык : Russian
Service kind : Complete Main
Default : Нет
Forced : Нет

Аудио #3
Идентификатор : 4
Формат : AC-3
Формат/Информация : Audio Coding 3
Коммерческое название : Dolby Digital
Идентификатор кодека : A_AC3
Продолжительность : 1 ч. 29 м.
Вид битрейта : Постоянный
Битрейт : 192 Кбит/сек
Каналы : 2 канала
Channel layout : L R
Частота : 48,0 КГц
Частота кадров : 31,250 кадров/сек (1536 SPF)
Метод сжатия : С потерями
Размер потока : 123 Мбайт (2%)
Заголовок : VO (ANTipiGo)
Язык : Russian
Service kind : Complete Main
Default : Нет
Forced : Нет

Аудио #4
Идентификатор : 5
Формат : AC-3
Формат/Информация : Audio Coding 3
Коммерческое название : Dolby Digital
Идентификатор кодека : A_AC3
Продолжительность : 1 ч. 29 м.
Вид битрейта : Постоянный
Битрейт : 192 Кбит/сек
Каналы : 2 канала
Channel layout : L R
Частота : 48,0 КГц
Частота кадров : 31,250 кадров/сек (1536 SPF)
Метод сжатия : С потерями
Размер потока : 123 Мбайт (2%)
Заголовок : VO (Rihard88)
Язык : Russian
Service kind : Complete Main
Default : Нет
Forced : Нет

Аудио #5
Идентификатор : 6
Формат : AC-3
Формат/Информация : Audio Coding 3
Коммерческое название : Dolby Digital
Идентификатор кодека : A_AC3
Продолжительность : 1 ч. 29 м.
Вид битрейта : Постоянный
Битрейт : 640 Кбит/сек
Каналы : 2 канала
Channel layout : L R
Частота : 48,0 КГц
Частота кадров : 31,250 кадров/сек (1536 SPF)
Метод сжатия : С потерями
Размер потока : 411 Мбайт (5%)
Язык : English
Service kind : Complete Main
Default : Нет
Forced : Нет

Текст #1
Идентификатор : 7
Формат : UTF-8
Идентификатор кодека : S_TEXT/UTF8
Идентификатор кодека/Информация : UTF-8 Plain Text
Заголовок : Full (Nickojoy)
Язык : Russian
Default : Нет
Forced : Нет

Текст #2
Идентификатор : 8
Формат : UTF-8
Идентификатор кодека : S_TEXT/UTF8
Идентификатор кодека/Информация : UTF-8 Plain Text
Заголовок : Full
Язык : English
Default : Нет
Forced : Нет

Меню
00:00:00.000 : Credits
00:02:50.919 : Space Rescue
00:05:10.976 : All That Remains
00:07:49.343 : Long, Long Way
00:10:06.646 : Lex Luthor Liberated
00:12:40.300 : Runaway Train
00:14:43.007 : New Management
00:17:40.642 : By a Hair
00:20:21.762 : Jeremy's Letter
00:24:20.041 : Kryptonian Counsel
00:25:44.668 : Memorable Flight
00:31:06.281 : Superman's Pledge
00:33:58.161 : Nuclear Roundup
00:35:53.860 : Genetic Gambit
00:39:31.952 : Nuclear Man
00:42:38.389 : No Pain, No Gain
00:44:57.486 : Hot Experiment
00:48:23.358 : Double Date
00:54:16.127 : End of Superman
00:58:17.327 : Great Wall of Mount Etna
01:02:13.271 : Saving Miss Liberty... But Not Himself
01:05:21.500 : Lois From the Heart
01:09:57.860 : Brains and Brawn
01:12:39.104 : Metropolis Mayhem
01:14:51.695 : Lunar Battle
01:19:17.586 : Lights Out and On
01:21:36.224 : One World
01:24:28.271 : Luthors in Lockup
01:26:05.243 : End Credits
01:29:52.136 : Глава 30
Загрузка...Cкриншот1 Супермен 4: В поисках мира / Superman IV: The Quest for Peace (1987) BDRip 1080p [HEVC] 10 bit от OldGamerЗагрузка...Cкриншот2 Супермен 4: В поисках мира / Superman IV: The Quest for Peace (1987) BDRip 1080p [HEVC] 10 bit от OldGamerЗагрузка...Cкриншот3 Супермен 4: В поисках мира / Superman IV: The Quest for Peace (1987) BDRip 1080p [HEVC] 10 bit от OldGamerЗагрузка...Cкриншот4 Супермен 4: В поисках мира / Superman IV: The Quest for Peace (1987) BDRip 1080p [HEVC] 10 bit от OldGamer
Сэмпл
6. Возвращение Супермена / Superman Returns (2006) BDRip 1080p [HEVC] 10 bit от OldGamer
HEVC
10 bit
Обложка Возвращение Супермена / Superman Returns (2006) BDRip 1080p [HEVC] 10 bit от OldGamer Год: 2006
Страна: США
Студия: Bad Hat Harry Productions, DC Comics, Legendary Pictures
Жанр: Фантастика, Боевик
Продолжительность: 02:34:21

Режиссер: Брайан Сингер
В ролях: Брэндон Рут, Кейт Босворт, Кевин Спейси, Джеймс Марсден, Паркер Поузи, Фрэнк Ланджелла, Сэм Хантингтон, Ева Мари Сэйнт, Марлон Брандо, Кэл Пенн

Описание: Возвратившись на Землю после своего многолетнего и загадочного отсутствия, Супермен обнаруживает, что его заклятый враг Лекс Лютор опять строит ему козни, а его возлюбленная Лоис Лэйн вроде бы уже устроила свою личную жизнь. Кроме того, Супермен понимает, что за то время, когда его не было, люди научились прекрасно обходиться без него. Чтобы защитить мир, который он любит, от катастрофических разрушений, Супермену приходится преодолевать огромные расстояния: он опускается в океанские глубины и поднимается на космические высоты…


Исходник: Blu-Ray Remux 1080p
Видео: 1920x800 (2.40:1), 6140 Кбит/сек, HEVC (Main10@L.4.1@High)
Аудио1: AC3, 6 ch, 448 Kbps - РусскийРусский, Дублированный
Аудио2: AC3, 6 ch, 640 Kbps - EnglishEnglish, Original
Субтитры: Русские полные (SRT), English full (SRT)

Как за пару секунд удалить ненужные аудиодорожки и субтитры (Внимание! После удаления вы не сможете поддержать раздачу)

Лог (x265 info)
x265 [info]: frame I: 948, Avg QP:15.95 kb/s: 13210.78
x265 [info]: frame P: 42001, Avg QP:17.84 kb/s: 9509.58
x265 [info]: frame B: 179102, Avg QP:19.08 kb/s: 5489.31
x265 [info]: Weighted P-Frames: Y:11.5% UV:9.2%
x265 [info]: Weighted B-Frames: Y:11.8% UV:9.0%
x265 [info]: consecutive B-frames: 9.2% 7.6% 13.9% 16.5% 11.3% 19.9% 4.2% 6.8% 1.9% 2.0% 1.6% 2.2% 0.5% 0.9% 0.3% 0.9% 0.4%
x265 [info]: encoded 222051 frames in 137972.81s (1.61 fps), 6282.71 kb/s, Avg QP:18.83
Медиаинфо
Общее
Уникальный идентификатор : 335621825371598596997126831608084510118 (0xFC7E698F97D4366D3380F376B51F35A6)
Полное имя : \\.\06.Возвращение.Супермена.Superman.Returns.2006.BDRip-HEVC.1080p.mkv
Формат : Matroska
Версия формата : Version 4
Размер файла : 7,95 Гбайт
Продолжительность : 2 ч. 34 м.
Общий поток : 7 374 Кбит/сек
Название фильма : 06.Возвращение.Супермена.Superman.Returns.2006.BDRip-HEVC.1080p
Дата кодирования : UTC 2021-04-20 01:09:35
Программа кодирования : mkvmerge v56.1.0 ('My Friend') 64-bit
Библиотека кодирования : libebml v1.4.2 + libmatroska v1.6.4

Видео
Идентификатор : 1
Формат : HEVC
Формат/Информация : High Efficiency Video Coding
Профиль формата : Main 10@L4.1@High
Идентификатор кодека : V_MPEGH/ISO/HEVC
Продолжительность : 2 ч. 34 м.
Битрейт : 6 140 Кбит/сек
Ширина : 1 920 пикселей
Высота : 800 пикселей
Соотношение сторон : 2,40:1
Режим частоты кадров : Постоянный
Частота кадров : 23,976 (24000/1001) кадра/сек
Цветовое пространство : YUV
Субдискретизация насыщенности : 4:2:0
Битовая глубина : 10 бит
Бит/(Пиксели*Кадры) : 0.167
Размер потока : 6,62 Гбайт (83%)
Заголовок : Superman Returns / Rip by OldGamer
Библиотека кодирования : x265 3.5+1-ce882936d:[Windows][GCC 10.2.0][64 bit] 10bit
Настройки программы : cpuid=1111039 / frame-threads=3 / numa-pools=8 / wpp / no-pmode / no-pme / no-psnr / no-ssim / log-level=2 / input-csp=1 / input-res=1920x800 / interlace=0 / total-frames=222051 / level-idc=41 / high-tier=1 / uhd-bd=0 / ref=5 / no-allow-non-conformance / no-repeat-headers / annexb / no-aud / no-hrd / info / hash=0 / no-temporal-layers / open-gop / min-keyint=23 / keyint=240 / gop-lookahead=0 / bframes=16 / b-adapt=2 / b-pyramid / bframe-bias=0 / rc-lookahead=40 / lookahead-slices=0 / scenecut=40 / hist-scenecut=0 / radl=0 / no-splice / no-intra-refresh / ctu=32 / min-cu-size=8 / rect / amp / max-tu-size=32 / tu-inter-depth=4 / tu-intra-depth=4 / limit-tu=1 / rdoq-level=2 / dynamic-rd=0.00 / no-ssim-rd / signhide / no-tskip / nr-intra=0 / nr-inter=0 / no-constrained-intra / no-strong-intra-smoothing / max-merge=5 / limit-refs=3 / no-limit-modes / me=3 / subme=7 / merange=57 / temporal-mvp / no-frame-dup / no-hme / weightp / weightb / no-analyze-src-pics / deblock=-3:-3 / no-sao / no-sao-non-deblock / rd=6 / selective-sao=0 / no-early-skip / rskip / no-fast-intra / no-tskip-fast / no-cu-lossless / b-intra / no-splitrd-skip / rdpenalty=0 / psy-rd=2.00 / psy-rdoq=1.00 / no-rd-refine / no-lossless / cbqpoffs=0 / crqpoffs=0 / rc=crf / crf=20.0 / qcomp=0.75 / qpstep=4 / stats-write=0 / stats-read=0 / vbv-maxrate=50000 / vbv-bufsize=50000 / vbv-init=0.9 / min-vbv-fullness=50.0 / max-vbv-fullness=80.0 / crf-max=0.0 / crf-min=0.0 / ipratio=1.40 / pbratio=1.30 / aq-mode=1 / aq-strength=1.00 / no-cutree / zone-count=1 / zones: / start-frame=210756 / end-frame=222051 / qp=35 / no-strict-cbr / qg-size=32 / no-rc-grain / qpmax=69 / qpmin=0 / no-const-vbv / sar=1 / overscan=0 / videoformat=5 / range=0 / colorprim=2 / transfer=2 / colormatrix=2 / chromaloc=0 / display-window=0 / cll=0,0 / min-luma=0 / max-luma=1023 / log2-max-poc-lsb=8 / vui-timing-info / vui-hrd-info / slices=1 / no-opt-qp-pps / no-opt-ref-list-length-pps / no-multi-pass-opt-rps / scenecut-bias=0.00 / hist-threshold=0.03 / no-opt-cu-delta-qp / no-aq-motion / no-hdr10 / no-hdr10-opt / no-dhdr10-opt / no-idr-recovery-sei / analysis-reuse-level=0 / analysis-save-reuse-level=0 / analysis-load-reuse-level=0 / scale-factor=0 / refine-intra=0 / refine-inter=0 / refine-mv=1 / refine-ctu-distortion=0 / no-limit-sao / ctu-info=0 / no-lowpass-dct / refine-analysis-type=0 / copy-pic=1 / max-ausize-factor=1.0 / no-dynamic-refine / no-single-sei / no-hevc-aq / no-svt / no-field / qp-adaptation-range=1.00 / scenecut-aware-qp=0conformance-window-offsets / right=0 / bottom=0 / decoder-max-rate=0 / no-vbv-live-multi-pass
Язык : English
Default : Да
Forced : Нет

Аудио #1
Идентификатор : 2
Формат : AC-3
Формат/Информация : Audio Coding 3
Коммерческое название : Dolby Digital
Идентификатор кодека : A_AC3
Продолжительность : 2 ч. 34 м.
Вид битрейта : Постоянный
Битрейт : 448 Кбит/сек
Каналы : 6 каналов
Channel layout : L R C LFE Ls Rs
Частота : 48,0 КГц
Частота кадров : 31,250 кадров/сек (1536 SPF)
Метод сжатия : С потерями
Размер потока : 495 Мбайт (6%)
Заголовок : Dub
Язык : Russian
Service kind : Complete Main
Default : Да
Forced : Нет

Аудио #2
Идентификатор : 3
Формат : AC-3
Формат/Информация : Audio Coding 3
Коммерческое название : Dolby Digital
Идентификатор кодека : A_AC3
Продолжительность : 2 ч. 34 м.
Вид битрейта : Постоянный
Битрейт : 640 Кбит/сек
Каналы : 6 каналов
Channel layout : L R C LFE Ls Rs
Частота : 48,0 КГц
Частота кадров : 31,250 кадров/сек (1536 SPF)
Метод сжатия : С потерями
Размер потока : 707 Мбайт (9%)
Язык : English
Service kind : Complete Main
Default : Нет
Forced : Нет

Текст #1
Идентификатор : 4
Формат : UTF-8
Идентификатор кодека : S_TEXT/UTF8
Идентификатор кодека/Информация : UTF-8 Plain Text
Заголовок : Rus
Язык : Russian
Default : Нет
Forced : Нет

Текст #2
Идентификатор : 5
Формат : UTF-8
Идентификатор кодека : S_TEXT/UTF8
Идентификатор кодека/Информация : UTF-8 Plain Text
Заголовок : Eng
Язык : English
Default : Нет
Forced : Нет

Меню
00:00:00.000 : Prologue and Credits
00:05:04.303 : Gertrude's Beneficiary
00:07:34.454 : Back on Earth
00:10:46.479 : Fortress Intruders
00:16:31.991 : Younger Days
00:19:47.019 : All That's Left
00:21:29.288 : The Daily Planet
00:25:23.188 : Seed Needing Water
00:27:26.144 : Power Outage
00:31:10.702 : Midair Emergency
00:35:08.773 : Jumbled Jet
00:38:49.327 : Soft Landing
00:41:54.511 : Richard and the Munchkin
00:46:48.805 : What's So Hard?
00:49:25.295 : Outside Looking In
00:53:50.393 : Bouncing Bullets
00:56:47.570 : A Rescue and a Theft
01:01:14.337 : Yesterday's News
01:06:40.162 : Tell and Show
01:11:49.305 : Taking Lois Up
01:17:12.794 : Dire Recovery
01:19:41.777 : All Aboard
01:22:58.807 : Mind Over Muscle
01:28:52.994 : Two Launches
01:32:58.406 : Jason's Gift
01:35:48.909 : Undersea Disturbance
01:40:09.336 : Metropolis Mayhem
01:44:31.098 : Rising and Sinking Ship
01:49:28.061 : Give Me Your Hand
01:51:51.538 : Returning the Favor
01:56:15.635 : So Long, Superman
01:58:33.773 : Out of the Depths
02:01:54.307 : I Have to Go Back
02:04:36.969 : Loss of Precious Cargo
02:07:42.655 : Fallen Hero
02:11:41.059 : Where Else Would I Be?
02:15:46.638 : I Wanted to Tell You
02:19:38.036 : Atoll for Three
02:20:29.421 : Not Alone
02:24:06.304 : I'm Always Around
02:26:30.615 : End Credits
Загрузка...Cкриншот1 Возвращение Супермена / Superman Returns (2006) BDRip 1080p [HEVC] 10 bit от OldGamerЗагрузка...Cкриншот2 Возвращение Супермена / Superman Returns (2006) BDRip 1080p [HEVC] 10 bit от OldGamerЗагрузка...Cкриншот3 Возвращение Супермена / Superman Returns (2006) BDRip 1080p [HEVC] 10 bit от OldGamerЗагрузка...Cкриншот4 Возвращение Супермена / Superman Returns (2006) BDRip 1080p [HEVC] 10 bit от OldGamer
Сэмпл
7. Человек из стали / Man of Steel (2013) BDRip 1080p [HEVC] 10 bit от OldGamer
HEVC
10 bit
Обложка Человек из стали / Man of Steel (2013) BDRip 1080p [HEVC] 10 bit от OldGamer Год: 2013
Страна: США, Великобритания
Студия: DC Entertainment, Legendary Pictures, Syncopy, Third Act Productions, Warner Bros. Pictures
Жанр: Фантастика, Боевик, Приключения
Продолжительность: 02:23:03

Режиссер: Зак Снайдер
В ролях: Генри Кавилл, Эми Адамс, Майкл Шеннон, Рассел Кроу, Дайан Лэйн, Кевин Костнер, Антье Трауэ, Лоренс Фишбёрн, Кристофер Мелони, Гарри Дж. Ленникс

Описание: Кларк Кент (Кал-Эл) - молодой человек, который чувствует себя чужаком из-за своей невероятной силы. Много лет назад он был отправлен на Землю с развитой планеты Криптон, и теперь задаётся вопросом: зачем? Воспитанный приёмными родителями Мартой и Джонатаном Кентами, Кларк знает: обладать сверхспособностями - значит принимать сложные решения. Но когда человечество более всего нуждается в стабильности, оно подвергается нападению. Сможет ли герой восстановить мир или воспользуется своей силой для того, чтобы окончательно его разрушить?


Исходник: Blu-Ray Remux 1080p
Видео: 1920x800 (2.40:1), 7698 Кбит/сек, HEVC (Main10@L.4.1@High)
Аудио1: AC3, 6 ch, 640 Kbps - РусскийРусский, Дублированный
Аудио2: AC3, 6 ch, 640 Kbps - РусскийРусский, Авторский (Юрий Сербин)
Аудио3: AC3, 6 ch, 640 Kbps - РусскийРусский, Авторский (Андрей Гаврилов)
Аудио4: AC3, 6 ch, 640 Kbps - EnglishEnglish, Original
Субтитры: Русские форсированные и полные (SRT), English full (SRT)

Как за пару секунд удалить ненужные аудиодорожки и субтитры (Внимание! После удаления вы не сможете поддержать раздачу)

Лог (x265 info)
x265 [info]: frame I: 877, Avg QP:17.28 kb/s: 18695.33
x265 [info]: frame P: 46069, Avg QP:18.69 kb/s: 14387.90
x265 [info]: frame B: 158830, Avg QP:20.92 kb/s: 5696.24
x265 [info]: Weighted P-Frames: Y:7.0% UV:5.5%
x265 [info]: Weighted B-Frames: Y:7.7% UV:5.6%
x265 [info]: consecutive B-frames: 10.6% 8.1% 8.4% 31.6% 10.6% 21.0% 3.1% 4.0% 1.0% 1.0% 0.2% 0.2% 0.1% 0.1% 0.1%
x265 [info]: encoded 205776 frames in 158542.02s (1.30 fps), 7697.53 kb/s, Avg QP:20.40
Медиаинфо
Общее
Уникальный идентификатор : 86232381620648018952757050415894517822 (0x40DFC0A9FE7A12DB656C8C6A6794583E)
Полное имя : \\.\07.Человек.из.стали.Man.of.Steel.2013.BDRip-HEVC.1080p.mkv
Формат : Matroska
Версия формата : Version 4
Размер файла : 10,3 Гбайт
Продолжительность : 2 ч. 23 м.
Общий поток : 10,3 Мбит/сек
Название фильма : 07.Человек.из.стали.Man.of.Steel.2013.BDRip-HEVC.1080p
Дата кодирования : UTC 2021-04-21 19:19:24
Программа кодирования : mkvmerge v56.1.0 ('My Friend') 64-bit
Библиотека кодирования : libebml v1.4.2 + libmatroska v1.6.4

Видео
Идентификатор : 1
Формат : HEVC
Формат/Информация : High Efficiency Video Coding
Профиль формата : Main 10@L4.1@High
Идентификатор кодека : V_MPEGH/ISO/HEVC
Продолжительность : 2 ч. 23 м.
Битрейт : 7 698 Кбит/сек
Ширина : 1 920 пикселей
Высота : 800 пикселей
Соотношение сторон : 2,40:1
Режим частоты кадров : Постоянный
Частота кадров : 23,976 (24000/1001) кадра/сек
Цветовое пространство : YUV
Субдискретизация насыщенности : 4:2:0
Битовая глубина : 10 бит
Бит/(Пиксели*Кадры) : 0.209
Размер потока : 7,69 Гбайт (75%)
Заголовок : Man of Steel / Rip by OldGamer
Библиотека кодирования : x265 3.5+1-ce882936d:[Windows][GCC 10.2.0][64 bit] 10bit
Настройки программы : cpuid=1111039 / frame-threads=3 / numa-pools=8 / wpp / no-pmode / no-pme / no-psnr / no-ssim / log-level=2 / input-csp=1 / input-res=1920x800 / interlace=0 / total-frames=205776 / level-idc=41 / high-tier=1 / uhd-bd=0 / ref=5 / no-allow-non-conformance / no-repeat-headers / annexb / no-aud / no-hrd / info / hash=0 / no-temporal-layers / open-gop / min-keyint=23 / keyint=240 / gop-lookahead=0 / bframes=14 / b-adapt=2 / b-pyramid / bframe-bias=0 / rc-lookahead=40 / lookahead-slices=0 / scenecut=40 / hist-scenecut=0 / radl=0 / no-splice / no-intra-refresh / ctu=32 / min-cu-size=8 / rect / amp / max-tu-size=32 / tu-inter-depth=4 / tu-intra-depth=4 / limit-tu=1 / rdoq-level=2 / dynamic-rd=0.00 / no-ssim-rd / signhide / no-tskip / nr-intra=0 / nr-inter=0 / no-constrained-intra / no-strong-intra-smoothing / max-merge=5 / limit-refs=3 / no-limit-modes / me=3 / subme=7 / merange=57 / temporal-mvp / no-frame-dup / no-hme / weightp / weightb / no-analyze-src-pics / deblock=-3:-3 / no-sao / no-sao-non-deblock / rd=6 / selective-sao=0 / no-early-skip / rskip / no-fast-intra / no-tskip-fast / no-cu-lossless / b-intra / no-splitrd-skip / rdpenalty=0 / psy-rd=2.00 / psy-rdoq=1.00 / no-rd-refine / no-lossless / cbqpoffs=0 / crqpoffs=0 / rc=crf / crf=20.0 / qcomp=0.75 / qpstep=4 / stats-write=0 / stats-read=0 / vbv-maxrate=50000 / vbv-bufsize=50000 / vbv-init=0.9 / min-vbv-fullness=50.0 / max-vbv-fullness=80.0 / crf-max=0.0 / crf-min=0.0 / ipratio=1.40 / pbratio=1.30 / aq-mode=1 / aq-strength=1.00 / no-cutree / zone-count=1 / zones: / start-frame=191085 / end-frame=205776 / qp=35 / no-strict-cbr / qg-size=32 / no-rc-grain / qpmax=69 / qpmin=0 / no-const-vbv / sar=1 / overscan=0 / videoformat=5 / range=0 / colorprim=2 / transfer=2 / colormatrix=2 / chromaloc=0 / display-window=0 / cll=0,0 / min-luma=0 / max-luma=1023 / log2-max-poc-lsb=8 / vui-timing-info / vui-hrd-info / slices=1 / no-opt-qp-pps / no-opt-ref-list-length-pps / no-multi-pass-opt-rps / scenecut-bias=0.00 / hist-threshold=0.03 / no-opt-cu-delta-qp / no-aq-motion / no-hdr10 / no-hdr10-opt / no-dhdr10-opt / no-idr-recovery-sei / analysis-reuse-level=0 / analysis-save-reuse-level=0 / analysis-load-reuse-level=0 / scale-factor=0 / refine-intra=0 / refine-inter=0 / refine-mv=1 / refine-ctu-distortion=0 / no-limit-sao / ctu-info=0 / no-lowpass-dct / refine-analysis-type=0 / copy-pic=1 / max-ausize-factor=1.0 / no-dynamic-refine / no-single-sei / no-hevc-aq / no-svt / no-field / qp-adaptation-range=1.00 / scenecut-aware-qp=0conformance-window-offsets / right=0 / bottom=0 / decoder-max-rate=0 / no-vbv-live-multi-pass
Язык : English
Default : Да
Forced : Нет

Аудио #1
Идентификатор : 2
Формат : AC-3
Формат/Информация : Audio Coding 3
Коммерческое название : Dolby Digital
Идентификатор кодека : A_AC3
Продолжительность : 2 ч. 23 м.
Вид битрейта : Постоянный
Битрейт : 640 Кбит/сек
Каналы : 6 каналов
Channel layout : L R C LFE Ls Rs
Частота : 48,0 КГц
Частота кадров : 31,250 кадров/сек (1536 SPF)
Метод сжатия : С потерями
Размер потока : 655 Мбайт (6%)
Заголовок : DUB
Язык : Russian
Service kind : Complete Main
Default : Да
Forced : Нет

Аудио #2
Идентификатор : 3
Формат : AC-3
Формат/Информация : Audio Coding 3
Коммерческое название : Dolby Digital
Идентификатор кодека : A_AC3
Продолжительность : 2 ч. 23 м.
Вид битрейта : Постоянный
Битрейт : 640 Кбит/сек
Каналы : 6 каналов
Channel layout : L R C LFE Ls Rs
Частота : 48,0 КГц
Частота кадров : 31,250 кадров/сек (1536 SPF)
Метод сжатия : С потерями
Размер потока : 655 Мбайт (6%)
Заголовок : AVO (Юрий Сербин)
Язык : Russian
Service kind : Complete Main
Default : Нет
Forced : Нет

Аудио #3
Идентификатор : 4
Формат : AC-3
Формат/Информация : Audio Coding 3
Коммерческое название : Dolby Digital
Идентификатор кодека : A_AC3
Продолжительность : 2 ч. 23 м.
Вид битрейта : Постоянный
Битрейт : 640 Кбит/сек
Каналы : 6 каналов
Channel layout : L R C LFE Ls Rs
Частота : 48,0 КГц
Частота кадров : 31,250 кадров/сек (1536 SPF)
Метод сжатия : С потерями
Размер потока : 655 Мбайт (6%)
Заголовок : AVO (Андрей Гаврилов)
Язык : Russian
Service kind : Complete Main
Default : Нет
Forced : Нет

Аудио #4
Идентификатор : 5
Формат : AC-3
Формат/Информация : Audio Coding 3
Коммерческое название : Dolby Digital
Идентификатор кодека : A_AC3
Продолжительность : 2 ч. 23 м.
Вид битрейта : Постоянный
Битрейт : 640 Кбит/сек
Каналы : 6 каналов
Channel layout : L R C LFE Ls Rs
Частота : 48,0 КГц
Частота кадров : 31,250 кадров/сек (1536 SPF)
Метод сжатия : С потерями
Размер потока : 655 Мбайт (6%)
Язык : English
Service kind : Complete Main
Default : Нет
Forced : Нет

Текст #1
Идентификатор : 6
Формат : UTF-8
Идентификатор кодека : S_TEXT/UTF8
Идентификатор кодека/Информация : UTF-8 Plain Text
Продолжительность : 9 м. 12 с.
Битрейт : 3 бит/сек
Count of elements : 5
Размер потока : 216 байт (0%)
Заголовок : Forced
Язык : Russian
Default : Нет
Forced : Нет

Текст #2
Идентификатор : 7
Формат : UTF-8
Идентификатор кодека : S_TEXT/UTF8
Идентификатор кодека/Информация : UTF-8 Plain Text
Продолжительность : 2 ч. 11 м.
Битрейт : 56 бит/сек
Count of elements : 1245
Размер потока : 54,5 Кбайт (0%)
Заголовок : Full
Язык : Russian
Default : Нет
Forced : Нет

Текст #3
Идентификатор : 8
Формат : UTF-8
Идентификатор кодека : S_TEXT/UTF8
Идентификатор кодека/Информация : UTF-8 Plain Text
Продолжительность : 2 ч. 11 м.
Битрейт : 41 бит/сек
Count of elements : 1292
Размер потока : 40,0 Кбайт (0%)
Заголовок : Full
Язык : English
Default : Нет
Forced : Нет

Меню
00:00:00.000 : :Chapter 01
00:11:16.966 : :Chapter 02
00:20:01.450 : :Chapter 03
00:30:09.472 : :Chapter 04
00:39:21.608 : :Chapter 05
00:48:57.643 : :Chapter 06
00:59:03.414 : :Chapter 07
01:08:57.881 : :Chapter 08
01:17:35.108 : :Chapter 09
01:28:36.185 : :Chapter 10
01:40:47.791 : :Chapter 11
01:50:55.855 : :Chapter 12
02:00:53.578 : :Chapter 13
02:10:13.555 : :Chapter 14
02:12:49.920 : :Chapter 15
02:23:02.363 : :Chapter 16
Загрузка...Cкриншот1 Человек из стали / Man of Steel (2013) BDRip 1080p [HEVC] 10 bit от OldGamerЗагрузка...Cкриншот2 Человек из стали / Man of Steel (2013) BDRip 1080p [HEVC] 10 bit от OldGamerЗагрузка...Cкриншот3 Человек из стали / Man of Steel (2013) BDRip 1080p [HEVC] 10 bit от OldGamerЗагрузка...Cкриншот4 Человек из стали / Man of Steel (2013) BDRip 1080p [HEVC] 10 bit от OldGamer
Сэмпл
Релиз-группа: RIPS CLUB
Торрент🧲 Магнет

Рейтинги КП и IMDB, кнопки "Позвать в чате" и "Спасибо", а также мультитрекерная статистика доступны только зарегистрированным/авторизованным пользователям!

Файлы: 7
  • Супермен.Коллекция.Superman.Film.Collection
    • 01.Супермен.Superman.1978.Expanded.Edition.BDRip-HEVC.1080p.mkv   7.78 ГБ
    • 02.Супермен.2.Superman.II.1980.Theatrical.Cut.BDRip-HEVC.1080p.mkv   9.03 ГБ
    • 03.Супермен.2.Superman.II.1980.Richard.Donner.Cut.BDRip-HEVC.1080p.mkv   6.92 ГБ
    • 04.Супермен.3.Superman.III.1983.BDRip-HEVC.1080p.mkv   10.23 ГБ
    • 05.Супермен.4.В.поисках.мира.Superman.IV.The.Quest.for.Peace.1987.BDRip-HEVC.1080p.mkv   7.35 ГБ
    • 06.Возвращение.Супермена.Superman.Returns.2006.BDRip-HEVC.1080p.mkv   7.95 ГБ
    • 07.Человек.из.стали.Man.of.Steel.2013.BDRip-HEVC.1080p.mkv   10.25 ГБ
Поблагодарили: 14
alexyak, Brooklyn, donadar, grudich, han-nik, InSpector, ivan_1965, Kilop77, Kiran, mafo2, makss333, mvazquez, NoMaD, StarLord
OldGamer
3531610 (7)  59.51 ГБ

Добавление нового комментария

Добавление комментариев доступно только зарегистрированным/авторизованным пользователям.
Аватар не указан
  mvazquez  
Sorry, you're right, I didn't know that this movie had 3 versions.
Аватар OldGamer
  OldGamer  
Superman 1978 Theatrical - Length: 2:23:16.629
Superman 1978 Director's Cut - Length: 2:31:25.826
Superman 1978 Extended Edition KCOP Version 2017 - Duration 3 h 8 min
Аватар не указан
  mvazquez  
Excellent work my friend. Thanks a lot!
If you could check, the 1978 version is not the expanded edition, it's the theatrical cut. Because the expanded lasts more than 3 hours. Thank you very much again, you look spectacular. Best regards