💬 Мини-чат

OldGamerну и акустические излучатели собрать хорошие, типа Penaudio Legato Signature или похожие, тут надо тщательно собирать систему для прослушивания
OldGamerне помешает ещё посетить отоларинголога для промывки слухового аппарата от серных пробок специализированным сертифицированным раствором, это (промывка) имеет немаловажное значение
OldGamer😆🤐🤐
OldGamerи всё же лучше hi-end, с подключением кабелями типа Analysis-Plus Oval 9 из бескислородной меди и с их предварительным прогревом системой типа Nordost Vidar, иначе всё теряет смысл
XuMuKManson_Fan, не надо hi-end акустики, достаточно hi-fi. "Кристольность" на высоких частотах другая, в DTS кажется более "живым" звук. Но самая большая разница, когда сравниваешь АС3 с каким-нибудь DTS-HD MA
IRITРаздайте, пожалуйста, Байки из склепа: Демон ночи / Tales from the Crypt: Demon Knight (1995) BDRip 1080p [HEVC] 10 bit от druidblack
OldGamerManson_Fan, у меня нет hi-end акустики, поэтому не слушал, не знаю, может и есть разница. За других говорить не буду. В любом случае, продвинутым слухачам будет несложно найти, скачать и прикрепить дорожки требуемого им качества.
mafo2Manson_Fan, не все телевизоры поддерживают DTS. например, мой через встроенный плеер его не воспроизводит. можно конечно смотреть через ПК, но порой хочется и через ТВ.
Manson_FanOldGamer, "Скажите зачем релизёры звук DTS 768 kbps переделывают в AC3 640 kbps" Интересно, а разницу в качестве в фильмах кому то удавалось услышать?😕 мне вот нет
Manson_Fanникто еще не сравнивал HEVC и новый AV1?
IRITРаздайте, пожалуйста, Маньяк-полицейский 3: Знак молчания / Maniac Cop 3: Badge of Silence (1993) BDRip 1080p [HEVC] 10 bit от HANNIBAL
Spartanec1308С Днём Великой Победы!
BrooklynВсех с праздником! С Днем Великой Победы! Ура-Ура-Урааааааа
BrooklynADVOKAT69, Спасибо большое!
ADVOKAT69Операция «Ы» и другие приключения Шурика (1965) раздаю
mafo2С Днем Победы!
joker63Поздравляю всех с Днем Победы!
ADVOKAT69Admin, Спасибо деду за победу!Тебе за поздравление!
AdminADVOKAT69, Дедам спасибо.
ADVOKAT69Admin, спасибо большое!✋
  • OldGamer
  • diesel0000
  • Priest2017
  • umbriel
Отправка сообщений доступна только зарегистрированным/авторизованным пользователям.
Онлайн (за 10 мин.): 4

Чудо-женщина / Wonder Woman (2017) BDRip 1080p [HEVC] 10 bit от -Star-Lord- (RG RIPS CLUB)

HEVC
10 bit
Обложка Чудо-женщина / Wonder Woman (2017) BDRip 1080p [HEVC] 10 bit от -Star-Lord- (RG RIPS CLUB) Год: 2017
Страна: США, Китай, Гонконг, Великобритания, Италия
Студия: Warner Bros. Pictures, DC Entertainment
Жанр: Фантастика, Фэнтези, Боевик, Приключения
Продолжительность: 02:21:15

Режиссер: Пэтти Дженкинс
В ролях: Галь Гадот, Робин Райт, Дэвид Тьюлис, Конни Нильсен, Крис Пайн, Елена Анайя, Люси Дэвис, Юэн Бремнер, Даутцен Крёз, Дэнни Хьюстон

Описание: Перед тем как стать Чудо-Женщиной, она была Дианой - принцессой амазонок, обученной быть непобедимой воительницей. И когда на берегах ограждённого от внешнего мира райского острова, который служил ей родиной, терпит крушение американский пилот и рассказывает о серьёзном конфликте, бушующем во внешнем мире, Диана покидает свой дом, чтобы справиться с этой угрозой. И там, сражаясь бок о бок с человеком в войне за мир, Диана обнаружит всю полноту своей власти... и своё истинное предназначение.


Видео: 1920x800, ~7368 Кбит/сек
Аудио1: AC3, 6 ch, 448 Kbps - РусскийРусский, Дублированный (Blu-Ray)
Аудио2: AC3, 2 ch, 224 Kbps - РусскийРусский, Двухголосый (TV Play Baltics)
Аудио3: AC3, 6 ch, 448 Kbps - РусскийРусский, Авторский (Ю. Сербин)
Аудио4: AC3, 6 ch, 448 Kbps - РусскийРусский, Авторский (А. Дасевич)
Аудио5: AC3, 6 ch, 448 Kbps - РусскийРусский, Авторский (А. Гаврилов)
Аудио6: AC3, 6 ch, 448 Kbps - РусскийРусский, Авторский (Е. Солодухин)
Аудио7: AC3, 6 ch, 384 Kbps - УкраинскийУкраинский, Дублированный (iTunes)
Аудио8: AC3, 6 ch, 640 Kbps - АнглийскийАнглийский, Оригинал
Субтитры: русские (форс., полные), украинские (форс.), английские (полные, SDH, SDH-Colored)

Как за пару секунд удалить ненужные аудиодорожки и субтитры (Внимание! После удаления вы не сможете поддержать раздачу)

Лог (x265 info)
x265 [info]: frame I: 2045, Avg QP:17.29 kb/s: 23274.48
x265 [info]: frame P: 37333, Avg QP:18.52 kb/s: 13043.09
x265 [info]: frame B: 163842, Avg QP:20.55 kb/s: 6058.96
x265 [info]: Weighted P-Frames: Y:9.1% UV:7.8%
x265 [info]: Weighted B-Frames: Y:8.0% UV:6.3%
x265 [info]: consecutive B-frames: 9.0% 4.7% 6.8% 26.1% 10.6% 19.1% 7.0% 8.1% 3.1% 2.3% 1.2% 0.8% 0.4% 0.3% 0.2% 0.2% 0.1%

encoded 203220 frames in 201286.38s (1.01 fps), 7515.24 kb/s, Avg QP:20.14
Медиаинфо
General
Unique ID : 22805385847589400512404408355826186948 (0x112828552DA52607662C3317B0383AC4)
Complete name : Wonder Woman (2017) BDRip 1080p H.265 [6xRUS_UKR_ENG] [RIPS-CLUB].mkv
Format : Matroska
Format version : Version 4
File size : 11.1 GiB
Duration : 2 h 21 min
Overall bit rate : 11.2 Mb/s
Movie name : Чудо-женщина / Диво-жінка / Wonder Woman (2017)
Encoded date : UTC 2021-05-02 08:05:09
Writing application : mkvmerge v20.0.0 ('I Am The Sun') 64-bit
Writing library : libebml v1.3.5 + libmatroska v1.4.8
Cover : Yes
Attachments : Cover.jpg

Video
ID : 1
Format : HEVC
Format/Info : High Efficiency Video Coding
Format profile : Main 10@L4.1@High
Codec ID : V_MPEGH/ISO/HEVC
Duration : 2 h 21 min
Bit rate : 7 516 kb/s
Width : 1 920 pixels
Height : 800 pixels
Display aspect ratio : 2.40:1
Frame rate mode : Constant
Frame rate : 23.976 (24000/1001) FPS
Color space : YUV
Chroma subsampling : 4:2:0
Bit depth : 10 bits
Bits/(Pixel*Frame) : 0.204
Stream size : 7.42 GiB (67%)
Title : Чудо-женщина / Диво-жінка / Wonder Woman (2017)
Writing library : x265 3.5+1-ce882936d:[Windows][GCC 10.2.0][64 bit] 10bit
Encoding settings : cpuid=1111039 / frame-threads=3 / numa-pools=12 / wpp / no-pmode / no-pme / no-psnr / no-ssim / log-level=2 / input-csp=1 / input-res=1920x800 / interlace=0 / total-frames=203220 / level-idc=41 / high-tier=1 / uhd-bd=0 / ref=5 / no-allow-non-conformance / no-repeat-headers / annexb / no-aud / no-hrd / info / hash=0 / no-temporal-layers / open-gop / min-keyint=23 / keyint=240 / gop-lookahead=0 / bframes=16 / b-adapt=2 / b-pyramid / bframe-bias=0 / rc-lookahead=60 / lookahead-slices=4 / scenecut=40 / hist-scenecut=0 / radl=0 / no-splice / no-intra-refresh / ctu=32 / min-cu-size=8 / rect / amp / max-tu-size=32 / tu-inter-depth=4 / tu-intra-depth=4 / limit-tu=1 / rdoq-level=2 / dynamic-rd=0.00 / no-ssim-rd / signhide / no-tskip / nr-intra=0 / nr-inter=0 / no-constrained-intra / no-strong-intra-smoothing / max-merge=5 / limit-refs=2 / limit-modes / me=3 / subme=7 / merange=57 / temporal-mvp / no-frame-dup / no-hme / weightp / weightb / no-analyze-src-pics / deblock=-3:-3 / no-sao / no-sao-non-deblock / rd=6 / selective-sao=0 / no-early-skip / no-rskip / no-fast-intra / no-tskip-fast / no-cu-lossless / no-b-intra / no-splitrd-skip / rdpenalty=0 / psy-rd=2.00 / psy-rdoq=1.00 / no-rd-refine / no-lossless / cbqpoffs=0 / crqpoffs=0 / rc=crf / crf=20.5 / qcomp=0.70 / qpstep=4 / stats-write=0 / stats-read=0 / vbv-maxrate=50000 / vbv-bufsize=50000 / vbv-init=0.9 / min-vbv-fullness=50.0 / max-vbv-fullness=80.0 / crf-max=0.0 / crf-min=0.0 / ipratio=1.40 / pbratio=1.30 / aq-mode=1 / aq-strength=1.00 / no-cutree / zone-count=0 / no-strict-cbr / qg-size=32 / no-rc-grain / qpmax=69 / qpmin=0 / no-const-vbv / sar=1 / overscan=0 / videoformat=5 / range=0 / colorprim=2 / transfer=2 / colormatrix=2 / chromaloc=0 / display-window=0 / cll=0,0 / min-luma=0 / max-luma=1023 / log2-max-poc-lsb=8 / vui-timing-info / vui-hrd-info / slices=1 / no-opt-qp-pps / no-opt-ref-list-length-pps / no-multi-pass-opt-rps / scenecut-bias=0.05 / hist-threshold=0.03 / no-opt-cu-delta-qp / no-aq-motion / no-hdr10 / no-hdr10-opt / no-dhdr10-opt / no-idr-recovery-sei / analysis-reuse-level=0 / analysis-save-reuse-level=0 / analysis-load-reuse-level=0 / scale-factor=0 / refine-intra=0 / refine-inter=0 / refine-mv=1 / refine-ctu-distortion=0 / no-limit-sao / ctu-info=0 / no-lowpass-dct / refine-analysis-type=0 / copy-pic=1 / max-ausize-factor=1.0 / no-dynamic-refine / no-single-sei / no-hevc-aq / no-svt / no-field / qp-adaptation-range=1.00 / scenecut-aware-qp=0conformance-window-offsets / right=0 / bottom=0 / decoder-max-rate=0 / no-vbv-live-multi-pass
Language : English
Default : Yes
Forced : Yes

Audio #1
ID : 2
Format : AC-3
Format/Info : Audio Coding 3
Commercial name : Dolby Digital
Codec ID : A_AC3
Duration : 2 h 21 min
Bit rate mode : Constant
Bit rate : 448 kb/s
Channel(s) : 6 channels
Channel layout : L R C LFE Ls Rs
Sampling rate : 48.0 kHz
Frame rate : 31.250 FPS (1536 SPF)
Compression mode : Lossy
Stream size : 453 MiB (4%)
Title : AC-3 / 5.1 Ch / 448 kbps / DUB / Blu-Ray
Language : Russian
Service kind : Complete Main
Default : Yes
Forced : Yes

Audio #2
ID : 3
Format : AC-3
Format/Info : Audio Coding 3
Commercial name : Dolby Digital
Codec ID : A_AC3
Duration : 2 h 21 min
Bit rate mode : Constant
Bit rate : 224 kb/s
Channel(s) : 2 channels
Channel layout : L R
Sampling rate : 48.0 kHz
Frame rate : 31.250 FPS (1536 SPF)
Compression mode : Lossy
Stream size : 226 MiB (2%)
Title : AC-3 / 2.0 Ch / 224 kbps / DVO / TV Play Baltics
Language : Russian
Service kind : Complete Main
Default : No
Forced : No

Audio #3
ID : 4
Format : AC-3
Format/Info : Audio Coding 3
Commercial name : Dolby Digital
Codec ID : A_AC3
Duration : 2 h 21 min
Bit rate mode : Constant
Bit rate : 448 kb/s
Channel(s) : 6 channels
Channel layout : L R C LFE Ls Rs
Sampling rate : 48.0 kHz
Frame rate : 31.250 FPS (1536 SPF)
Compression mode : Lossy
Stream size : 453 MiB (4%)
Title : AC-3 / 5.1 Ch / 448 kbps / AVO / Ю. Сербин
Language : Russian
Service kind : Complete Main
Default : No
Forced : No

Audio #4
ID : 5
Format : AC-3
Format/Info : Audio Coding 3
Commercial name : Dolby Digital
Codec ID : A_AC3
Duration : 2 h 21 min
Bit rate mode : Constant
Bit rate : 448 kb/s
Channel(s) : 6 channels
Channel layout : L R C LFE Ls Rs
Sampling rate : 48.0 kHz
Frame rate : 31.250 FPS (1536 SPF)
Compression mode : Lossy
Stream size : 453 MiB (4%)
Title : AC-3 / 5.1 Ch / 448 kbps / AVO / А. Дасевич
Language : Russian
Service kind : Complete Main
Default : No
Forced : No

Audio #5
ID : 6
Format : AC-3
Format/Info : Audio Coding 3
Commercial name : Dolby Digital
Codec ID : A_AC3
Duration : 2 h 21 min
Bit rate mode : Constant
Bit rate : 448 kb/s
Channel(s) : 6 channels
Channel layout : L R C LFE Ls Rs
Sampling rate : 48.0 kHz
Frame rate : 31.250 FPS (1536 SPF)
Compression mode : Lossy
Stream size : 453 MiB (4%)
Title : AC-3 / 5.1 Ch / 448 kbps / AVO / А. Гаврилов
Language : Russian
Service kind : Complete Main
Default : No
Forced : No

Audio #6
ID : 7
Format : AC-3
Format/Info : Audio Coding 3
Commercial name : Dolby Digital
Codec ID : A_AC3
Duration : 2 h 21 min
Bit rate mode : Constant
Bit rate : 640 kb/s
Channel(s) : 6 channels
Channel layout : L R C LFE Ls Rs
Sampling rate : 48.0 kHz
Frame rate : 31.250 FPS (1536 SPF)
Compression mode : Lossy
Stream size : 647 MiB (6%)
Title : AC-3 / 5.1 Ch / 640 kbps / AVO / Е. Солодухин
Language : Russian
Service kind : Complete Main
Default : No
Forced : No

Audio #7
ID : 8
Format : AC-3
Format/Info : Audio Coding 3
Commercial name : Dolby Digital
Codec ID : A_AC3
Duration : 2 h 21 min
Bit rate mode : Constant
Bit rate : 384 kb/s
Channel(s) : 6 channels
Channel layout : L R C LFE Ls Rs
Sampling rate : 48.0 kHz
Frame rate : 31.250 FPS (1536 SPF)
Compression mode : Lossy
Stream size : 388 MiB (3%)
Title : AC-3 / 5.1 Ch / 384 kbps / DUB / iTunes
Language : Ukrainian
Service kind : Complete Main
Default : No
Forced : No

Audio #8
ID : 9
Format : AC-3
Format/Info : Audio Coding 3
Commercial name : Dolby Digital
Codec ID : A_AC3
Duration : 2 h 21 min
Bit rate mode : Constant
Bit rate : 640 kb/s
Channel(s) : 6 channels
Channel layout : L R C LFE Ls Rs
Sampling rate : 48.0 kHz
Frame rate : 31.250 FPS (1536 SPF)
Compression mode : Lossy
Stream size : 647 MiB (6%)
Title : AC-3 / 5.1 Ch / 640 kbps / Original
Language : English
Service kind : Complete Main
Default : No
Forced : No

Text #1
ID : 10
Format : UTF-8
Codec ID : S_TEXT/UTF8
Codec ID/Info : UTF-8 Plain Text
Duration : 2 h 7 min
Bit rate : 1 b/s
Count of elements : 15
Stream size : 1.08 KiB (0%)
Title : Forced
Language : Russian
Default : Yes
Forced : Yes

Text #2
ID : 11
Format : UTF-8
Codec ID : S_TEXT/UTF8
Codec ID/Info : UTF-8 Plain Text
Duration : 2 h 12 min
Bit rate : 80 b/s
Count of elements : 1300
Stream size : 78.2 KiB (0%)
Title : Full
Language : Russian
Default : No
Forced : No

Text #3
ID : 12
Format : UTF-8
Codec ID : S_TEXT/UTF8
Codec ID/Info : UTF-8 Plain Text
Duration : 2 h 8 min
Bit rate : 1 b/s
Count of elements : 24
Stream size : 1.13 KiB (0%)
Title : Forced
Language : Ukrainian
Default : No
Forced : No

Text #4
ID : 13
Format : UTF-8
Codec ID : S_TEXT/UTF8
Codec ID/Info : UTF-8 Plain Text
Duration : 2 h 20 min
Bit rate : 44 b/s
Count of elements : 1586
Stream size : 46.1 KiB (0%)
Title : Full
Language : English
Default : No
Forced : No

Text #5
ID : 14
Format : UTF-8
Codec ID : S_TEXT/UTF8
Codec ID/Info : UTF-8 Plain Text
Duration : 2 h 20 min
Bit rate : 50 b/s
Count of elements : 1827
Stream size : 52.0 KiB (0%)
Title : SDH
Language : English
Default : No
Forced : No

Text #6
ID : 15
Format : UTF-8
Codec ID : S_TEXT/UTF8
Codec ID/Info : UTF-8 Plain Text
Duration : 2 h 10 min
Bit rate : 72 b/s
Count of elements : 1827
Stream size : 68.8 KiB (0%)
Title : SDH-Colored
Language : English
Default : No
Forced : No

Menu
00:00:00.000 : en:Chapter 01
00:10:26.917 : en:Chapter 02
00:23:12.557 : en:Chapter 03
00:33:10.738 : en:Chapter 04
00:43:55.132 : en:Chapter 05
00:54:25.553 : en:Chapter 06
01:07:38.262 : en:Chapter 07
01:22:30.195 : en:Chapter 08
01:34:02.845 : en:Chapter 09
01:45:37.998 : en:Chapter 10
01:57:43.765 : en:Chapter 11
02:10:41.416 : en:Chapter 12
02:21:15.717 : en:Chapter 13
Загрузка...Cкриншот1 Чудо-женщина / Wonder Woman (2017) BDRip 1080p [HEVC] 10 bit от -Star-Lord- (RG RIPS CLUB)Загрузка...Cкриншот2 Чудо-женщина / Wonder Woman (2017) BDRip 1080p [HEVC] 10 bit от -Star-Lord- (RG RIPS CLUB)Загрузка...Cкриншот3 Чудо-женщина / Wonder Woman (2017) BDRip 1080p [HEVC] 10 bit от -Star-Lord- (RG RIPS CLUB)Загрузка...Cкриншот4 Чудо-женщина / Wonder Woman (2017) BDRip 1080p [HEVC] 10 bit от -Star-Lord- (RG RIPS CLUB)
Релиз-группа: RIPS CLUB
Сэмпл Торрент🧲 Магнет

Рейтинги КП и IMDB, кнопки "Позвать в чате" и "Спасибо", а также мультитрекерная статистика доступны только зарегистрированным/авторизованным пользователям!

Файлы: 1
  • Wonder Woman (2017) BDRip 1080p H.265 [6xRUS_UKR_ENG] [RIPS-CLUB].mkv   11.05 ГБ
Поблагодарили: 10
alexyak, Brooklyn, Elico1977, IRIT, Kiran, mafo2, NoMaD, Nuclear70, Rezident, z_artem
StarLord
106411411.05 ГБ

Добавление нового комментария

Добавление комментариев доступно только зарегистрированным/авторизованным пользователям.
Аватар NoMaD
  NoMaD  
mafo2 писал(а):
мне со всего последнего DC кроме Аквамена ничего особо и не зашло,
Марвел, впрочем, тоже не все заходит. от полного восторга Стражей Галактики и третьего Тора до "смотреть еще раз не хочется совсем" все Первые мстители и два первых Тора
Аквамен действительно вещь, Отряд самоубийц ещё норм, Человек из стали тоже. Лига справедливости Зака Снайдера не зашла - долго и нудно, плюс квадратный экран) Как советский телик смотришь))) После трилогии Бэтмена Кристофера Нолана, как то всё не так смотрится. Плюс разочаровал Бэтмен против Супермена - свести против друг друга двух положительных героев не самая хорошая идея) Марвел рулит короче) И сериалы и фильмы)
Аватар mafo2
  mafo2  (Отредактировал mafo2: )    
NoMaD писал(а):
Первая ещё ничего так, вторая вообще дичь. DC всё больше разочаровывают в отличии от Марвел
мне со всего последнего DC кроме Аквамена ничего особо и не зашло,
Марвел, впрочем, тоже не все заходит. от полного восторга Стражей Галактики и третьего Тора до "смотреть еще раз не хочется совсем" все Первые мстители и два первых Тора
Аватар NoMaD
  NoMaD  
mafo2 писал(а):
в целом, согласен. где-то со второго часа просмотра уже сидел за компом и фильм больше слушал, пока жена досматривала )
ПС. я и от первой части не в особом восторге-то был.
Первая ещё ничего так, вторая вообще дичь. DC всё больше разочаровывают в отличии от Марвел
Аватар mafo2
  mafo2  (Отредактировал mafo2: )    
OldGamer писал(а):
второй после первого весьма даже УГ
в целом, согласен. где-то со второго часа просмотра уже сидел за компом и фильм больше слушал, пока жена досматривала )
ПС. я и от первой части не в особом восторге-то был.
Аватар StarLord
  StarLord  
mafo2 писал(а):
-Star-Lord-, давай уже второй, а то до сих пор не смотрел )
Ок :)
Аватар StarLord
  StarLord  
OldGamer писал(а):
второй после первого весьма даже УГ
Соглашусь, вообще не зашла вторая часть...
Аватар OldGamer
  OldGamer  
mafo2 писал(а):
-Star-Lord-, давай уже второй, а то до сих пор не смотрел )
второй после первого весьма даже УГ
Аватар mafo2
  mafo2  
-Star-Lord-, давай уже второй, а то до сих пор не смотрел )
Аватар mafo2
  mafo2  (Отредактировал mafo2: )    
maksim_mudakov писал(а):
Зачем Дубляж кастрировал? 640 Кбит явно лучше.
На любом исходнике 448. Да и сомневаюсь я, что ты отличишь 448 от 640 (но не буду на 100 % уверен, может именно ты феномен).
Аватар не указан
  maksim_mudakov  
Зачем Дубляж кастрировал? 640 Кбит явно лучше.