💬 Мини-чат

OldGamerdonadar, нет, очень страшного кино не планировал 😀
donadarOldGamer, Спасибо за будущий Крик😀 А будет в планах "Очень страшное кино коллекция"?
AlexTwittСообщение удалено (удалил: AlexTwitt)
StarLordADVOKAT69, супер)
ADVOKAT69StarLord, хорошо!
StarLordADVOKAT69, привет)) как оно?)
Mr. Foxда, это не претензия и не предмет спора, это личное мнение, можно не развивать
Mr. FoxOldGamer, ну если честно, я в курсе, как по мне там даже на желтую не тянуло, но как говорится хозяин - барин
OldGamerMr. Fox, ничего нового или неожиданного, всё как и на других трекерах 😀 С - Стабильность.
Mr. FoxOldGamer, что ж такого NoMaD натворил, интересно
OldGamerПользователь NoMaD забанен навсегда
  • IRIT
Отправка сообщений доступна только зарегистрированным/авторизованным пользователям.
Онлайн (за 10 мин.): 1

Чудо-женщина: 1984 / Wonder Woman 1984 (2020) [IMAX Edition, iTunes] BDRip 1080p [HEVC] 10 bit от -Star-Lord- (RG RIPS CLUB)

HEVC
10 bit
Обложка Чудо-женщина: 1984 / Wonder Woman 1984 (2020) [IMAX Edition, iTunes] BDRip 1080p [HEVC] 10 bit от -Star-Lord- (RG RIPS CLUB) Год: 2020
Страна: США, Великобритания, Испания
Студия: Warner Bros. Pictures, DC Comics, DC Entertainment, Atlas Entertainment, The Stone Quarry
Жанр: Фэнтези, Боевик, Приключения, Фантастика
Продолжительность: 02:31:08

Режиссер: Пэтти Дженкинс
В ролях: Галь Гадот, Крис Пайн, Кристен Уиг, Педро Паскаль, Робин Райт, Конни Нильсен, Лилли Аспелл, Амр Вакед, Кристоффер Полаха, Наташа Ротуэлл

Описание: 1984 год. Диана всё ещё грустит по погибшему Стиву, борется с мелким криминалом и работает в музее Смитсоновского института. Однажды она знакомится с новой коллегой Барбарой, специалисткой широкого профиля, которой поручено изучить новые артефакты. Среди древних предметов оказывается загадочный кристалл, который исполняет желания. Так к Диане внезапно возвращается Стив, а застенчивая и неуклюжая Барбара обретает невероятную силу, сноровку и привлекательность. Но за волшебным кристаллом охотится бизнесмен Максвелл Лорд, и у него имеются очень коварные планы на этот артефакт.


Видео: 1920x1016, ~8822 Кбит/сек
Аудио1: AC3, 6 ch, 384 Kbps - РусскийРусский, Дублированный (iTunes)
Аудио2: AC3, 6 ch, 448 Kbps - РусскийРусский, Многоголосый (HDRezka Studio)
Аудио3: AC3, 6 ch, 448 Kbps - РусскийРусский, Многоголосый (DuoWave)
Аудио4: AC3, 6 ch, 384 Kbps - УкраинскийУкраинский, Дублированный (iTunes)
Аудио5: AC3, 6 ch, 384 Kbps - УкраинскийУкраинский, Многоголосый (HDRezka Studio)
Аудио6: AC3, 6 ch, 640 Kbps - АнглийскийАнглийский, Оригинал
Субтитры: русские (форс., полные), украинские (форс. х2), английские (полные, SDH)

Как за пару секунд удалить ненужные аудиодорожки и субтитры (Внимание! После удаления вы не сможете поддержать раздачу)

Лог (x265 info)
x265 [info]: frame I: 2340, Avg QP:16.05 kb/s: 32973.77
x265 [info]: frame P: 45311, Avg QP:18.24 kb/s: 15367.06
x265 [info]: frame B: 169757, Avg QP:20.52 kb/s: 6968.33
x265 [info]: Weighted P-Frames: Y:2.7% UV:2.3%
x265 [info]: Weighted B-Frames: Y:2.4% UV:1.9%
x265 [info]: consecutive B-frames: 11.3% 6.4% 7.6% 28.2% 10.6% 22.0% 6.1% 5.1% 1.4% 0.8% 0.3% 0.2% 0.0% 0.0% 0.0% 0.0% 0.0%

encoded 217408 frames in 501645.10s (0.43 fps), 8998.65 kb/s, Avg QP:20.00
Медиаинфо
General
Unique ID : 310965796588288035592994639044646343383 (0xE9F1D57CA16C4CFEFD96921C7F0112D7)
Complete name : Wonder Woman 1984 (2020) [IMAX] BDRip 1080p H.265 [3xRUS_2xUKR_ENG] [RIPS-CLUB].mkv
Format : Matroska
Format version : Version 4
File size : 12.3 GiB
Duration : 2 h 31 min
Overall bit rate : 11.7 Mb/s
Movie name : Чудо-женщина: 1984 / Диво-жінка 1984 / Wonder Woman 1984 (2020) [IMAX]
Encoded date : UTC 2021-04-27 14:25:44
Writing application : mkvmerge v20.0.0 ('I Am The Sun') 64-bit
Writing library : libebml v1.3.5 + libmatroska v1.4.8
Cover : Yes
Attachments : Cover.jpg

Video
ID : 1
Format : HEVC
Format/Info : High Efficiency Video Coding
Format profile : Main 10@L4.1@High
Codec ID : V_MPEGH/ISO/HEVC
Duration : 2 h 31 min
Bit rate : 8 999 kb/s
Width : 1 920 pixels
Height : 1 016 pixels
Display aspect ratio : 1.890
Frame rate mode : Constant
Frame rate : 23.976 (24000/1001) FPS
Color space : YUV
Chroma subsampling : 4:2:0
Bit depth : 10 bits
Bits/(Pixel*Frame) : 0.192
Stream size : 9.50 GiB (77%)
Title : Чудо-женщина: 1984 / Диво-жінка 1984 / Wonder Woman 1984 (2020) [IMAX]
Writing library : x265 3.5+1-ce882936d:[Windows][GCC 10.2.0][64 bit] 10bit
Encoding settings : cpuid=1111039 / frame-threads=3 / numa-pools=12 / wpp / no-pmode / no-pme / no-psnr / no-ssim / log-level=2 / input-csp=1 / input-res=1920x1016 / interlace=0 / total-frames=217408 / level-idc=41 / high-tier=1 / uhd-bd=0 / ref=5 / no-allow-non-conformance / no-repeat-headers / annexb / no-aud / no-hrd / info / hash=0 / no-temporal-layers / open-gop / min-keyint=23 / keyint=240 / gop-lookahead=0 / bframes=16 / b-adapt=2 / b-pyramid / bframe-bias=0 / rc-lookahead=60 / lookahead-slices=4 / scenecut=40 / hist-scenecut=0 / radl=0 / no-splice / no-intra-refresh / ctu=32 / min-cu-size=8 / rect / amp / max-tu-size=32 / tu-inter-depth=4 / tu-intra-depth=4 / limit-tu=1 / rdoq-level=2 / dynamic-rd=0.00 / no-ssim-rd / signhide / no-tskip / nr-intra=0 / nr-inter=0 / no-constrained-intra / no-strong-intra-smoothing / max-merge=5 / limit-refs=2 / limit-modes / me=3 / subme=7 / merange=57 / temporal-mvp / no-frame-dup / no-hme / weightp / weightb / no-analyze-src-pics / deblock=-3:-3 / no-sao / no-sao-non-deblock / rd=6 / selective-sao=0 / no-early-skip / no-rskip / no-fast-intra / no-tskip-fast / no-cu-lossless / no-b-intra / no-splitrd-skip / rdpenalty=0 / psy-rd=2.00 / psy-rdoq=1.00 / no-rd-refine / no-lossless / cbqpoffs=0 / crqpoffs=0 / rc=crf / crf=20.0 / qcomp=0.70 / qpstep=4 / stats-write=0 / stats-read=0 / vbv-maxrate=50000 / vbv-bufsize=50000 / vbv-init=0.9 / min-vbv-fullness=50.0 / max-vbv-fullness=80.0 / crf-max=0.0 / crf-min=0.0 / ipratio=1.40 / pbratio=1.30 / aq-mode=1 / aq-strength=1.00 / no-cutree / zone-count=0 / no-strict-cbr / qg-size=32 / no-rc-grain / qpmax=69 / qpmin=0 / no-const-vbv / sar=1 / overscan=0 / videoformat=5 / range=0 / colorprim=2 / transfer=2 / colormatrix=2 / chromaloc=0 / display-window=0 / cll=0,0 / min-luma=0 / max-luma=1023 / log2-max-poc-lsb=8 / vui-timing-info / vui-hrd-info / slices=1 / no-opt-qp-pps / no-opt-ref-list-length-pps / no-multi-pass-opt-rps / scenecut-bias=0.05 / hist-threshold=0.03 / no-opt-cu-delta-qp / no-aq-motion / no-hdr10 / no-hdr10-opt / no-dhdr10-opt / no-idr-recovery-sei / analysis-reuse-level=0 / analysis-save-reuse-level=0 / analysis-load-reuse-level=0 / scale-factor=0 / refine-intra=0 / refine-inter=0 / refine-mv=1 / refine-ctu-distortion=0 / no-limit-sao / ctu-info=0 / no-lowpass-dct / refine-analysis-type=0 / copy-pic=1 / max-ausize-factor=1.0 / no-dynamic-refine / no-single-sei / no-hevc-aq / no-svt / no-field / qp-adaptation-range=1.00 / scenecut-aware-qp=0conformance-window-offsets / right=0 / bottom=0 / decoder-max-rate=0 / no-vbv-live-multi-pass
Language : English
Default : Yes
Forced : Yes

Audio #1
ID : 2
Format : AC-3
Format/Info : Audio Coding 3
Commercial name : Dolby Digital
Codec ID : A_AC3
Duration : 2 h 31 min
Bit rate mode : Constant
Bit rate : 384 kb/s
Channel(s) : 6 channels
Channel layout : L R C LFE Ls Rs
Sampling rate : 48.0 kHz
Frame rate : 31.250 FPS (1536 SPF)
Compression mode : Lossy
Stream size : 415 MiB (3%)
Title : AC-3 / 5.1 Ch / 384 kbps / DUB / iTunes
Language : Russian
Service kind : Complete Main
Default : Yes
Forced : Yes

Audio #2
ID : 3
Format : AC-3
Format/Info : Audio Coding 3
Commercial name : Dolby Digital
Codec ID : A_AC3
Duration : 2 h 31 min
Bit rate mode : Constant
Bit rate : 448 kb/s
Channel(s) : 6 channels
Channel layout : L R C LFE Ls Rs
Sampling rate : 48.0 kHz
Frame rate : 31.250 FPS (1536 SPF)
Compression mode : Lossy
Stream size : 484 MiB (4%)
Title : AC-3 / 5.1 Ch / 448 kbps / MVO / HDRezka Studio
Language : Russian
Service kind : Complete Main
Default : No
Forced : No

Audio #3
ID : 4
Format : AC-3
Format/Info : Audio Coding 3
Commercial name : Dolby Digital
Codec ID : A_AC3
Duration : 2 h 31 min
Bit rate mode : Constant
Bit rate : 448 kb/s
Channel(s) : 6 channels
Channel layout : L R C LFE Ls Rs
Sampling rate : 48.0 kHz
Frame rate : 31.250 FPS (1536 SPF)
Compression mode : Lossy
Stream size : 484 MiB (4%)
Title : AC-3 / 5.1 Ch / 448 kbps / MVO / DuoWave
Language : Russian
Service kind : Complete Main
Default : No
Forced : No

Audio #4
ID : 5
Format : AC-3
Format/Info : Audio Coding 3
Commercial name : Dolby Digital
Codec ID : A_AC3
Duration : 2 h 31 min
Bit rate mode : Constant
Bit rate : 384 kb/s
Channel(s) : 6 channels
Channel layout : L R C LFE Ls Rs
Sampling rate : 48.0 kHz
Frame rate : 31.250 FPS (1536 SPF)
Compression mode : Lossy
Stream size : 415 MiB (3%)
Title : AC-3 / 5.1 Ch / 384 kbps / MVO / iTunes
Language : Ukrainian
Service kind : Complete Main
Default : No
Forced : No

Audio #5
ID : 6
Format : AC-3
Format/Info : Audio Coding 3
Commercial name : Dolby Digital
Codec ID : A_AC3
Duration : 2 h 31 min
Bit rate mode : Constant
Bit rate : 384 kb/s
Channel(s) : 6 channels
Channel layout : L R C LFE Ls Rs
Sampling rate : 48.0 kHz
Frame rate : 31.250 FPS (1536 SPF)
Compression mode : Lossy
Stream size : 415 MiB (3%)
Title : AC-3 / 5.1 Ch / 384 kbps / MVO / HDRezka Studio
Language : Ukrainian
Service kind : Complete Main
Default : No
Forced : No

Audio #6
ID : 7
Format : AC-3
Format/Info : Audio Coding 3
Commercial name : Dolby Digital
Codec ID : A_AC3
Duration : 2 h 31 min
Bit rate mode : Constant
Bit rate : 640 kb/s
Channel(s) : 6 channels
Channel layout : L R C LFE Ls Rs
Sampling rate : 48.0 kHz
Frame rate : 31.250 FPS (1536 SPF)
Compression mode : Lossy
Stream size : 692 MiB (5%)
Title : AC-3 / 5.1 Ch / 640 kbps / Original
Language : English
Service kind : Complete Main
Default : No
Forced : No

Text #1
ID : 8
Format : UTF-8
Codec ID : S_TEXT/UTF8
Codec ID/Info : UTF-8 Plain Text
Duration : 2 h 15 min
Bit rate : 1 b/s
Count of elements : 42
Stream size : 1.91 KiB (0%)
Title : Forced
Language : Russian
Default : Yes
Forced : Yes

Text #2
ID : 9
Format : UTF-8
Codec ID : S_TEXT/UTF8
Codec ID/Info : UTF-8 Plain Text
Duration : 2 h 26 min
Bit rate : 79 b/s
Count of elements : 1841
Stream size : 85.5 KiB (0%)
Title : Full (FOCS)
Language : Russian
Default : No
Forced : No

Text #3
ID : 10
Format : UTF-8
Codec ID : S_TEXT/UTF8
Codec ID/Info : UTF-8 Plain Text
Duration : 2 h 15 min
Bit rate : 1 b/s
Count of elements : 34
Stream size : 1.66 KiB (0%)
Title : Forced
Language : Ukrainian
Default : No
Forced : No

Text #4
ID : 11
Format : UTF-8
Codec ID : S_TEXT/UTF8
Codec ID/Info : UTF-8 Plain Text
Duration : 2 h 25 min
Bit rate : 1 b/s
Count of elements : 45
Stream size : 1.92 KiB (0%)
Title : Forced (HDRezka)
Language : Ukrainian
Default : No
Forced : No

Text #5
ID : 12
Format : UTF-8
Codec ID : S_TEXT/UTF8
Codec ID/Info : UTF-8 Plain Text
Duration : 2 h 26 min
Bit rate : 46 b/s
Count of elements : 1862
Stream size : 50.2 KiB (0%)
Title : Full
Language : English
Default : No
Forced : No

Text #6
ID : 13
Format : UTF-8
Codec ID : S_TEXT/UTF8
Codec ID/Info : UTF-8 Plain Text
Duration : 2 h 26 min
Bit rate : 55 b/s
Count of elements : 2175
Stream size : 59.6 KiB (0%)
Title : SDH
Language : English
Default : No
Forced : No

Menu
00:00:00.000 : :Chapter 1
00:03:17.071 : :Chapter 2
00:11:18.386 : :Chapter 3
00:19:52.983 : :Chapter 4
00:29:11.124 : :Chapter 5
00:35:24.831 : :Chapter 6
00:41:06.881 : :Chapter 7
00:50:24.021 : :Chapter 8
00:57:08.550 : :Chapter 9
01:06:54.093 : :Chapter 10
01:16:48.896 : :Chapter 11
01:20:01.046 : :Chapter 12
01:28:58.291 : :Chapter 13
01:37:31.053 : :Chapter 14
01:47:00.038 : :Chapter 15
01:54:54.512 : :Chapter 16
02:00:31.015 : :Chapter 17
02:05:29.146 : :Chapter 18
02:11:21.748 : :Chapter 19
02:20:21.913 : :Chapter 20
02:25:35.518 : :Chapter 21
Загрузка...Cкриншот1 Чудо-женщина: 1984 / Wonder Woman 1984 (2020) [IMAX Edition, iTunes] BDRip 1080p [HEVC] 10 bit от -Star-Lord- (RG RIPS CLUB)Загрузка...Cкриншот2 Чудо-женщина: 1984 / Wonder Woman 1984 (2020) [IMAX Edition, iTunes] BDRip 1080p [HEVC] 10 bit от -Star-Lord- (RG RIPS CLUB)Загрузка...Cкриншот3 Чудо-женщина: 1984 / Wonder Woman 1984 (2020) [IMAX Edition, iTunes] BDRip 1080p [HEVC] 10 bit от -Star-Lord- (RG RIPS CLUB)Загрузка...Cкриншот4 Чудо-женщина: 1984 / Wonder Woman 1984 (2020) [IMAX Edition, iTunes] BDRip 1080p [HEVC] 10 bit от -Star-Lord- (RG RIPS CLUB)
Релиз-группа: RIPS CLUB
Сэмпл Торрент🧲 Магнет

Рейтинги КП и IMDB, кнопки "Позвать в чате" и "Спасибо", а также мультитрекерная статистика доступны только зарегистрированным/авторизованным пользователям!

Файлы: 1
  • Wonder Woman 1984 (2020) [IMAX] BDRip 1080p H.265 [3xRUS_2xUKR_ENG] [RIPS-CLUB].mkv   12.34 ГБ
Поблагодарили: 11
alexyak, Brooklyn, donadar, Elico1977, IRIT, ko1ob, makss333, Mr. Fox, Nuclear70, Rezident, VIKING
StarLord
053319212.34 ГБ

Добавление нового комментария

Добавление комментариев доступно только зарегистрированным/авторизованным пользователям.