💬 Мини-чат

OldGamerну и акустические излучатели собрать хорошие, типа Penaudio Legato Signature или похожие, тут надо тщательно собирать систему для прослушивания
OldGamerне помешает ещё посетить отоларинголога для промывки слухового аппарата от серных пробок специализированным сертифицированным раствором, это (промывка) имеет немаловажное значение
OldGamer😆🤐🤐
OldGamerи всё же лучше hi-end, с подключением кабелями типа Analysis-Plus Oval 9 из бескислородной меди и с их предварительным прогревом системой типа Nordost Vidar, иначе всё теряет смысл
XuMuKManson_Fan, не надо hi-end акустики, достаточно hi-fi. "Кристольность" на высоких частотах другая, в DTS кажется более "живым" звук. Но самая большая разница, когда сравниваешь АС3 с каким-нибудь DTS-HD MA
IRITРаздайте, пожалуйста, Байки из склепа: Демон ночи / Tales from the Crypt: Demon Knight (1995) BDRip 1080p [HEVC] 10 bit от druidblack
OldGamerManson_Fan, у меня нет hi-end акустики, поэтому не слушал, не знаю, может и есть разница. За других говорить не буду. В любом случае, продвинутым слухачам будет несложно найти, скачать и прикрепить дорожки требуемого им качества.
mafo2Manson_Fan, не все телевизоры поддерживают DTS. например, мой через встроенный плеер его не воспроизводит. можно конечно смотреть через ПК, но порой хочется и через ТВ.
Manson_FanOldGamer, "Скажите зачем релизёры звук DTS 768 kbps переделывают в AC3 640 kbps" Интересно, а разницу в качестве в фильмах кому то удавалось услышать?😕 мне вот нет
Manson_Fanникто еще не сравнивал HEVC и новый AV1?
IRITРаздайте, пожалуйста, Маньяк-полицейский 3: Знак молчания / Maniac Cop 3: Badge of Silence (1993) BDRip 1080p [HEVC] 10 bit от HANNIBAL
Spartanec1308С Днём Великой Победы!
BrooklynВсех с праздником! С Днем Великой Победы! Ура-Ура-Урааааааа
BrooklynADVOKAT69, Спасибо большое!
ADVOKAT69Операция «Ы» и другие приключения Шурика (1965) раздаю
mafo2С Днем Победы!
joker63Поздравляю всех с Днем Победы!
ADVOKAT69Admin, Спасибо деду за победу!Тебе за поздравление!
AdminADVOKAT69, Дедам спасибо.
ADVOKAT69Admin, спасибо большое!✋
  • joker63
  • grudich
Отправка сообщений доступна только зарегистрированным/авторизованным пользователям.
Онлайн (за 10 мин.): 2

Голубая бездна / Le grand bleu (1988) [Режиссерская версия] BDRip 1080p [HEVC] 10 bit от Spartanec1308

HEVC
10 bit
Обложка Голубая бездна / Le grand bleu (1988) [Режиссерская версия] BDRip 1080p [HEVC] 10 bit от Spartanec1308 Год: 1988
Страна: Франция, Италия, США
Студия: Gaumont, Les Films du Loup
Жанр: Драма, Приключения, Спорт
Продолжительность: 02:48:20

Режиссер: Люк Бессон
В ролях: Розанна Аркетт, Жан-Марк Барр, Жан Рено, Пол Шенар, Серджио Кастеллитто, Жан Буиз, Марк Дюре, Гриффин Данн, Валентина Варгас, Кимберли Бек, Патрик Фонтана, Алессандра Ваццолер, Джеффри Кэри, Брюс Гуэрра-Бертело, Грегори Форстнер, Андреас Вутсинас, Пьер-Ален Де Гарригес, Клод Робен, Клод Бессон, Марика Жеводен, Жан Руийе, Пьер Семмлер, Жак Леви, Эрик До, Андре Жерме, Рональд Теухи, Розарио Кампезе, Константин Александров, Франко Диоджене, Тредесса Далтон, Пьер-Ален де Гарригю, Пол Херман, Николя Мальто, Марк Планшон, Люк Бессон, Кристиан Газио, Валентина Кастеллани

Описание: Два друга — Энцо Молинари и Жак Майоль — вместе росли на одном из греческих островов. Отец Жака, ныряльщик, погиб при сборе устриц из-за неисправности водолазного оборудования. Проходят годы, мальчики уже выросли и снова встречаются после нескольких лет разлуки. Оба стали ныряльщиками на глубину без воздуха, и соревнование на чемпионатах мира практически ведется только между ними. Симпатичная работница страхового агентства Джоан, влюбляется в Жака с первого взгляда и едет за ним из Перу в Сицилию, где и становится свидетельницей начала опасного поединка между друзьями. От Жака она уже ждет ребенка. А друзья погружаются все на большую и большую глубину. Пройдена отметка в 120 метров. Для Жака и Энцо голубая бездна лучше, чем жизнь на земле...


Видео: 1920x816, 8154 Кбит/сек, 0.217 бит/(Пиксели*Кадры), 23,976 кадр/сек, HEVC (Main10@L.4.1@High) 10 бит
Аудио1: AC3, 6 ch, 448 Kbps - РусскийРусский, Многоголосый (R5)
Аудио2: AC3, 6 ch, 448 Kbps - АнглийскийАнглийский, Оригинал
Субтитры: Русские , английские

Как за пару секунд удалить ненужные аудиодорожки и субтитры (Внимание! После удаления вы не сможете поддержать раздачу)

Лог (x265 info)
x265 [info]: frame I: 1805, Avg QP:17.90 kb/s: 26491.58
x265 [info]: frame P: 51655, Avg QP:19.41 kb/s: 17472.98
x265 [info]: frame B: 188704, Avg QP:21.54 kb/s: 5427.13
x265 [info]: Weighted P-Frames: Y:11.3% UV:7.4%
x265 [info]: Weighted B-Frames: Y:7.3% UV:4.6%
x265 [info]: consecutive B-frames: 4.0% 1.9% 4.3% 50.7% 8.9% 27.9% 1.3% 0.8% 0.1% 0.1% 0.1%

encoded 242164 frames in 276485.74s (0.88 fps), 8153.59 kb/s, Avg QP:21.06
Медиаинфо
Формат : Matroska
Версия формата : Version 4
Размер файла : 10,6 Гбайт
Продолжительность : 2 ч. 48 м.
Общий поток : 9053 Кбит/сек
Название фильма : by Spartanec
Дата кодирования : UTC 2021-04-24 18:03:16
Программа кодирования : mkvmerge v7.0.0 ('Where We Going') 64bit built on Jun 9 2014 15:16:27
Библиотека кодирования : libebml v1.3.0 + libmatroska v1.4.1
Обложка : Yes
Attachments : cover.jpg

Видео
Идентификатор : 1
Формат : HEVC
Формат/Информация : High Efficiency Video Coding
Профиль формата : Main 10@L4.1@High
Идентификатор кодека : V_MPEGH/ISO/HEVC
Продолжительность : 2 ч. 48 м.
Битрейт : 8154 Кбит/сек
Ширина : 1920 пикселей
Высота : 816 пикселей
Соотношение сторон : 2,35:1
Режим частоты кадров : Постоянный
Частота кадров : 23,976 (23976/1000) кадра/сек
Частота кадров в оригинале : 23,976 (24000/1001) кадра/сек
Цветовое пространство : YUV
Субдискретизация насыщенности : 4:2:0
Битовая глубина : 10 бит
Бит/(Пиксели*Кадры) : 0.217
Размер потока : 9,59 Гбайт (90%)
Заголовок : Spartanec
Библиотека кодирования : x265 3.5+1-ce882936d:[Windows][GCC 10.2.0][64 bit] 10bit
Настройки программы : cpuid=1111039 / frame-threads=4 / numa-pools=16 / wpp / no-pmode / no-pme / no-psnr / no-ssim / log-level=2 / input-csp=1 / input-res=1920x816 / interlace=0 / total-frames=242164 / level-idc=41 / high-tier=1 / uhd-bd=0 / ref=5 / no-allow-non-conformance / no-repeat-headers / annexb / no-aud / no-hrd / info / hash=0 / no-temporal-layers / open-gop / min-keyint=23 / keyint=240 / gop-lookahead=0 / bframes=10 / b-adapt=2 / b-pyramid / bframe-bias=0 / rc-lookahead=60 / lookahead-slices=1 / scenecut=40 / hist-scenecut=0 / radl=0 / no-splice / no-intra-refresh / ctu=32 / min-cu-size=8 / rect / amp / max-tu-size=32 / tu-inter-depth=4 / tu-intra-depth=4 / limit-tu=1 / rdoq-level=1 / dynamic-rd=0.00 / no-ssim-rd / signhide / no-tskip / nr-intra=0 / nr-inter=0 / no-constrained-intra / no-strong-intra-smoothing / max-merge=5 / limit-refs=0 / no-limit-modes / me=3 / subme=7 / merange=57 / temporal-mvp / no-frame-dup / no-hme / weightp / weightb / no-analyze-src-pics / deblock=-2:-2 / no-sao / no-sao-non-deblock / rd=6 / selective-sao=0 / no-early-skip / no-rskip / no-fast-intra / no-tskip-fast / no-cu-lossless / b-intra / no-splitrd-skip / rdpenalty=0 / psy-rd=2.00 / psy-rdoq=1.00 / no-rd-refine / no-lossless / cbqpoffs=0 / crqpoffs=0 / rc=crf / crf=20.0 / qcomp=0.70 / qpstep=4 / stats-write=0 / stats-read=0 / vbv-maxrate=50000 / vbv-bufsize=50000 / vbv-init=0.9 / min-vbv-fullness=50.0 / max-vbv-fullness=80.0 / crf-max=0.0 / crf-min=0.0 / ipratio=1.40 / pbratio=1.30 / aq-mode=2 / aq-strength=1.00 / no-cutree / zone-count=0 / no-strict-cbr / qg-size=32 / no-rc-grain / qpmax=69 / qpmin=0 / no-const-vbv / sar=1 / overscan=0 / videoformat=5 / range=0 / colorprim=1 / transfer=1 / colormatrix=1 / chromaloc=0 / display-window=0 / cll=0,0 / min-luma=0 / max-luma=1023 / log2-max-poc-lsb=8 / vui-timing-info / vui-hrd-info / slices=1 / no-opt-qp-pps / no-opt-ref-list-length-pps / no-multi-pass-opt-rps / scenecut-bias=0.05 / hist-threshold=0.03 / no-opt-cu-delta-qp / no-aq-motion / no-hdr10 / no-hdr10-opt / no-dhdr10-opt / no-idr-recovery-sei / analysis-reuse-level=0 / analysis-save-reuse-level=0 / analysis-load-reuse-level=0 / scale-factor=0 / refine-intra=0 / refine-inter=0 / refine-mv=0 / refine-ctu-distortion=0 / no-limit-sao / ctu-info=0 / no-lowpass-dct / refine-analysis-type=0 / copy-pic=1 / max-ausize-factor=1.0 / no-dynamic-refine / no-single-sei / no-hevc-aq / no-svt / no-field / qp-adaptation-range=1.00 / scenecut-aware-qp=0conformance-window-offsets / right=0 / bottom=0 / decoder-max-rate=0 / no-vbv-live-multi-pass
Default : Да
Forced : Нет
Цветовой диапазон : Limited
Основные цвета : BT.709
Характеристики трансфера : BT.709
Коэффициенты матрицы : BT.709

Аудио #1
Идентификатор : 2
Формат : AC-3
Формат/Информация : Audio Coding 3
Коммерческое название : Dolby Digital
Идентификатор кодека : A_AC3
Продолжительность : 2 ч. 48 м.
Вид битрейта : Постоянный
Битрейт : 448 Кбит/сек
Каналы : 6 каналов
ChannelLayout : L R C LFE Ls Rs
Частота : 48,0 КГц
Частота кадров : 31,250 кадров/сек (1536 SPF)
Битовая глубина : 16 бит
Метод сжатия : С потерями
Размер потока : 539 Мбайт (5%)
Заголовок : Профессиональный многоголосый закадровый
ServiceKind/ : Complete Main
Default : Да
Forced : Нет

Аудио #2
Идентификатор : 4
Формат : AC-3
Формат/Информация : Audio Coding 3
Коммерческое название : Dolby Digital
Идентификатор кодека : A_AC3
Продолжительность : 2 ч. 48 м.
Вид битрейта : Постоянный
Битрейт : 448 Кбит/сек
Каналы : 6 каналов
ChannelLayout : L R C LFE Ls Rs
Частота : 48,0 КГц
Частота кадров : 31,250 кадров/сек (1536 SPF)
Битовая глубина : 16 бит
Метод сжатия : С потерями
Размер потока : 539 Мбайт (5%)
Заголовок : Оригинал
ServiceKind/ : Complete Main
Default : Нет
Forced : Нет

Текст #1
Идентификатор : 3
Формат : UTF-8
Идентификатор кодека : S_TEXT/UTF8
Идентификатор кодека/Информация : UTF-8 Plain Text
Продолжительность : 2 ч. 39 м.
Битрейт : 44 бит/сек
ElementCount : 1002
Размер потока : 52,1 Кбайт (0%)
Заголовок : Русские
Default : Да
Forced : Нет

Текст #2
Идентификатор : 5
Формат : UTF-8
Идентификатор кодека : S_TEXT/UTF8
Идентификатор кодека/Информация : UTF-8 Plain Text
Продолжительность : 1 ч. 13 м.
Битрейт : 32 бит/сек
ElementCount : 556
Размер потока : 17,2 Кбайт (0%)
Default : Нет
Forced : Нет

Меню
00:00:00.000 : en:00:00:00.000
00:05:16.524 : en:00:05:16.524
00:14:49.471 : en:00:14:49.471
00:23:37.207 : en:00:23:37.207
00:34:32.902 : en:00:34:32.902
00:43:39.114 : en:00:43:39.114
00:50:41.204 : en:00:50:41.204
00:59:57.760 : en:00:59:57.760
01:08:49.542 : en:01:08:49.542
01:15:07.252 : en:01:15:07.252
01:25:28.081 : en:01:25:28.081
01:30:30.550 : en:01:30:30.550
01:39:59.326 : en:01:39:59.326
01:51:46.533 : en:01:51:46.533
02:00:18.877 : en:02:00:18.877
02:07:07.453 : en:02:07:07.453
02:16:36.396 : en:02:16:36.396
02:26:16.601 : en:02:26:16.601
02:32:47.449 : en:02:32:47.449
02:43:10.862 : en:02:43:10.862
Загрузка...Cкриншот1 Голубая бездна / Le grand bleu (1988) [Режиссерская версия] BDRip 1080p [HEVC] 10 bit от Spartanec1308Загрузка...Cкриншот2 Голубая бездна / Le grand bleu (1988) [Режиссерская версия] BDRip 1080p [HEVC] 10 bit от Spartanec1308Загрузка...Cкриншот3 Голубая бездна / Le grand bleu (1988) [Режиссерская версия] BDRip 1080p [HEVC] 10 bit от Spartanec1308Загрузка...Cкриншот4 Голубая бездна / Le grand bleu (1988) [Режиссерская версия] BDRip 1080p [HEVC] 10 bit от Spartanec1308
Сэмпл Торрент🧲 Магнет

Рейтинги КП и IMDB, кнопки "Позвать в чате" и "Спасибо", а также мультитрекерная статистика доступны только зарегистрированным/авторизованным пользователям!

Файлы: 1
  • Голубая бездна (1988) BDRip 1080p [HEVC] 10 bit by Spartanec.mkv   10.64 ГБ
Поблагодарили: 7
and50, animen67, D16T, makss333, Nuclear70, Rexfire, Temperest
Spartanec1308
0202010.64 ГБ

Добавление нового комментария

Добавление комментариев доступно только зарегистрированным/авторизованным пользователям.