💬 Мини-чат

Для тех, кому интересен процесс переделки сайта - https://rips.club/changelog.html (обновлен 20.04.2024)
  • justmkr
Отправка сообщений доступна только зарегистрированным/авторизованным пользователям.
Онлайн (за 10 мин.): 1

День Святого Валентина / Valentine (2001) BDRip 1080p [HEVC] 10 bit от OldGamer (RG RIPS CLUB)

HEVC
10 bit
Обложка День Святого Валентина / Valentine (2001) BDRip 1080p [HEVC] 10 bit от OldGamer (RG RIPS CLUB) Год: 2001
Страна: США
Студия: Cupid Productions, NPV Entertainment, Village Roadshow Pictures, Warner Bros.
Жанр: Ужасы, Триллер, Детектив
Продолжительность: 01:36:05

Режиссер: Джэми Блэнкс
В ролях: Дениз Ричардс, Дэвид Бореаназ, Марли Шелтон, Джессика Кэпшоу, Джессика Коффил, Кэтрин Хайгл, Хеди Барресс, Фульвио Чечере, Дэниэл Косгроув, Джонни Витуорт

Описание: Помнишь паренька, над которым все издевались в День Святого Валентина? Он тебя не забыл. Месть сладка, как конфетка ко Дню всех влюбленных. Во всяком случае, так думает убийца в маске Купидона. Давным-давно, в школьной юности, компания красивых подружек находила забавным поиздеваться над прыщавым неудачником. Прошли годы, он вырос. И ничего не забыл.


Исходник: Blu-Ray Remux 1080p
Видео: 1920x818 (2.35:1), 6060 Кбит/сек, HEVC (Main10@L.4.1@High)
Аудио1: AC3, 6 ch, 384 Kbps - РусскийРусский, Дублированный
Аудио2: AC3, 6 ch, 640 Kbps - EnglishEnglish, Original
Субтитры: Русские полные (SRT), English full (SRT)

Как за пару секунд удалить ненужные аудиодорожки и субтитры (Внимание! После удаления вы не сможете поддержать раздачу)

Лог (x265 info)
x265 [info]: frame I: 581, Avg QP:16.41 kb/s: 15677.05
x265 [info]: frame P: 23782, Avg QP:17.66 kb/s: 12341.95
x265 [info]: frame B: 113859, Avg QP:19.52 kb/s: 4697.29
x265 [info]: Weighted P-Frames: Y:7.5% UV:5.5%
x265 [info]: Weighted B-Frames: Y:6.1% UV:3.4%
x265 [info]: consecutive B-frames: 1.4% 1.7% 3.1% 22.8% 10.3% 38.0% 7.7% 9.8% 3.0% 1.2% 0.3% 0.3% 0.1% 0.2%
x265 [info]: encoded 138222 frames in 80217.20s (1.72 fps), 6058.75 kb/s, Avg QP:19.18
Медиаинфо
Общее
Уникальный идентификатор : 27858053889465011073139807358785977428 (0x14F54419BE36EC487B98F99EFAD07C54)
Полное имя : \\.\День.Святого.Валентина.Valentine.2001.BDRip-HEVC.1080p.mkv
Формат : Matroska
Версия формата : Version 4
Размер файла : 4,76 Гбайт
Продолжительность : 1 ч. 36 м.
Общий поток : 7 086 Кбит/сек
Название фильма : День.Святого.Валентина.Valentine.2001.BDRip-HEVC.1080p
Дата кодирования : UTC 2021-04-26 13:40:57
Программа кодирования : mkvmerge v56.1.0 ('My Friend') 64-bit
Библиотека кодирования : libebml v1.4.2 + libmatroska v1.6.4

Видео
Идентификатор : 1
Формат : HEVC
Формат/Информация : High Efficiency Video Coding
Профиль формата : Main 10@L4.1@High
Идентификатор кодека : V_MPEGH/ISO/HEVC
Продолжительность : 1 ч. 36 м.
Битрейт : 6 060 Кбит/сек
Ширина : 1 920 пикселей
Высота : 818 пикселей
Соотношение сторон : 2,35:1
Режим частоты кадров : Постоянный
Частота кадров : 23,976 (24000/1001) кадра/сек
Цветовое пространство : YUV
Субдискретизация насыщенности : 4:2:0
Битовая глубина : 10 бит
Бит/(Пиксели*Кадры) : 0.161
Размер потока : 4,07 Гбайт (86%)
Заголовок : Valentine / Rip by OldGamer
Библиотека кодирования : x265 3.5+1-ce882936d:[Windows][GCC 10.2.0][64 bit] 10bit
Настройки программы : cpuid=1111039 / frame-threads=3 / numa-pools=8 / wpp / no-pmode / no-pme / no-psnr / no-ssim / log-level=2 / input-csp=1 / input-res=1920x818 / interlace=0 / total-frames=138222 / level-idc=41 / high-tier=1 / uhd-bd=0 / ref=5 / no-allow-non-conformance / no-repeat-headers / annexb / no-aud / no-hrd / info / hash=0 / no-temporal-layers / open-gop / min-keyint=23 / keyint=240 / gop-lookahead=0 / bframes=13 / b-adapt=2 / b-pyramid / bframe-bias=0 / rc-lookahead=40 / lookahead-slices=0 / scenecut=40 / hist-scenecut=0 / radl=0 / no-splice / no-intra-refresh / ctu=32 / min-cu-size=8 / rect / amp / max-tu-size=32 / tu-inter-depth=4 / tu-intra-depth=4 / limit-tu=1 / rdoq-level=2 / dynamic-rd=0.00 / no-ssim-rd / signhide / no-tskip / nr-intra=0 / nr-inter=0 / no-constrained-intra / no-strong-intra-smoothing / max-merge=5 / limit-refs=3 / no-limit-modes / me=3 / subme=7 / merange=57 / temporal-mvp / no-frame-dup / no-hme / weightp / weightb / no-analyze-src-pics / deblock=-3:-3 / no-sao / no-sao-non-deblock / rd=6 / selective-sao=0 / no-early-skip / rskip / no-fast-intra / no-tskip-fast / no-cu-lossless / b-intra / no-splitrd-skip / rdpenalty=0 / psy-rd=2.00 / psy-rdoq=1.00 / no-rd-refine / no-lossless / cbqpoffs=0 / crqpoffs=0 / rc=crf / crf=19.6 / qcomp=0.60 / qpstep=4 / stats-write=0 / stats-read=0 / vbv-maxrate=50000 / vbv-bufsize=50000 / vbv-init=0.9 / min-vbv-fullness=50.0 / max-vbv-fullness=80.0 / crf-max=0.0 / crf-min=0.0 / ipratio=1.40 / pbratio=1.30 / aq-mode=1 / aq-strength=1.00 / no-cutree / zone-count=1 / zones: / start-frame=133782 / end-frame=138222 / qp=36 / no-strict-cbr / qg-size=32 / no-rc-grain / qpmax=69 / qpmin=0 / no-const-vbv / sar=1 / overscan=0 / videoformat=5 / range=0 / colorprim=2 / transfer=2 / colormatrix=2 / chromaloc=0 / display-window=0 / cll=0,0 / min-luma=0 / max-luma=1023 / log2-max-poc-lsb=8 / vui-timing-info / vui-hrd-info / slices=1 / no-opt-qp-pps / no-opt-ref-list-length-pps / no-multi-pass-opt-rps / scenecut-bias=0.00 / hist-threshold=0.03 / no-opt-cu-delta-qp / no-aq-motion / no-hdr10 / no-hdr10-opt / no-dhdr10-opt / no-idr-recovery-sei / analysis-reuse-level=0 / analysis-save-reuse-level=0 / analysis-load-reuse-level=0 / scale-factor=0 / refine-intra=0 / refine-inter=0 / refine-mv=1 / refine-ctu-distortion=0 / no-limit-sao / ctu-info=0 / no-lowpass-dct / refine-analysis-type=0 / copy-pic=1 / max-ausize-factor=1.0 / no-dynamic-refine / no-single-sei / no-hevc-aq / no-svt / no-field / qp-adaptation-range=1.00 / scenecut-aware-qp=0conformance-window-offsets / right=0 / bottom=0 / decoder-max-rate=0 / no-vbv-live-multi-pass
Язык : English
Default : Да
Forced : Нет

Аудио #1
Идентификатор : 2
Формат : AC-3
Формат/Информация : Audio Coding 3
Коммерческое название : Dolby Digital
Идентификатор кодека : A_AC3
Продолжительность : 1 ч. 36 м.
Вид битрейта : Постоянный
Битрейт : 384 Кбит/сек
Каналы : 6 каналов
Channel layout : L R C LFE Ls Rs
Частота : 48,0 КГц
Частота кадров : 31,250 кадров/сек (1536 SPF)
Метод сжатия : С потерями
Размер потока : 264 Мбайт (5%)
Заголовок : DUB
Язык : Russian
Service kind : Complete Main
Default : Да
Forced : Нет

Аудио #2
Идентификатор : 3
Формат : AC-3
Формат/Информация : Audio Coding 3
Коммерческое название : Dolby Digital
Идентификатор кодека : A_AC3
Продолжительность : 1 ч. 36 м.
Вид битрейта : Постоянный
Битрейт : 640 Кбит/сек
Каналы : 6 каналов
Channel layout : L R C LFE Ls Rs
Частота : 48,0 КГц
Частота кадров : 31,250 кадров/сек (1536 SPF)
Метод сжатия : С потерями
Размер потока : 440 Мбайт (9%)
Язык : English
Service kind : Complete Main
Default : Нет
Forced : Нет

Текст #1
Идентификатор : 4
Формат : UTF-8
Идентификатор кодека : S_TEXT/UTF8
Идентификатор кодека/Информация : UTF-8 Plain Text
Продолжительность : 1 ч. 31 м.
Битрейт : 67 бит/сек
Count of elements : 962
Размер потока : 45,3 Кбайт (0%)
Язык : Russian
Default : Нет
Forced : Нет

Текст #2
Идентификатор : 5
Формат : UTF-8
Идентификатор кодека : S_TEXT/UTF8
Идентификатор кодека/Информация : UTF-8 Plain Text
Продолжительность : 1 ч. 36 м.
Битрейт : 52 бит/сек
Count of elements : 1577
Размер потока : 36,7 Кбайт (0%)
Язык : English
Default : Нет
Forced : Нет

Меню
00:00:00.000 : 00:00:00.000
00:07:18.938 : 00:07:18.938
00:15:52.451 : 00:15:52.451
00:22:50.535 : 00:22:50.535
00:32:25.693 : 00:32:25.693
00:40:06.237 : 00:40:06.237
00:48:11.555 : 00:48:11.555
00:56:50.239 : 00:56:50.239
01:05:35.514 : 01:05:35.514
01:11:32.121 : 01:11:32.121
01:19:08.243 : 01:19:08.243
01:26:54.667 : 01:26:54.667
01:33:04.050 : 01:33:04.050
01:36:04.931 : 01:36:04.931
Загрузка...Cкриншот1 День Святого Валентина / Valentine (2001) BDRip 1080p [HEVC] 10 bit от OldGamer (RG RIPS CLUB)Загрузка...Cкриншот2 День Святого Валентина / Valentine (2001) BDRip 1080p [HEVC] 10 bit от OldGamer (RG RIPS CLUB)Загрузка...Cкриншот3 День Святого Валентина / Valentine (2001) BDRip 1080p [HEVC] 10 bit от OldGamer (RG RIPS CLUB)Загрузка...Cкриншот4 День Святого Валентина / Valentine (2001) BDRip 1080p [HEVC] 10 bit от OldGamer (RG RIPS CLUB)
Релиз-группа: RIPS CLUB
Сэмпл Торрент🧲 Магнет

Рейтинги КП и IMDB, кнопки "Позвать в чате" и "Спасибо", а также мультитрекерная статистика доступны только зарегистрированным/авторизованным пользователям!

Файлы: 1
  • День.Святого.Валентина.Valentine.2001.BDRip-HEVC.1080p.mkv   4.76 ГБ
Поблагодарили: 9
BloodyRage, donadar, IRIT, katekateva, Kilop77, Kiran, makss333, mr_nikitin, StarLord
OldGamer
0271004.76 ГБ

Добавление нового комментария

Добавление комментариев доступно только зарегистрированным/авторизованным пользователям.