💬 Мини-чат

OldGamerну и акустические излучатели собрать хорошие, типа Penaudio Legato Signature или похожие, тут надо тщательно собирать систему для прослушивания
OldGamerне помешает ещё посетить отоларинголога для промывки слухового аппарата от серных пробок специализированным сертифицированным раствором, это (промывка) имеет немаловажное значение
OldGamer😆🤐🤐
OldGamerи всё же лучше hi-end, с подключением кабелями типа Analysis-Plus Oval 9 из бескислородной меди и с их предварительным прогревом системой типа Nordost Vidar, иначе всё теряет смысл
XuMuKManson_Fan, не надо hi-end акустики, достаточно hi-fi. "Кристольность" на высоких частотах другая, в DTS кажется более "живым" звук. Но самая большая разница, когда сравниваешь АС3 с каким-нибудь DTS-HD MA
IRITРаздайте, пожалуйста, Байки из склепа: Демон ночи / Tales from the Crypt: Demon Knight (1995) BDRip 1080p [HEVC] 10 bit от druidblack
OldGamerManson_Fan, у меня нет hi-end акустики, поэтому не слушал, не знаю, может и есть разница. За других говорить не буду. В любом случае, продвинутым слухачам будет несложно найти, скачать и прикрепить дорожки требуемого им качества.
mafo2Manson_Fan, не все телевизоры поддерживают DTS. например, мой через встроенный плеер его не воспроизводит. можно конечно смотреть через ПК, но порой хочется и через ТВ.
Manson_FanOldGamer, "Скажите зачем релизёры звук DTS 768 kbps переделывают в AC3 640 kbps" Интересно, а разницу в качестве в фильмах кому то удавалось услышать?😕 мне вот нет
Manson_Fanникто еще не сравнивал HEVC и новый AV1?
IRITРаздайте, пожалуйста, Маньяк-полицейский 3: Знак молчания / Maniac Cop 3: Badge of Silence (1993) BDRip 1080p [HEVC] 10 bit от HANNIBAL
Spartanec1308С Днём Великой Победы!
BrooklynВсех с праздником! С Днем Великой Победы! Ура-Ура-Урааааааа
BrooklynADVOKAT69, Спасибо большое!
ADVOKAT69Операция «Ы» и другие приключения Шурика (1965) раздаю
mafo2С Днем Победы!
joker63Поздравляю всех с Днем Победы!
ADVOKAT69Admin, Спасибо деду за победу!Тебе за поздравление!
AdminADVOKAT69, Дедам спасибо.
ADVOKAT69Admin, спасибо большое!✋
  • Spartanec1308
  • A1eksandr1
  • TheRuselX
Отправка сообщений доступна только зарегистрированным/авторизованным пользователям.
Онлайн (за 10 мин.): 3

Железная хватка / True Grit (2010) BDRip 1080p [HEVC] 10 bit от OldGamer (RG RIPS CLUB)

HEVC
10 bit
Обложка Железная хватка / True Grit (2010) BDRip 1080p [HEVC] 10 bit от OldGamer (RG RIPS CLUB) Год: 2010
Страна: США
Студия: Mike Zoss Productions, Paramount Pictures, Scott Rudin Productions, Skydance Productions
Жанр: Драма, Вестерн, Приключения
Продолжительность: 01:50:20

Режиссер: Итан Коэн, Джоэл Коэн
В ролях: Джефф Бриджес, Хейли Стайнфелд, Мэтт Дэймон, Джош Бролин, Барри Пеппер, Дэкин Мэтьюз, Ярлат Конрой, Пол Рэй, Донал Глисон, Элизабет Марвел

Описание: В этом фильме рассказывается история 14-летней девочки, стареющего судебного пристава Рустера Когберна и ещё одного законника. Вместе они идут по следам убийцы отца девочки, которые ведут во враждебную индейскую территорию.


Исходник: Blu-Ray Remux 1080p
Видео: 1920x816 (2.35:1), 7623 Кбит/сек, HEVC (Main10@L.4.1@High)
Аудио1: AC3, 6 ch, 640 Kbps - РусскийРусский, Дублированный
Аудио2: AC3, 6 ch, 448 Kbps - РусскийРусский, Многоголосый (OzzTV)
Аудио3: AC3, 6 ch, 640 Kbps - РусскийРусский, Авторский (Андрей Гаврилов)
Аудио4: AC3, 6 ch, 640 Kbps - РусскийРусский, Авторский (Вадим Назаров)
Аудио5: AC3, 6 ch, 640 Kbps - РусскийРусский, Авторский (Юрий Сербин)
Аудио6: AC3, 6 ch, 640 Kbps - РусскийРусский, Авторский (Леонид Володарский)
Аудио7: AC3, 6 ch, 640 Kbps - РусскийРусский, Авторский (Антон Карповский)
Аудио8: AC3, 6 ch, 448 Kbps - РусскийРусский, Авторский (Михаил Чадов)
Аудио9: AC3, 6 ch, 448 Kbps - РусскийРусский, Одноголосый (SOLDLUCK)
Аудио10: AC3, 6 ch, 448 Kbps - УкраинскийУкраинский, Дублированный
Аудио11: AC3, 6 ch, 640 Kbps - EnglishEnglish, Original
Субтитры: Русские полные (SRT), English full (SRT)

Как за пару секунд удалить ненужные аудиодорожки и субтитры (Внимание! После удаления вы не сможете поддержать раздачу)

Лог (x265 info)
x265 [info]: frame I: 670, Avg QP:17.89 kb/s: 22506.54
x265 [info]: frame P: 23784, Avg QP:20.16 kb/s: 13957.52
x265 [info]: frame B: 134275, Avg QP:21.03 kb/s: 6425.87
x265 [info]: Weighted P-Frames: Y:12.2% UV:9.5%
x265 [info]: Weighted B-Frames: Y:12.5% UV:10.3%
x265 [info]: consecutive B-frames: 4.3% 2.4% 5.5% 20.3% 10.4% 19.9% 6.9% 8.7% 4.7% 3.9% 2.9% 3.3% 1.7% 1.5% 1.2% 1.2% 1.2%
x265 [info]: encoded 158729 frames in 88880.96s (1.79 fps), 7622.29 kb/s, Avg QP:20.88
Медиаинфо
Общее
Уникальный идентификатор : 209917846557219274463838781916798035537 (0x9DECB4E750951C6EBD3CE7389AE0A651)
Полное имя : \\.\Железная.хватка.True.Grit.2010.BDRip-HEVC.1080p.mkv
Формат : Matroska
Версия формата : Version 4
Размер файла : 10,7 Гбайт
Продолжительность : 1 ч. 50 м.
Общий поток : 13,9 Мбит/сек
Дата кодирования : UTC 2021-04-27 14:45:46
Программа кодирования : mkvmerge v56.1.0 ('My Friend') 64-bit
Библиотека кодирования : libebml v1.4.2 + libmatroska v1.6.4

Видео
Идентификатор : 1
Формат : HEVC
Формат/Информация : High Efficiency Video Coding
Профиль формата : Main 10@L4.1@High
Идентификатор кодека : V_MPEGH/ISO/HEVC
Продолжительность : 1 ч. 50 м.
Битрейт : 7 623 Кбит/сек
Ширина : 1 920 пикселей
Высота : 816 пикселей
Соотношение сторон : 2,35:1
Режим частоты кадров : Постоянный
Частота кадров : 23,976 (24000/1001) кадра/сек
Цветовое пространство : YUV
Субдискретизация насыщенности : 4:2:0
Битовая глубина : 10 бит
Бит/(Пиксели*Кадры) : 0.203
Размер потока : 5,88 Гбайт (55%)
Заголовок : True Grit / Rip by OldGamer
Библиотека кодирования : x265 3.5+1-ce882936d:[Windows][GCC 10.2.0][64 bit] 10bit
Настройки программы : cpuid=1111039 / frame-threads=3 / numa-pools=8 / wpp / no-pmode / no-pme / no-psnr / no-ssim / log-level=2 / input-csp=1 / input-res=1920x816 / interlace=0 / total-frames=158729 / level-idc=41 / high-tier=1 / uhd-bd=0 / ref=5 / no-allow-non-conformance / no-repeat-headers / annexb / no-aud / no-hrd / info / hash=0 / no-temporal-layers / open-gop / min-keyint=23 / keyint=240 / gop-lookahead=0 / bframes=16 / b-adapt=2 / b-pyramid / bframe-bias=0 / rc-lookahead=40 / lookahead-slices=0 / scenecut=40 / hist-scenecut=0 / radl=0 / no-splice / no-intra-refresh / ctu=32 / min-cu-size=8 / rect / amp / max-tu-size=32 / tu-inter-depth=4 / tu-intra-depth=4 / limit-tu=1 / rdoq-level=2 / dynamic-rd=0.00 / no-ssim-rd / signhide / no-tskip / nr-intra=0 / nr-inter=0 / no-constrained-intra / no-strong-intra-smoothing / max-merge=5 / limit-refs=3 / no-limit-modes / me=3 / subme=7 / merange=57 / temporal-mvp / no-frame-dup / no-hme / weightp / weightb / no-analyze-src-pics / deblock=-3:-3 / no-sao / no-sao-non-deblock / rd=6 / selective-sao=0 / no-early-skip / rskip / no-fast-intra / no-tskip-fast / no-cu-lossless / b-intra / no-splitrd-skip / rdpenalty=0 / psy-rd=2.00 / psy-rdoq=1.00 / no-rd-refine / no-lossless / cbqpoffs=0 / crqpoffs=0 / rc=crf / crf=19.5 / qcomp=0.60 / qpstep=4 / stats-write=0 / stats-read=0 / vbv-maxrate=50000 / vbv-bufsize=50000 / vbv-init=0.9 / min-vbv-fullness=50.0 / max-vbv-fullness=80.0 / crf-max=0.0 / crf-min=0.0 / ipratio=1.40 / pbratio=1.30 / aq-mode=1 / aq-strength=1.00 / no-cutree / zone-count=1 / zones: / start-frame=151333 / end-frame=158729 / qp=36 / no-strict-cbr / qg-size=32 / no-rc-grain / qpmax=69 / qpmin=0 / no-const-vbv / sar=1 / overscan=0 / videoformat=5 / range=0 / colorprim=2 / transfer=2 / colormatrix=2 / chromaloc=0 / display-window=0 / cll=0,0 / min-luma=0 / max-luma=1023 / log2-max-poc-lsb=8 / vui-timing-info / vui-hrd-info / slices=1 / no-opt-qp-pps / no-opt-ref-list-length-pps / no-multi-pass-opt-rps / scenecut-bias=0.00 / hist-threshold=0.03 / no-opt-cu-delta-qp / no-aq-motion / no-hdr10 / no-hdr10-opt / no-dhdr10-opt / no-idr-recovery-sei / analysis-reuse-level=0 / analysis-save-reuse-level=0 / analysis-load-reuse-level=0 / scale-factor=0 / refine-intra=0 / refine-inter=0 / refine-mv=1 / refine-ctu-distortion=0 / no-limit-sao / ctu-info=0 / no-lowpass-dct / refine-analysis-type=0 / copy-pic=1 / max-ausize-factor=1.0 / no-dynamic-refine / no-single-sei / no-hevc-aq / no-svt / no-field / qp-adaptation-range=1.00 / scenecut-aware-qp=0conformance-window-offsets / right=0 / bottom=0 / decoder-max-rate=0 / no-vbv-live-multi-pass
Язык : English
Default : Да
Forced : Нет

Аудио #1
Идентификатор : 2
Формат : AC-3
Формат/Информация : Audio Coding 3
Коммерческое название : Dolby Digital
Идентификатор кодека : A_AC3
Продолжительность : 1 ч. 50 м.
Вид битрейта : Постоянный
Битрейт : 640 Кбит/сек
Каналы : 6 каналов
Channel layout : L R C LFE Ls Rs
Частота : 48,0 КГц
Частота кадров : 31,250 кадров/сек (1536 SPF)
Метод сжатия : С потерями
Размер потока : 505 Мбайт (5%)
Заголовок : DUB
Язык : Russian
Service kind : Complete Main
Default : Да
Forced : Нет

Аудио #2
Идентификатор : 3
Формат : AC-3
Формат/Информация : Audio Coding 3
Коммерческое название : Dolby Digital
Идентификатор кодека : A_AC3
Продолжительность : 1 ч. 50 м.
Вид битрейта : Постоянный
Битрейт : 448 Кбит/сек
Каналы : 6 каналов
Channel layout : L R C LFE Ls Rs
Частота : 48,0 КГц
Частота кадров : 31,250 кадров/сек (1536 SPF)
Метод сжатия : С потерями
Размер потока : 354 Мбайт (3%)
Заголовок : MVO (OzzTV)
Язык : Russian
Service kind : Complete Main
Default : Нет
Forced : Нет

Аудио #3
Идентификатор : 4
Формат : AC-3
Формат/Информация : Audio Coding 3
Коммерческое название : Dolby Digital
Идентификатор кодека : A_AC3
Продолжительность : 1 ч. 50 м.
Вид битрейта : Постоянный
Битрейт : 640 Кбит/сек
Каналы : 6 каналов
Channel layout : L R C LFE Ls Rs
Частота : 48,0 КГц
Частота кадров : 31,250 кадров/сек (1536 SPF)
Метод сжатия : С потерями
Размер потока : 505 Мбайт (5%)
Заголовок : AVO (Андрей Гаврилов)
Язык : Russian
Service kind : Complete Main
Default : Нет
Forced : Нет

Аудио #4
Идентификатор : 5
Формат : AC-3
Формат/Информация : Audio Coding 3
Коммерческое название : Dolby Digital
Идентификатор кодека : A_AC3
Продолжительность : 1 ч. 50 м.
Вид битрейта : Постоянный
Битрейт : 640 Кбит/сек
Каналы : 6 каналов
Channel layout : L R C LFE Ls Rs
Частота : 48,0 КГц
Частота кадров : 31,250 кадров/сек (1536 SPF)
Метод сжатия : С потерями
Размер потока : 505 Мбайт (5%)
Заголовок : AVO (Вадим Назаров)
Язык : Russian
Service kind : Complete Main
Default : Нет
Forced : Нет

Аудио #5
Идентификатор : 6
Формат : AC-3
Формат/Информация : Audio Coding 3
Коммерческое название : Dolby Digital
Идентификатор кодека : A_AC3
Продолжительность : 1 ч. 50 м.
Вид битрейта : Постоянный
Битрейт : 640 Кбит/сек
Каналы : 6 каналов
Channel layout : L R C LFE Ls Rs
Частота : 48,0 КГц
Частота кадров : 31,250 кадров/сек (1536 SPF)
Метод сжатия : С потерями
Размер потока : 505 Мбайт (5%)
Заголовок : AVO (Юрий Сербин)
Язык : Russian
Service kind : Complete Main
Default : Нет
Forced : Нет

Аудио #6
Идентификатор : 7
Формат : AC-3
Формат/Информация : Audio Coding 3
Коммерческое название : Dolby Digital
Идентификатор кодека : A_AC3
Продолжительность : 1 ч. 50 м.
Вид битрейта : Постоянный
Битрейт : 640 Кбит/сек
Каналы : 6 каналов
Channel layout : L R C LFE Ls Rs
Частота : 48,0 КГц
Частота кадров : 31,250 кадров/сек (1536 SPF)
Метод сжатия : С потерями
Размер потока : 505 Мбайт (5%)
Заголовок : AVO (Леонид Володарский)
Язык : Russian
Service kind : Complete Main
Default : Нет
Forced : Нет

Аудио #7
Идентификатор : 8
Формат : AC-3
Формат/Информация : Audio Coding 3
Коммерческое название : Dolby Digital
Идентификатор кодека : A_AC3
Продолжительность : 1 ч. 50 м.
Вид битрейта : Постоянный
Битрейт : 640 Кбит/сек
Каналы : 6 каналов
Channel layout : L R C LFE Ls Rs
Частота : 48,0 КГц
Частота кадров : 31,250 кадров/сек (1536 SPF)
Метод сжатия : С потерями
Размер потока : 505 Мбайт (5%)
Заголовок : AVO (Антон Карповский)
Язык : Russian
Service kind : Complete Main
Default : Нет
Forced : Нет

Аудио #8
Идентификатор : 9
Формат : AC-3
Формат/Информация : Audio Coding 3
Коммерческое название : Dolby Digital
Идентификатор кодека : A_AC3
Продолжительность : 1 ч. 50 м.
Вид битрейта : Постоянный
Битрейт : 448 Кбит/сек
Каналы : 6 каналов
Channel layout : L R C LFE Ls Rs
Частота : 48,0 КГц
Частота кадров : 31,250 кадров/сек (1536 SPF)
Метод сжатия : С потерями
Размер потока : 354 Мбайт (3%)
Заголовок : AVO (Михаил Чадов)
Язык : Russian
Service kind : Complete Main
Default : Нет
Forced : Нет

Аудио #9
Идентификатор : 10
Формат : AC-3
Формат/Информация : Audio Coding 3
Коммерческое название : Dolby Digital
Идентификатор кодека : A_AC3
Продолжительность : 1 ч. 50 м.
Вид битрейта : Постоянный
Битрейт : 448 Кбит/сек
Каналы : 6 каналов
Channel layout : L R C LFE Ls Rs
Частота : 48,0 КГц
Частота кадров : 31,250 кадров/сек (1536 SPF)
Метод сжатия : С потерями
Размер потока : 354 Мбайт (3%)
Заголовок : VO (SOLDLUCK)
Язык : Russian
Service kind : Complete Main
Default : Нет
Forced : Нет

Аудио #10
Идентификатор : 11
Формат : AC-3
Формат/Информация : Audio Coding 3
Коммерческое название : Dolby Digital
Идентификатор кодека : A_AC3
Продолжительность : 1 ч. 50 м.
Вид битрейта : Постоянный
Битрейт : 448 Кбит/сек
Каналы : 6 каналов
Channel layout : L R C LFE Ls Rs
Частота : 48,0 КГц
Частота кадров : 31,250 кадров/сек (1536 SPF)
Метод сжатия : С потерями
Размер потока : 354 Мбайт (3%)
Заголовок : DUB
Язык : Ukrainian
Service kind : Complete Main
Default : Нет
Forced : Нет

Аудио #11
Идентификатор : 12
Формат : AC-3
Формат/Информация : Audio Coding 3
Коммерческое название : Dolby Digital
Идентификатор кодека : A_AC3
Продолжительность : 1 ч. 50 м.
Вид битрейта : Постоянный
Битрейт : 640 Кбит/сек
Каналы : 6 каналов
Channel layout : L R C LFE Ls Rs
Частота : 48,0 КГц
Частота кадров : 31,250 кадров/сек (1536 SPF)
Метод сжатия : С потерями
Размер потока : 505 Мбайт (5%)
Язык : English
Service kind : Complete Main
Default : Нет
Forced : Нет

Текст #1
Идентификатор : 13
Формат : UTF-8
Идентификатор кодека : S_TEXT/UTF8
Идентификатор кодека/Информация : UTF-8 Plain Text
Продолжительность : 1 ч. 43 м.
Битрейт : 112 бит/сек
Count of elements : 1373
Размер потока : 85,4 Кбайт (0%)
Заголовок : Русские
Язык : Russian
Default : Нет
Forced : Нет

Текст #2
Идентификатор : 14
Формат : UTF-8
Идентификатор кодека : S_TEXT/UTF8
Идентификатор кодека/Информация : UTF-8 Plain Text
Продолжительность : 1 ч. 42 м.
Битрейт : 73 бит/сек
Count of elements : 1362
Размер потока : 55,5 Кбайт (0%)
Заголовок : Английские
Язык : English
Default : Нет
Forced : Нет

Меню
00:00:00.000 : Papa's Business
00:12:42.887 : Mr. La Boeuf
00:23:59.354 : Rooster Cogburn
00:34:06.502 : Horse Trading
00:46:20.110 : Bushwacked
00:59:31.192 : Smoked Out
01:18:30.414 : Ned Pepper
01:32:04.977 : Looking For Signs
01:41:00.929 : Tom Chaney
01:45:59.144 : Snake Pit
Загрузка...Cкриншот1 Железная хватка / True Grit (2010) BDRip 1080p [HEVC] 10 bit от OldGamer (RG RIPS CLUB)Загрузка...Cкриншот2 Железная хватка / True Grit (2010) BDRip 1080p [HEVC] 10 bit от OldGamer (RG RIPS CLUB)Загрузка...Cкриншот3 Железная хватка / True Grit (2010) BDRip 1080p [HEVC] 10 bit от OldGamer (RG RIPS CLUB)Загрузка...Cкриншот4 Железная хватка / True Grit (2010) BDRip 1080p [HEVC] 10 bit от OldGamer (RG RIPS CLUB)
Релиз-группа: RIPS CLUB
Сэмпл Торрент🧲 Магнет

Рейтинги КП и IMDB, кнопки "Позвать в чате" и "Спасибо", а также мультитрекерная статистика доступны только зарегистрированным/авторизованным пользователям!

Файлы: 1
  • Железная.хватка.True.Grit.2010.BDRip-HEVC.1080p.mkv   10.71 ГБ
Поблагодарили: 11
and50, Andrey_alex, donadar, Elico1977, IRIT, mafo2, makss333, NoMaD, Nuclear70, StarLord, Tony
OldGamer
115024010.71 ГБ

Добавление нового комментария

Добавление комментариев доступно только зарегистрированным/авторизованным пользователям.
Аватар mafo2
  mafo2  
Хороший фильм, отличный рип