💬 Мини-чат

OldGamerdonadar, нет, очень страшного кино не планировал 😀
donadarOldGamer, Спасибо за будущий Крик😀 А будет в планах "Очень страшное кино коллекция"?
AlexTwittСообщение удалено (удалил: AlexTwitt)
StarLordADVOKAT69, супер)
ADVOKAT69StarLord, хорошо!
StarLordADVOKAT69, привет)) как оно?)
Mr. Foxда, это не претензия и не предмет спора, это личное мнение, можно не развивать
Mr. FoxOldGamer, ну если честно, я в курсе, как по мне там даже на желтую не тянуло, но как говорится хозяин - барин
OldGamerMr. Fox, ничего нового или неожиданного, всё как и на других трекерах 😀 С - Стабильность.
Mr. FoxOldGamer, что ж такого NoMaD натворил, интересно
OldGamerПользователь NoMaD забанен навсегда
  • alexyak
  • IRIT
  • sharkey71
Отправка сообщений доступна только зарегистрированным/авторизованным пользователям.
Онлайн (за 10 мин.): 3

Eagles: Live from the Forum MMXVIII (2020) BDRip 1080p [HEVC] 10 bit от OldGamer (RG RIPS CLUB)

HEVC
10 bit
Обложка Eagles: Live from the Forum MMXVIII (2020) BDRip 1080p [HEVC] 10 bit от OldGamer (RG RIPS CLUB) Год: 2020
Страна: США
Студия: Rhino
Жанр: Музыка
Продолжительность: 02:25:16

Режиссер: Nick Wickham
Состав:
Eagles, Дон Хенли, Джо Уолш, Тимоти Б. Шмит, Дикон Фрей, Винс Гилл

Описание: Новый концертный альбом и концертный фильм от легендарных EAGLES доступны в различных форматах аудио и видео с 16 октября. Большую часть 2018 года Eagles провели в разъездах с обширным туром по Северной Америке, в ходе которого Дон Хенли, Джо Уолш и Тимоти Б. Шмит присоединились к двум новым товарищам по группе: Дикону Фрею и Винсу Гиллу. Получив восторженные отзывы как от фанатов, так и от критиков, квинтет работал на полную катушку, когда они прибыли на Форум в Лос-Анджелесе на три аншлаговых концерта в родном городе 12, 14 и 15 сентября. Основные моменты всех трех шоу были выбраны для нового концертного альбома из 26 песен и концертного фильма «LIVE FROM FORUM MMXVIII». Среди них самые знаковые хиты группы («Hotel California», «Take It Easy», «Life In The Fast Lane», «Desperado») и треки из любимых альбомов («Ol '55», «The Shoes»), наряду с некоторыми из самых громких сольных треков отдельных участников («Boys Of Summer» Дона Хенли, «Don't Let Our Love Start Slippin 'Away» Винса Гилла, «Rocky Mountain Way» Джо Уолша).

Треклист
01. Introduction
02. Seven Bridges Road
03. Joe Walsh: "How Ya Doin?"
04. Take It Easy
05. One Of These Nights
06. Don Henley: "Good Evening, Ladies And Gentlemen"
07. Take It To The Limit
08. Tequila Sunrise
09. In The City
10. Timothy B. Schmit: "Hey, Everybody, That's Joe Walsh"
11. I Can't Tell You Why
12. New Kid In Town
13. Don Henley: "Just Want To Thank All Of You."
14. How Long
15. Deacon Frey: "Hello, Everybody."
16. Peaceful Easy Feeling
17. Ol' 55
18. Lyin' Eyes
19. Love Will Keep Us Alive
20. Vince Gill: "How About A Nice Hand For California, Man."
21. Don't Let Our Love Start Slippin' Away
22. Those Shoes
23. Already Gone
24. Walk Away
25. Joe Walsh: "Is Everybody Ok?"
26. Life's Been Good
27. The Boys Of Summer
28. Heartache Tonight
29. Funk #49
30. Life In The Fast Lane
31. Hotel California
32. Rocky Mountain Way
33. Desperado
34. The Long Run

Исходник: Blu-Ray Remux 1080p (TeamHD)
Видео: 1920x820 (2.35:1), 4666 Кбит/сек, HEVC (Main10@L.4.1@High)
Аудио1: DTS-HD MA, 6 ch, 4310 Kbps - EnglishEnglish, Original
Аудио2: PCM, 2 ch, 2304 Kbps - EnglishEnglish, Original
Субтитры: Отсутствуют

Как за пару секунд удалить ненужные аудиодорожки и субтитры (Внимание! После удаления вы не сможете поддержать раздачу)

Лог (x265 info)
x265 [info]: frame I: 872, Avg QP:14.96 kb/s: 13726.52
x265 [info]: frame P: 39418, Avg QP:17.12 kb/s: 8556.79
x265 [info]: frame B: 168690, Avg QP:18.39 kb/s: 3708.42
x265 [info]: Weighted P-Frames: Y:8.4% UV:6.7%
x265 [info]: Weighted B-Frames: Y:5.5% UV:4.1%
x265 [info]: consecutive B-frames: 3.2% 2.4% 3.2% 36.7% 14.2% 21.7% 6.7% 7.4% 1.8% 1.1% 0.6% 0.5% 0.3% 0.3%
x265 [info]: encoded 208980 frames in 97847.55s (2.14 fps), 4664.73 kb/s, Avg QP:18.13
Медиаинфо
Общее
Уникальный идентификатор : 306594560298271731297196808851961005711 (0xE6A7F6E5F6B6970D4CC4643F12ADC68F)
Полное имя : \\.\Eagles.Live.From.The.Forum.MMXVIII.2020.BDRip-HEVC.1080p.mkv
Формат : Matroska
Версия формата : Version 4
Размер файла : 11,5 Гбайт
Продолжительность : 2 ч. 25 м.
Режим общего битрейта : Переменный
Общий поток : 11,3 Мбит/сек
Название фильма : Eagles.Live.From.The.Forum.MMXVIII.2020.BDRip-HEVC.1080p
Дата кодирования : UTC 2021-04-28 17:25:33
Программа кодирования : mkvmerge v56.1.0 ('My Friend') 64-bit
Библиотека кодирования : libebml v1.4.2 + libmatroska v1.6.4
Обложка : Yes
Attachments : cover.jpg

Видео
Идентификатор : 1
Формат : HEVC
Формат/Информация : High Efficiency Video Coding
Профиль формата : Main 10@L4.1@High
Идентификатор кодека : V_MPEGH/ISO/HEVC
Продолжительность : 2 ч. 25 м.
Битрейт : 4 666 Кбит/сек
Ширина : 1 920 пикселей
Высота : 820 пикселей
Соотношение сторон : 2,35:1
Режим частоты кадров : Постоянный
Частота кадров : 23,976 (24000/1001) кадра/сек
Цветовое пространство : YUV
Субдискретизация насыщенности : 4:2:0
Битовая глубина : 10 бит
Бит/(Пиксели*Кадры) : 0.124
Размер потока : 4,73 Гбайт (41%)
Заголовок : Eagles: Live from the Forum MMXVIII / Rip by OldGamer
Библиотека кодирования : x265 3.5+1-ce882936d:[Windows][GCC 10.2.0][64 bit] 10bit
Настройки программы : cpuid=1111039 / frame-threads=3 / numa-pools=8 / wpp / no-pmode / no-pme / no-psnr / no-ssim / log-level=2 / input-csp=1 / input-res=1920x820 / interlace=0 / total-frames=208980 / level-idc=41 / high-tier=1 / uhd-bd=0 / ref=5 / no-allow-non-conformance / no-repeat-headers / annexb / no-aud / no-hrd / info / hash=0 / no-temporal-layers / open-gop / min-keyint=23 / keyint=240 / gop-lookahead=0 / bframes=13 / b-adapt=2 / b-pyramid / bframe-bias=0 / rc-lookahead=40 / lookahead-slices=0 / scenecut=40 / hist-scenecut=0 / radl=0 / no-splice / no-intra-refresh / ctu=32 / min-cu-size=8 / rect / amp / max-tu-size=32 / tu-inter-depth=4 / tu-intra-depth=4 / limit-tu=1 / rdoq-level=2 / dynamic-rd=0.00 / no-ssim-rd / signhide / no-tskip / nr-intra=0 / nr-inter=0 / no-constrained-intra / no-strong-intra-smoothing / max-merge=5 / limit-refs=3 / no-limit-modes / me=3 / subme=7 / merange=57 / temporal-mvp / no-frame-dup / no-hme / weightp / weightb / no-analyze-src-pics / deblock=-2:-1 / no-sao / no-sao-non-deblock / rd=6 / selective-sao=0 / no-early-skip / rskip / no-fast-intra / no-tskip-fast / no-cu-lossless / b-intra / no-splitrd-skip / rdpenalty=0 / psy-rd=2.00 / psy-rdoq=1.00 / no-rd-refine / no-lossless / cbqpoffs=0 / crqpoffs=0 / rc=crf / crf=20.0 / qcomp=0.60 / qpstep=4 / stats-write=0 / stats-read=0 / vbv-maxrate=50000 / vbv-bufsize=50000 / vbv-init=0.9 / min-vbv-fullness=50.0 / max-vbv-fullness=80.0 / crf-max=0.0 / crf-min=0.0 / ipratio=1.40 / pbratio=1.30 / aq-mode=1 / aq-strength=1.00 / no-cutree / zone-count=1 / zones: / start-frame=202189 / end-frame=208980 / qp=36 / no-strict-cbr / qg-size=32 / no-rc-grain / qpmax=69 / qpmin=0 / no-const-vbv / sar=1 / overscan=0 / videoformat=5 / range=0 / colorprim=2 / transfer=2 / colormatrix=2 / chromaloc=0 / display-window=0 / cll=0,0 / min-luma=0 / max-luma=1023 / log2-max-poc-lsb=8 / vui-timing-info / vui-hrd-info / slices=1 / no-opt-qp-pps / no-opt-ref-list-length-pps / no-multi-pass-opt-rps / scenecut-bias=0.00 / hist-threshold=0.03 / no-opt-cu-delta-qp / no-aq-motion / no-hdr10 / no-hdr10-opt / no-dhdr10-opt / no-idr-recovery-sei / analysis-reuse-level=0 / analysis-save-reuse-level=0 / analysis-load-reuse-level=0 / scale-factor=0 / refine-intra=0 / refine-inter=0 / refine-mv=1 / refine-ctu-distortion=0 / no-limit-sao / ctu-info=0 / no-lowpass-dct / refine-analysis-type=0 / copy-pic=1 / max-ausize-factor=1.0 / no-dynamic-refine / no-single-sei / no-hevc-aq / no-svt / no-field / qp-adaptation-range=1.00 / scenecut-aware-qp=0conformance-window-offsets / right=0 / bottom=0 / decoder-max-rate=0 / no-vbv-live-multi-pass
Язык : English
Default : Да
Forced : Нет

Аудио #1
Идентификатор : 2
ID in the original source medium : 4353 (0x1101)
Формат : DTS XLL
Формат/Информация : Digital Theater Systems
Коммерческое название : DTS-HD Master Audio
Идентификатор кодека : A_DTS
Продолжительность : 2 ч. 25 м.
Вид битрейта : Переменный
Битрейт : 4 310 Кбит/сек
Каналы : 6 каналов
Channel layout : C L R Ls Rs LFE
Частота : 48,0 КГц
Частота кадров : 93,750 кадра/сек (512 SPF)
Битовая глубина : 24 бит
Метод сжатия : Без потерь
Размер потока : 4,37 Гбайт (38%)
Язык : English
Default : Да
Forced : Нет
Носитель оригинала : Blu-ray

Аудио #2
Идентификатор : 3
ID in the original source medium : 4352 (0x1100)
Формат : PCM
Настройки формата : Little / Signed
Идентификатор кодека : A_PCM/INT/LIT
Продолжительность : 2 ч. 25 м.
Вид битрейта : Постоянный
Битрейт : 2 304 Кбит/сек
Каналы : 2 канала
Частота : 48,0 КГц
Частота кадров : 30,000 кадров/сек (1600 SPF)
Битовая глубина : 24 бит
Размер потока : 2,34 Гбайт (20%)
Язык : English
Default : Нет
Forced : Нет
Носитель оригинала : Blu-ray

Меню
00:00:00.000 : 01. Introduction
00:01:29.214 : 02. Seven Bridges Road
00:05:01.634 : 03. Joe Walsh: "How Ya Doin?"
00:05:37.420 : 04. Take It Easy
00:09:55.928 : 05. One Of These Nights
00:14:16.814 : 06. Don Henley: "Good Evening, Ladies And Gentlemen"
00:16:29.446 : 07. Take It To The Limit
00:20:54.920 : 08. Tequila Sunrise
00:23:59.479 : 09. In The City
00:29:51.581 : 10. Timothy B. Schmit: "Hey, Everybody, That's Joe Walsh"
00:30:39.504 : 11. I Can't Tell You Why
00:35:46.227 : 12. New Kid In Town
00:40:54.869 : 13. Don Henley: "Just Want To Thank All Of You."
00:42:27.253 : 14. How Long
00:45:48.162 : 15. Deacon Frey: "Hello, Everybody."
00:46:26.074 : 16. Peaceful Easy Feeling
00:51:08.273 : 17. Ol' 55
00:55:28.241 : 18. Lyin' Eyes
01:04:27.488 : 19. Love Will Keep Us Alive
01:08:41.659 : 20. Vince Gill: "How About A Nice Hand For California, Man."
01:09:15.693 : 21. Don't Let Our Love Start Slippin' Away
01:14:36.972 : 22. Those Shoes
01:19:45.238 : 23. Already Gone
01:24:08.835 : 24. Walk Away
01:28:07.490 : 25. Joe Walsh: "Is Everybody Ok?"
01:30:02.730 : 26. Life's Been Good
01:38:06.964 : 27. The Boys Of Summer
01:43:16.857 : 28. Heartache Tonight
01:47:50.464 : 29. Funk #49
01:52:31.536 : 30. Life In The Fast Lane
01:59:32.665 : 31. Hotel California
02:09:05.487 : 32. Rocky Mountain Way
02:15:36.795 : 33. Desperado
02:20:36.928 : 34. The Long Run
Загрузка...Cкриншот1 Eagles: Live from the Forum MMXVIII (2020) BDRip 1080p [HEVC] 10 bit от OldGamer (RG RIPS CLUB)Загрузка...Cкриншот2 Eagles: Live from the Forum MMXVIII (2020) BDRip 1080p [HEVC] 10 bit от OldGamer (RG RIPS CLUB)Загрузка...Cкриншот3 Eagles: Live from the Forum MMXVIII (2020) BDRip 1080p [HEVC] 10 bit от OldGamer (RG RIPS CLUB)Загрузка...Cкриншот4 Eagles: Live from the Forum MMXVIII (2020) BDRip 1080p [HEVC] 10 bit от OldGamer (RG RIPS CLUB)
Релиз-группа: RIPS CLUB
Сэмпл Торрент🧲 Магнет

Рейтинги КП и IMDB, кнопки "Позвать в чате" и "Спасибо", а также мультитрекерная статистика доступны только зарегистрированным/авторизованным пользователям!

Файлы: 1
  • Eagles.Live.From.The.Forum.MMXVIII.2020.BDRip-HEVC.1080p.mkv   11.45 ГБ
Поблагодарили: 8
anderb, aquarius, Elico1977, Kilop77, makss333, mvclub, Nuclear70, ШУЗЕР
OldGamer
02347011.45 ГБ

Добавление нового комментария

Добавление комментариев доступно только зарегистрированным/авторизованным пользователям.