💬 Мини-чат

OldGamerну и акустические излучатели собрать хорошие, типа Penaudio Legato Signature или похожие, тут надо тщательно собирать систему для прослушивания
OldGamerне помешает ещё посетить отоларинголога для промывки слухового аппарата от серных пробок специализированным сертифицированным раствором, это (промывка) имеет немаловажное значение
OldGamer😆🤐🤐
OldGamerи всё же лучше hi-end, с подключением кабелями типа Analysis-Plus Oval 9 из бескислородной меди и с их предварительным прогревом системой типа Nordost Vidar, иначе всё теряет смысл
XuMuKManson_Fan, не надо hi-end акустики, достаточно hi-fi. "Кристольность" на высоких частотах другая, в DTS кажется более "живым" звук. Но самая большая разница, когда сравниваешь АС3 с каким-нибудь DTS-HD MA
IRITРаздайте, пожалуйста, Байки из склепа: Демон ночи / Tales from the Crypt: Demon Knight (1995) BDRip 1080p [HEVC] 10 bit от druidblack
OldGamerManson_Fan, у меня нет hi-end акустики, поэтому не слушал, не знаю, может и есть разница. За других говорить не буду. В любом случае, продвинутым слухачам будет несложно найти, скачать и прикрепить дорожки требуемого им качества.
mafo2Manson_Fan, не все телевизоры поддерживают DTS. например, мой через встроенный плеер его не воспроизводит. можно конечно смотреть через ПК, но порой хочется и через ТВ.
Manson_FanOldGamer, "Скажите зачем релизёры звук DTS 768 kbps переделывают в AC3 640 kbps" Интересно, а разницу в качестве в фильмах кому то удавалось услышать?😕 мне вот нет
Manson_Fanникто еще не сравнивал HEVC и новый AV1?
IRITРаздайте, пожалуйста, Маньяк-полицейский 3: Знак молчания / Maniac Cop 3: Badge of Silence (1993) BDRip 1080p [HEVC] 10 bit от HANNIBAL
Spartanec1308С Днём Великой Победы!
BrooklynВсех с праздником! С Днем Великой Победы! Ура-Ура-Урааааааа
BrooklynADVOKAT69, Спасибо большое!
ADVOKAT69Операция «Ы» и другие приключения Шурика (1965) раздаю
mafo2С Днем Победы!
joker63Поздравляю всех с Днем Победы!
ADVOKAT69Admin, Спасибо деду за победу!Тебе за поздравление!
AdminADVOKAT69, Дедам спасибо.
ADVOKAT69Admin, спасибо большое!✋
  • Admin
  • alenu
  • masterok36
Отправка сообщений доступна только зарегистрированным/авторизованным пользователям.
Онлайн (за 10 мин.): 3

Рыбка Поньо на утёсе / Gake no Ue no Ponyo (2008) BDRip 1080p [HEVC] 10 bit от Mr. Fox

HEVC
10 bit
Обложка Рыбка Поньо на утёсе / Gake no Ue no Ponyo (2008) BDRip 1080p [HEVC] 10 bit от Mr. Fox Год: 2008
Страна: Япония
Студия: Studio Ghibli
Жанр: Мультфильм, Приключения
Продолжительность: 01:40:50

Режиссер: Хаяо Миядзаки
В ролях: Ямагути Томоко, Нагасима Кадзусигэ, Амами Юки, Токоро Дзёдзи, Дой Хироки, Нара Юрия, Хиираги Руми, Яно Акико, Ёсиюки Кадзуко, Нараока Томоко, Хидари Токиэ, Хираока Эйми, Охаси Нозоми и другие

Описание: Маленькая любопытная рыбка Поньо — дочь колдуна и прекрасной морской богини уплывает из дома, чтобы понаблюдать за жизнью людей. Поньо застревает в банке и оказывается выброшенной на берег. Ее подбирает пятилетний Сооскэ. Малыши привязываются друг к другу. И теперь у Поньо только одно желание — стать человеком!


Видео: 1920x1036, ~6857 Кбит/сек
Аудио1: AC3, 6 ch, 640 Kbps - РусскийРусский, Дублированный (RUSCICO)
Аудио2: AC3, 6 ch, 640 Kbps - РусскийРусский, Многоголосый (КИНОМАНИЯ)
Аудио3: AC3, 6 ch, 448 Kbps - РусскийРусский, Одноголосый (BBC Saint-Petersburg)
Аудио4: AC3, 6 ch, 448 Kbps - РусскийРусский, Одноголосый (Ю. Немахов)
Аудио5: AC3, 2 ch, 192 Kbps - УкраинскийУкраинский, Многоголосый (NLO.TV)
Аудио6: AC3, 6 ch, 640 Kbps - УкраинскийУкраинский, Многоголосый (AniUa & Gwean, Maslinka)
Аудио7: AC3, 6 ch, 640 Kbps - УкраинскийУкраинский, Двухголосый (Робота Голосом)
Аудио8: AC3, 6 ch, 640 Kbps - ЯпонскийЯпонский, Оригинал
Субтитры: русские (форс., полные), украинские (форс., полные), английские (форс., полные)

Как за пару секунд удалить ненужные аудиодорожки и субтитры (Внимание! После удаления вы не сможете поддержать раздачу)

Медиаинфо
General
Unique ID : 236803758119040941296421940819262997982 (0xB226BEAFD517495358AD5125E62885DE)
Complete name : Gake no Ue no Ponyo (2008) BDRip 1080p H.265 [4xRUS_3xUKR_JPN] [RIPS-CLUB].mkv
Format : Matroska
Format version : Version 4
File size : 7.96 GiB
Duration : 1 h 42 min
Overall bit rate : 11.1 Mb/s
Movie name : Рыбка Поньо на Утёсе / Поньо на кручі / Gake no Ue no Ponyo / Ponyo on the Cliff by the Sea (2008) by Mr. Fox
Encoded date : UTC 2021-05-04 10:00:54
Writing application : mkvmerge v20.0.0 ('I Am The Sun') 64-bit
Writing library : libebml v1.3.5 + libmatroska v1.4.8
Cover : Yes
Attachments : Cover.jpg / CHUBBY.TTF / CWBTRIAL.ttf / laurencb.ttf / smdg.ttf / SPEAKOT-HEAVY.OTF / times.ttf / Calibri.ttf / FromageCondOblique.ttf / ITC Franklin Gothic LT Medium Condensed.ttf / neucha.otf / PPETRIAL.otf / DFGKyks4-Arrietty.ttf / DFPGothUW5-Arrietty.ttf / FOT-MatisseMinoriProB-En.otf / LTe53507.ttf / Memo-Condensed_Italic.ttf / Memo-Condensed_Normal.ttf / ARIALN.TTF / 方正准圆_GBK_0.TTF / msgothic.ttf

Video
ID : 1
Format : HEVC
Format/Info : High Efficiency Video Coding
Format profile : Main 10@L4.1@High
Codec ID : V_MPEGH/ISO/HEVC
Duration : 1 h 42 min
Bit rate : 6 857 kb/s
Width : 1 920 pixels
Height : 1 036 pixels
Display aspect ratio : 1.85:1
Frame rate mode : Constant
Frame rate : 23.976 (24000/1001) FPS
Color space : YUV
Chroma subsampling : 4:2:0
Bit depth : 10 bits
Bits/(Pixel*Frame) : 0.144
Stream size : 4.90 GiB (61%)
Title : Рыбка Поньо на Утёсе / Поньо на кручі / Gake no Ue no Ponyo / Ponyo on the Cliff by the Sea (2008) by Mr. Fox
Writing library : x265 2.8+74-fd517ae68f93:[Windows][GCC 7.3.0][64 bit] 10bit
Encoding settings : cpuid=1111039 / frame-threads=13 / numa-pools=12 / wpp / no-pmode / no-pme / no-psnr / no-ssim / log-level=3 / input-csp=1 / input-res=1920x1036 / interlace=0 / total-frames=0 / level-idc=41 / high-tier=1 / uhd-bd=0 / ref=5 / allow-non-conformance / no-repeat-headers / annexb / no-aud / no-hrd / info / hash=0 / no-temporal-layers / open-gop / min-keyint=24 / keyint=240 / gop-lookahead=0 / bframes=11 / b-adapt=2 / b-pyramid / bframe-bias=0 / rc-lookahead=60 / lookahead-slices=4 / scenecut=40 / radl=0 / no-intra-refresh / ctu=32 / min-cu-size=8 / rect / amp / max-tu-size=32 / tu-inter-depth=4 / tu-intra-depth=4 / limit-tu=0 / rdoq-level=2 / dynamic-rd=0.00 / no-ssim-rd / signhide / no-tskip / nr-intra=0 / nr-inter=0 / no-constrained-intra / no-strong-intra-smoothing / max-merge=3 / limit-refs=1 / limit-modes / me=3 / subme=7 / merange=57 / temporal-mvp / weightp / weightb / no-analyze-src-pics / deblock=-3:-3 / no-sao / no-sao-non-deblock / rd=6 / no-early-skip / rskip / no-fast-intra / no-tskip-fast / no-cu-lossless / no-b-intra / no-splitrd-skip / rdpenalty=0 / psy-rd=2.00 / psy-rdoq=1.00 / no-rd-refine / no-lossless / cbqpoffs=0 / crqpoffs=0 / rc=crf / crf=18.0 / qcomp=0.60 / qpstep=4 / stats-write=0 / stats-read=0 / vbv-maxrate=50000 / vbv-bufsize=50000 / vbv-init=0.9 / crf-max=30.0 / crf-min=0.0 / ipratio=1.40 / pbratio=1.30 / aq-mode=2 / aq-strength=1.00 / no-cutree / zone-count=0 / no-strict-cbr / qg-size=32 / no-rc-grain / qpmax=69 / qpmin=0 / no-const-vbv / sar=1 / overscan=0 / videoformat=5 / range=0 / colorprim=2 / transfer=2 / colormatrix=2 / chromaloc=0 / display-window=0 / max-cll=0,0 / min-luma=0 / max-luma=1023 / log2-max-poc-lsb=8 / vui-timing-info / vui-hrd-info / slices=1 / no-opt-qp-pps / no-opt-ref-list-length-pps / no-multi-pass-opt-rps / scenecut-bias=0.05 / no-opt-cu-delta-qp / no-aq-motion / no-hdr / no-hdr-opt / no-dhdr10-opt / no-idr-recovery-sei / analysis-reuse-level=5 / scale-factor=0 / refine-intra=0 / refine-inter=0 / refine-mv=0 / no-limit-sao / ctu-info=0 / no-lowpass-dct / refine-mv-type=0 / copy-pic=1 / max-ausize-factor=1.0 / no-dynamic-refine / no-single-sei
Language : English
Default : Yes
Forced : No

Audio #1
ID : 2
Format : AC-3
Format/Info : Audio Coding 3
Commercial name : Dolby Digital
Codec ID : A_AC3
Duration : 1 h 40 min
Bit rate mode : Constant
Bit rate : 640 kb/s
Channel(s) : 6 channels
Channel layout : L R C LFE Ls Rs
Sampling rate : 48.0 kHz
Frame rate : 31.250 FPS (1536 SPF)
Compression mode : Lossy
Stream size : 462 MiB (6%)
Title : AC-3 / 5.1 Ch / 640 kbps / DUB / RUSCICO
Language : Russian
Service kind : Complete Main
Default : Yes
Forced : Yes

Audio #2
ID : 3
Format : AC-3
Format/Info : Audio Coding 3
Commercial name : Dolby Digital
Codec ID : A_AC3
Duration : 1 h 42 min
Bit rate mode : Constant
Bit rate : 640 kb/s
Channel(s) : 6 channels
Channel layout : L R C LFE Ls Rs
Sampling rate : 48.0 kHz
Frame rate : 31.250 FPS (1536 SPF)
Compression mode : Lossy
Stream size : 469 MiB (6%)
Title : AC-3 / 5.1 Ch / 640 kbps / MVO / КИНОМАНИЯ
Language : Russian
Service kind : Complete Main
Default : No
Forced : No

Audio #3
ID : 4
Format : AC-3
Format/Info : Audio Coding 3
Commercial name : Dolby Digital
Codec ID : A_AC3
Duration : 1 h 40 min
Bit rate mode : Constant
Bit rate : 448 kb/s
Channel(s) : 6 channels
Channel layout : L R C LFE Ls Rs
Sampling rate : 48.0 kHz
Frame rate : 31.250 FPS (1536 SPF)
Compression mode : Lossy
Stream size : 323 MiB (4%)
Title : AC-3 / 5.1 Ch / 448 kbps / AVO / BBC Saint-Petersburg
Language : Russian
Service kind : Complete Main
Default : No
Forced : No

Audio #4
ID : 5
Format : AC-3
Format/Info : Audio Coding 3
Commercial name : Dolby Digital
Codec ID : A_AC3
Duration : 1 h 40 min
Bit rate mode : Constant
Bit rate : 448 kb/s
Channel(s) : 6 channels
Channel layout : L R C LFE Ls Rs
Sampling rate : 48.0 kHz
Frame rate : 31.250 FPS (1536 SPF)
Compression mode : Lossy
Stream size : 323 MiB (4%)
Title : AC-3 / 5.1 Ch / 448 kbps / AVO / Ю. Немахов
Language : Russian
Service kind : Complete Main
Default : No
Forced : No

Audio #5
ID : 6
Format : AC-3
Format/Info : Audio Coding 3
Commercial name : Dolby Digital
Codec ID : A_AC3
Duration : 1 h 40 min
Bit rate mode : Constant
Bit rate : 192 kb/s
Channel(s) : 2 channels
Channel layout : L R
Sampling rate : 48.0 kHz
Frame rate : 31.250 FPS (1536 SPF)
Compression mode : Lossy
Stream size : 138 MiB (2%)
Title : AC-3 / 2.0 Ch / 192 kbps / MVO / NLO.TV
Language : Ukrainian
Service kind : Complete Main
Default : No
Forced : No

Audio #6
ID : 7
Format : AC-3
Format/Info : Audio Coding 3
Commercial name : Dolby Digital
Codec ID : A_AC3
Duration : 1 h 42 min
Bit rate mode : Constant
Bit rate : 640 kb/s
Channel(s) : 6 channels
Channel layout : L R C LFE Ls Rs
Sampling rate : 48.0 kHz
Frame rate : 31.250 FPS (1536 SPF)
Compression mode : Lossy
Stream size : 468 MiB (6%)
Title : AC-3 / 5.1 Ch / 640 kbps / MVO / AniUa & Gwean, Maslinka
Language : Ukrainian
Service kind : Complete Main
Default : No
Forced : No

Audio #7
ID : 8
Format : AC-3
Format/Info : Audio Coding 3
Commercial name : Dolby Digital
Codec ID : A_AC3
Duration : 1 h 40 min
Bit rate mode : Constant
Bit rate : 640 kb/s
Channel(s) : 6 channels
Channel layout : L R C LFE Ls Rs
Sampling rate : 48.0 kHz
Frame rate : 31.250 FPS (1536 SPF)
Compression mode : Lossy
Stream size : 462 MiB (6%)
Title : AC-3 / 5.1 Ch / 640 kbps / DVO / Робота Голосом
Language : Ukrainian
Service kind : Complete Main
Default : No
Forced : No

Audio #8
ID : 9
Format : AC-3
Format/Info : Audio Coding 3
Commercial name : Dolby Digital
Codec ID : A_AC3
Duration : 1 h 40 min
Bit rate mode : Constant
Bit rate : 640 kb/s
Channel(s) : 6 channels
Channel layout : L R C LFE Ls Rs
Sampling rate : 48.0 kHz
Frame rate : 31.250 FPS (1536 SPF)
Compression mode : Lossy
Stream size : 462 MiB (6%)
Title : AC-3 / 5.1 Ch / 640 kbps / Original
Language : Japanese
Service kind : Complete Main
Default : No
Forced : No

Text #1
ID : 10
Format : UTF-8
Codec ID : S_TEXT/UTF8
Codec ID/Info : UTF-8 Plain Text
Duration : 1 h 36 min
Bit rate : 2 b/s
Count of elements : 43
Stream size : 1.67 KiB (0%)
Title : Forced
Language : Russian
Default : Yes
Forced : Yes

Text #2
ID : 11
Format : UTF-8
Codec ID : S_TEXT/UTF8
Codec ID/Info : UTF-8 Plain Text
Duration : 1 h 40 min
Bit rate : 42 b/s
Count of elements : 815
Stream size : 31.3 KiB (0%)
Title : Full (Kinomania)
Language : Russian
Default : No
Forced : No

Text #3
ID : 12
Format : ASS
Codec ID : S_TEXT/ASS
Codec ID/Info : Advanced Sub Station Alpha
Duration : 1 h 36 min
Bit rate : 4 b/s
Count of elements : 36
Compression mode : Lossless
Stream size : 3.51 KiB (0%)
Title : Forced
Language : Ukrainian
Default : No
Forced : No

Text #4
ID : 13
Format : ASS
Codec ID : S_TEXT/ASS
Codec ID/Info : Advanced Sub Station Alpha
Duration : 1 h 40 min
Bit rate : 88 b/s
Count of elements : 1017
Compression mode : Lossless
Stream size : 65.6 KiB (0%)
Title : Full by ino, TobiRa
Language : Ukrainian
Default : No
Forced : No

Text #5
ID : 14
Format : UTF-8
Codec ID : S_TEXT/UTF8
Codec ID/Info : UTF-8 Plain Text
Duration : 1 h 36 min
Bit rate : 1 b/s
Count of elements : 46
Stream size : 1.09 KiB (0%)
Title : Forced
Language : English
Default : No
Forced : No

Text #6
ID : 15
Format : UTF-8
Codec ID : S_TEXT/UTF8
Codec ID/Info : UTF-8 Plain Text
Duration : 1 h 36 min
Bit rate : 26 b/s
Count of elements : 824
Stream size : 18.5 KiB (0%)
Title : Full
Language : English
Default : No
Forced : No

Menu
00:00:00.000 : en:Chapter 01
00:04:34.983 : en:Chapter 02
00:09:58.306 : en:Chapter 03
00:16:14.098 : en:Chapter 04
00:21:02.094 : en:Chapter 05
00:27:07.584 : en:Chapter 06
00:35:21.369 : en:Chapter 07
00:41:21.771 : en:Chapter 08
00:48:34.203 : en:Chapter 09
00:55:21.652 : en:Chapter 10
01:02:00.675 : en:Chapter 11
01:08:53.171 : en:Chapter 12
01:12:58.833 : en:Chapter 13
01:19:22.925 : en:Chapter 14
01:24:30.857 : en:Chapter 15
01:29:08.885 : en:Chapter 16
01:34:54.772 : en:Chapter 17
01:39:09.902 : en:Chapter 18
Загрузка...Cкриншот1 Рыбка Поньо на утёсе / Gake no Ue no Ponyo (2008) BDRip 1080p [HEVC] 10 bit от Mr. FoxЗагрузка...Cкриншот2 Рыбка Поньо на утёсе / Gake no Ue no Ponyo (2008) BDRip 1080p [HEVC] 10 bit от Mr. FoxЗагрузка...Cкриншот3 Рыбка Поньо на утёсе / Gake no Ue no Ponyo (2008) BDRip 1080p [HEVC] 10 bit от Mr. FoxЗагрузка...Cкриншот4 Рыбка Поньо на утёсе / Gake no Ue no Ponyo (2008) BDRip 1080p [HEVC] 10 bit от Mr. Fox
Сэмпл Торрент🧲 Магнет

Рейтинги КП и IMDB, кнопки "Позвать в чате" и "Спасибо", а также мультитрекерная статистика доступны только зарегистрированным/авторизованным пользователям!

Файлы: 1
  • Gake no Ue no Ponyo (2008) BDRip 1080p H.265 [4xRUS_3xUKR_JPN] [RIPS-CLUB].mkv   7.96 ГБ
Поблагодарили: 6
donadar, han-nik, Kiran, ko1ob, makss333, NoMaD
StarLord
040537.96 ГБ

Добавление нового комментария

Добавление комментариев доступно только зарегистрированным/авторизованным пользователям.