Чат

⚫︎
Список изменений сайта - https://rips.club/changelog.html (обновлен 24.05.2024)
  • AlexStallone
  • arwis
Онлайн (за 10 мин.): 2
  • Tastod: Раздайте, пожалуйста, Загадочная история Бенджамина Баттона / The Curious Case of Benjamin Button (2008) BDRip 1080p [HEVC] 10 bit от Spartanec1308
  • Гл. Админ: Исправил баг, когда после анонса коллекции все анонсы показывались в спойлере, даже если не являлись коллекцией.
  • Гл. Админ: Исправил баг, когда в ЛС не возможно было удалить сообщение.
  • bronsonw200: Гл. Админ, Как по мне, так смотрится приятнее.
  • Гл. Админ: В светлой теме задний фон сделал чуть потемнее, чтобы было не слишком ярко. В темной теме поисковую строку сделал черной (как в светлой теме), чтобы выделялась. Убрал рамки вокруг элементов форм. Прокрутку страницы в начало сделал плавной. ( отредактировано: )
  • Гл. Админ: В ближайшие дни по вечерам начну подправлять дизайн.
  • Гл. Админ: Готово.
  • Гл. Админ: Управление релизами закончил, но не буду выкладывать на ночь глядя. Утром протестирую на локальном компе, и днем выложу.
  • Гл. Админ: Фон баннера релиз-группы сделал прозрачным и перезалил на внешнем хостинге.
  • OldGamer: было бы неплохо
  • Гл. Админ: Управление релизами наверно сегодня закончу.
  • HANNIBAL: Сообщение удалено (удалил: HANNIBAL)
  • HANNIBAL: Гл. Админ, не привычно
  • Гл. Админ: HANNIBAL, хорошего или плохого?
  • HANNIBAL: эт чей-то вы тут натворили с сайтом ;)
  • Гл. Админ: ExoticDeer, просто в будущем будет несколько новостных строчек и они будут автоматически переключаться по кругу, поэтому не хочется статичную. Могу ещё уменьшить частоту, если всё равно будет отвлекать. ( отредактировано: )
  • Гл. Админ: ExoticDeer, уменьшил частоту мигания с 5 сек. до 10 сек.
  • ExoticDeer: Гл. Админ, про мигание, скорее отвлекает, особенно на тёмной теме. статичная хорошо смотрелась
  • Гл. Админ: Winsent, Исправил. Теперь, при просмотре комментариев конкретного пользователя, эта галочка не играет роли. Спасибо, что сообщили.
  • Гл. Админ: Winsent, сначала не поверил своим глазам. Это было оооочень странно. Но кажется теперь понял в чем проблема. Ошибка появляется, если в настройках не установлена галочка "Получать уведомления о всех комментариях". Причем у разных пользователей проявляется по разному - у кого-то ничего не показывается, а у кого-то показывается часть комментариев. Поэтому мне долго не удавалось воспроизвести ошибку. Сейчас исправлю.
Отправка сообщений доступна только зарегистрированным/авторизованным пользователям.

🎥︎🎥︎Тихоокеанский рубеж: Дилогия / Pacific Rim: Dilogy (2013-2018) UHD-BDRip 1080p [HEVC] 10 bit [HDR] от Mr. Fox


Обложка Тихоокеанский рубеж: Дилогия / Pacific Rim: Dilogy (2013-2018) UHD-BDRip 1080p [HEVC] 10 bit [HDR] от Mr. Fox
HEVC
HDR
10 bit
⤓︎Торрент🧲︎Магнет$Пожертвования
Год: 2013-2018
Страна: США
Жанр: Фантастика, Боевик, Приключения


1. Тихоокеанский рубеж / Pacific Rim (2013) UHD-BDRip 1080p [HEVC] 10 bit [HDR] от Mr. Fox
Обложка Тихоокеанский рубеж / Pacific Rim (2013) UHD-BDRip 1080p [HEVC] 10 bit [HDR] от Mr. Fox
HEVC
HDR
10 bit
✂︎Сэмпл
Год: 2013
Страна: США
Студия: Legendary Pictures
Жанр: Фантастика, Боевик, Приключения
Длительность: 02:11:16

Режиссер: Гильермо дель Торо
В ролях: Чарли Ханнэм, Идрис Эльба, Ринко Кикути, Роберт Казински, Макс Мартини, Чарли Дэй, Берн Горман, Клифтон Коллинз мл., Рон Перлман, Диего Клаттенхофф

Описание: Когда из морских глубин поднялись легионы чудовищ, известных как кайдзю, началась война, которой суждено было забрать миллионы жизней и свести «человеческие ресурсы» почти к нулю всего за несколько лет. Чтобы сражаться с пришельцами, было создано специальное оружие: огромные роботы, названные егерями, они управлялись одновременно двумя пилотами, чьи сознания соединены с помощью нейронной связи. Но даже егеря оказываются почти бессильны перед лицом безжалостных кайдзю. На грани поражения у защитников человечества нет выбора, кроме как обратиться к двум весьма сомнительным героям – никому не нужному бывшему пилоту и неопытному стажеру – которые объединились, чтобы повести в бой некогда легендарного, но сейчас устаревшего егеря. Вместе они оказываются единственной надеждой человечества, последним препятствием перед надвигающимся апокалипсисом.


Видео: 1920x1078, ~7799 Кбит/сек
Аудио1: AC3, 6 ch, 640 Kbps - РусскийРусский, Дублированный (UHD Blu-Ray)
Аудио2: AC3, 6 ch, 640 Kbps - УкраинскийУкраинский, Дублированный (Blu-Ray)
Аудио3: AC3, 6 ch, 448 Kbps - АнглийскийАнглийский, Оригинал
Субтитры: русские (форсированные, полные), украинские (форсированные, полные), английские (полные, SDH)

Как за несколько секунд удалить ненужные аудиодорожки и субтитры (Внимание! После удаления вы не сможете поддержать раздачу)


Лог (x265 info)x265 [info]: frame I: Avg QP:17.39 kb/s
x265 [info]: frame P: Avg QP:18.68 kb/s
x265 [info]: frame B: Avg QP:20.77 kb/s
МедиаинфоGeneral
Unique ID : 200051889906850088592049495372443043111 (0x968097AF68D31C5D8FDBF1C2ECBE4527)
Complete name : E:\Torrent\Pacific Rim (2013).mkv
Format : Matroska
Format version : Version 4
File size : 8.74 GiB
Duration : 2 h 11 min
Overall bit rate : 9 531 kb/s
Movie name : Pacific Rim (2013)
Encoded date : UTC 2021-05-22 15:00:31
Writing application : mkvmerge v56.0.0 ('Strasbourg / St. Denis') 64-bit
Writing library : libebml v1.4.2 + libmatroska v1.6.4
Cover : Yes
Attachments : cover

Video
ID : 1
Format : HEVC
Format/Info : High Efficiency Video Coding
Format profile : Main 10@L4.1@High
HDR format : SMPTE ST 2086, HDR10 compatible
Codec ID : V_MPEGH/ISO/HEVC
Duration : 2 h 11 min
Bit rate : 7 799 kb/s
Width : 1 920 pixels
Height : 1 078 pixels
Display aspect ratio : 16:9
Frame rate mode : Constant
Frame rate : 23.976 (23976/1000) FPS
Original frame rate : 23.976 (24000/1001) FPS
Color space : YUV
Chroma subsampling : 4:2:0 (Type 2)
Bit depth : 10 bits
Bits/(Pixel*Frame) : 0.157
Stream size : 7.15 GiB (82%)
Writing library : x265 3.5+1-ce882936d:[Windows][MSVC 1928][64 bit] 10bit
Encoding settings : cpuid=1111039 / frame-threads=4 / numa-pools=16 / wpp / no-pmode / no-pme / no-psnr / no-ssim / log-level=2 / input-csp=1 / input-res=1920x1078 / interlace=0 / total-frames=188855 / level-idc=41 / high-tier=1 / uhd-bd=0 / ref=5 / no-allow-non-conformance / repeat-headers / annexb / no-aud / no-hrd / info / hash=0 / no-temporal-layers / open-gop / min-keyint=23 / keyint=240 / gop-lookahead=0 / bframes=16 / b-adapt=2 / b-pyramid / bframe-bias=0 / rc-lookahead=60 / lookahead-slices=4 / scenecut=40 / hist-scenecut=0 / radl=0 / no-splice / no-intra-refresh / ctu=32 / min-cu-size=8 / rect / amp / max-tu-size=32 / tu-inter-depth=4 / tu-intra-depth=4 / limit-tu=1 / rdoq-level=2 / dynamic-rd=0.00 / no-ssim-rd / signhide / no-tskip / nr-intra=0 / nr-inter=0 / no-constrained-intra / no-strong-intra-smoothing / max-merge=4 / limit-refs=2 / limit-modes / me=3 / subme=7 / merange=57 / temporal-mvp / no-frame-dup / no-hme / weightp / weightb / no-analyze-src-pics / deblock=-3:-3 / no-sao / no-sao-non-deblock / rd=6 / selective-sao=0 / no-early-skip / no-rskip / no-fast-intra / no-tskip-fast / no-cu-lossless / no-b-intra / no-splitrd-skip / rdpenalty=0 / psy-rd=2.00 / psy-rdoq=1.00 / no-rd-refine / no-lossless / cbqpoffs=0 / crqpoffs=0 / rc=crf / crf=19.0 / qcomp=0.65 / qpstep=4 / stats-write=0 / stats-read=0 / vbv-maxrate=50000 / vbv-bufsize=50000 / vbv-init=0.9 / min-vbv-fullness=50.0 / max-vbv-fullness=80.0 / crf-max=0.0 / crf-min=0.0 / ipratio=1.40 / pbratio=1.30 / aq-mode=1 / aq-strength=1.00 / no-cutree / zone-count=0 / no-strict-cbr / qg-size=32 / no-rc-grain / qpmax=69 / qpmin=0 / no-const-vbv / sar=1 / overscan=0 / videoformat=5 / range=0 / colorprim=9 / transfer=16 / colormatrix=9 / chromaloc=1 / chromaloc-top=2 / chromaloc-bottom=2 / display-window=0 / master-display=G(13250,34500)B(7500,3000)R(34000,16000)WP(15635,16450)L(40000000,50) / cll=2465,823 / min-luma=0 / max-luma=1023 / log2-max-poc-lsb=8 / vui-timing-info / vui-hrd-info / slices=1 / no-opt-qp-pps / no-opt-ref-list-length-pps / no-multi-pass-opt-rps / scenecut-bias=0.05 / hist-threshold=0.03 / no-opt-cu-delta-qp / no-aq-motion / hdr10 / hdr10-opt / no-dhdr10-opt / no-idr-recovery-sei / analysis-reuse-level=0 / analysis-save-reuse-level=0 / analysis-load-reuse-level=0 / scale-factor=0 / refine-intra=0 / refine-inter=0 / refine-mv=1 / refine-ctu-distortion=0 / no-limit-sao / ctu-info=0 / no-lowpass-dct / refine-analysis-type=0 / copy-pic=1 / max-ausize-factor=1.0 / no-dynamic-refine / no-single-sei / no-hevc-aq / no-svt / no-field / qp-adaptation-range=1.00 / scenecut-aware-qp=0conformance-window-offsets / right=0 / bottom=0 / decoder-max-rate=0 / no-vbv-live-multi-pass
Default : Yes
Forced : No
Color range : Limited
Color primaries : BT.2020
Transfer characteristics : PQ
Matrix coefficients : BT.2020 non-constant
Mastering display color primar : Display P3
Mastering display luminance : min: 0.0050 cd/m2, max: 4000 cd/m2
Maximum Content Light Level : 2465 cd/m2
Maximum Frame-Average Light Le : 823 cd/m2

Audio #1
ID : 2
Format : AC-3
Format/Info : Audio Coding 3
Commercial name : Dolby Digital
Codec ID : A_AC3
Duration : 2 h 11 min
Bit rate mode : Constant
Bit rate : 640 kb/s
Channel(s) : 6 channels
Channel layout : L R C LFE Ls Rs
Sampling rate : 48.0 kHz
Frame rate : 31.250 FPS (1536 SPF)
Compression mode : Lossy
Stream size : 601 MiB (7%)
Title : Дубляж (UHD Blu-Ray)
Language : Russian
Service kind : Complete Main
Default : Yes
Forced : No

Audio #2
ID : 3
Format : AC-3
Format/Info : Audio Coding 3
Commercial name : Dolby Digital
Codec ID : A_AC3
Duration : 2 h 11 min
Bit rate mode : Constant
Bit rate : 640 kb/s
Channel(s) : 6 channels
Channel layout : L R C LFE Ls Rs
Sampling rate : 48.0 kHz
Frame rate : 31.250 FPS (1536 SPF)
Compression mode : Lossy
Stream size : 601 MiB (7%)
Title : Dub (Blu-Ray)
Language : Ukrainian
Service kind : Complete Main
Default : No
Forced : No

Audio #3
ID : 4
Format : AC-3
Format/Info : Audio Coding 3
Commercial name : Dolby Digital
Format settings : Dolby Surround EX
Codec ID : A_AC3
Duration : 2 h 11 min
Bit rate mode : Constant
Bit rate : 448 kb/s
Channel(s) : 6 channels
Channel layout : L R C LFE Ls Rs
Sampling rate : 48.0 kHz
Frame rate : 31.250 FPS (1536 SPF)
Compression mode : Lossy
Stream size : 421 MiB (5%)
Language : English
Service kind : Complete Main
Default : No
Forced : No

Text #1
ID : 5
Format : UTF-8
Codec ID : S_TEXT/UTF8
Codec ID/Info : UTF-8 Plain Text
Duration : 2 h 10 min
Bit rate : 2 b/s
Count of elements : 46
Stream size : 1.98 KiB (0%)
Title : forced
Language : Russian
Default : Yes
Forced : No

Text #2
ID : 6
Format : UTF-8
Codec ID : S_TEXT/UTF8
Codec ID/Info : UTF-8 Plain Text
Duration : 2 h 10 min
Bit rate : 67 b/s
Count of elements : 1650
Stream size : 64.7 KiB (0%)
Title : full
Language : Russian
Default : No
Forced : No

Text #3
ID : 7
Format : UTF-8
Codec ID : S_TEXT/UTF8
Codec ID/Info : UTF-8 Plain Text
Duration : 2 h 10 min
Bit rate : 2 b/s
Count of elements : 49
Stream size : 2.46 KiB (0%)
Title : forced
Language : Ukrainian
Default : No
Forced : No

Text #4
ID : 8
Format : UTF-8
Codec ID : S_TEXT/UTF8
Codec ID/Info : UTF-8 Plain Text
Duration : 2 h 10 min
Bit rate : 87 b/s
Count of elements : 1659
Stream size : 83.7 KiB (0%)
Title : full
Language : Ukrainian
Default : No
Forced : No

Text #5
ID : 9
Format : UTF-8
Codec ID : S_TEXT/UTF8
Codec ID/Info : UTF-8 Plain Text
Duration : 2 h 4 min
Bit rate : 55 b/s
Count of elements : 1618
Stream size : 50.7 KiB (0%)
Title : full
Language : English
Default : No
Forced : No

Text #6
ID : 10
Format : UTF-8
Codec ID : S_TEXT/UTF8
Codec ID/Info : UTF-8 Plain Text
Duration : 2 h 10 min
Bit rate : 58 b/s
Count of elements : 1835
Stream size : 56.3 KiB (0%)
Title : SDH
Language : English
Default : No
Forced : No

Menu
00:00:00.000 : :Chapter 01
00:09:09.090 : :Chapter 02
00:18:35.781 : :Chapter 03
00:23:04.299 : :Chapter 04
00:33:00.353 : :Chapter 05
00:42:44.853 : :Chapter 06
00:50:01.623 : :Chapter 07
01:01:09.624 : :Chapter 08
01:14:45.063 : :Chapter 09
01:22:21.269 : :Chapter 10
01:32:09.899 : :Chapter 11
01:41:55.567 : :Chapter 12
01:51:37.816 : :Chapter 13
01:59:20.987 : :Chapter 14
02:02:17.788 : :Chapter 15
Загрузка...Cкриншот1 Тихоокеанский рубеж / Pacific Rim (2013) UHD-BDRip 1080p [HEVC] 10 bit [HDR] от Mr. FoxЗагрузка...Cкриншот2 Тихоокеанский рубеж / Pacific Rim (2013) UHD-BDRip 1080p [HEVC] 10 bit [HDR] от Mr. FoxЗагрузка...Cкриншот3 Тихоокеанский рубеж / Pacific Rim (2013) UHD-BDRip 1080p [HEVC] 10 bit [HDR] от Mr. FoxЗагрузка...Cкриншот4 Тихоокеанский рубеж / Pacific Rim (2013) UHD-BDRip 1080p [HEVC] 10 bit [HDR] от Mr. Fox
2. Тихоокеанский рубеж 2 / Pacific Rim: Uprising (2018) UHD-BDRip 1080p [HEVC] 10 bit [HDR] от Mr. Fox
Обложка Тихоокеанский рубеж 2 / Pacific Rim: Uprising (2018) UHD-BDRip 1080p [HEVC] 10 bit [HDR] от Mr. Fox
HEVC
HDR
10 bit
✂︎Сэмпл
Год: 2018
Страна: Великобритания, Китай, Япония, США
Студия: Double Dare You (DDY), Double Negative, Legendary Pictures, Perfect World (Beijing) Pictures Co., Twisted Media, Universal Pictures
Жанр: Фантастика, Боевик, Приключения
Длительность: 01:50:44

Режиссер: Стивен С. ДеНайт
В ролях: Джон Бойега, Скотт Иствуд, Кэйли Спэни, Берн Горман, Чарли Дэй, Цзин Тянь, Макс Чжан, Адриа Архона, Ринко Кикути, Каран Брэр

Описание: Команда пилотируемых роботов-защитников остановила вторжение гигантских инопланетных монстров. Великая битва за Тихоокеанский рубеж ознаменовала новую главу в истории человечества. Однако война только начинается… Пришло время нового поколения отстаивать своё право на Землю.


Видео: 1920x800, ~8355 Кбит/сек
Аудио1: AC3, 6 ch, 640 Kbps - РусскийРусский, Дублированный (Лицензия)
Аудио2: AC3, 6 ch, 384 Kbps - УкраинскийУкраинский, Дублированный (iTunes)
Аудио3: AC3, 6 ch, 448 Kbps - АнглийскийАнглийский, Оригинал
Субтитры: русские (форсированные, полные), украинские (форсированные, полные), английские (полные, SDH)

Как за несколько секунд удалить ненужные аудиодорожки и субтитры (Внимание! После удаления вы не сможете поддержать раздачу)


Лог (x265 info)x265 [info]: frame I: Avg QP:17.65 kb/s
x265 [info]: frame P: Avg QP:18.69 kb/s
x265 [info]: frame B: Avg QP:20.91 kb/s
МедиаинфоGeneral
Unique ID : 208751810389099863100133817793786226285 (0x9D0C22E1C2D91C7873F3C9C03AB1266D)
Complete name : E:\Torrent\Pacific Rim Uprising (2018).mkv
Format : Matroska
Format version : Version 4
File size : 7.60 GiB
Duration : 1 h 50 min
Overall bit rate : 9 830 kb/s
Movie name : Pacific Rim: Uprising (2018)
Encoded date : UTC 2021-05-23 15:13:49
Writing application : mkvmerge v56.0.0 ('Strasbourg / St. Denis') 64-bit
Writing library : libebml v1.4.2 + libmatroska v1.6.4
Cover : Yes
Attachments : cover

Video
ID : 1
Format : HEVC
Format/Info : High Efficiency Video Coding
Format profile : Main 10@L4.1@High
HDR format : SMPTE ST 2086, HDR10 compatible
Codec ID : V_MPEGH/ISO/HEVC
Duration : 1 h 50 min
Bit rate : 8 355 kb/s
Width : 1 920 pixels
Height : 800 pixels
Display aspect ratio : 2.40:1
Frame rate mode : Constant
Frame rate : 23.976 (23976/1000) FPS
Original frame rate : 23.976 (24000/1001) FPS
Color space : YUV
Chroma subsampling : 4:2:0 (Type 2)
Bit depth : 10 bits
Bits/(Pixel*Frame) : 0.227
Stream size : 6.46 GiB (85%)
Writing library : x265 3.5+1-ce882936d:[Windows][MSVC 1928][64 bit] 10bit
Encoding settings : cpuid=1111039 / frame-threads=4 / numa-pools=16 / wpp / no-pmode / no-pme / no-psnr / no-ssim / log-level=2 / input-csp=1 / input-res=1920x800 / interlace=0 / total-frames=159302 / level-idc=41 / high-tier=1 / uhd-bd=0 / ref=5 / no-allow-non-conformance / repeat-headers / annexb / no-aud / no-hrd / info / hash=0 / no-temporal-layers / open-gop / min-keyint=23 / keyint=240 / gop-lookahead=0 / bframes=16 / b-adapt=2 / b-pyramid / bframe-bias=0 / rc-lookahead=60 / lookahead-slices=4 / scenecut=40 / hist-scenecut=0 / radl=0 / no-splice / no-intra-refresh / ctu=32 / min-cu-size=8 / rect / amp / max-tu-size=32 / tu-inter-depth=4 / tu-intra-depth=4 / limit-tu=1 / rdoq-level=2 / dynamic-rd=0.00 / no-ssim-rd / signhide / no-tskip / nr-intra=0 / nr-inter=0 / no-constrained-intra / no-strong-intra-smoothing / max-merge=4 / limit-refs=2 / limit-modes / me=3 / subme=7 / merange=57 / temporal-mvp / no-frame-dup / no-hme / weightp / weightb / no-analyze-src-pics / deblock=-3:-3 / no-sao / no-sao-non-deblock / rd=6 / selective-sao=0 / no-early-skip / no-rskip / no-fast-intra / no-tskip-fast / no-cu-lossless / no-b-intra / no-splitrd-skip / rdpenalty=0 / psy-rd=2.00 / psy-rdoq=1.00 / no-rd-refine / no-lossless / cbqpoffs=0 / crqpoffs=0 / rc=crf / crf=19.0 / qcomp=0.65 / qpstep=4 / stats-write=0 / stats-read=0 / vbv-maxrate=50000 / vbv-bufsize=50000 / vbv-init=0.9 / min-vbv-fullness=50.0 / max-vbv-fullness=80.0 / crf-max=0.0 / crf-min=0.0 / ipratio=1.40 / pbratio=1.30 / aq-mode=1 / aq-strength=1.00 / no-cutree / zone-count=0 / no-strict-cbr / qg-size=32 / no-rc-grain / qpmax=69 / qpmin=0 / no-const-vbv / sar=1 / overscan=0 / videoformat=5 / range=0 / colorprim=9 / transfer=16 / colormatrix=9 / chromaloc=1 / chromaloc-top=2 / chromaloc-bottom=2 / display-window=0 / master-display=G(13250,34500)B(7500,3000)R(34000,16000)WP(15635,16450)L(10000000,50) / cll=1000,863 / min-luma=0 / max-luma=1023 / log2-max-poc-lsb=8 / vui-timing-info / vui-hrd-info / slices=1 / no-opt-qp-pps / no-opt-ref-list-length-pps / no-multi-pass-opt-rps / scenecut-bias=0.05 / hist-threshold=0.03 / no-opt-cu-delta-qp / no-aq-motion / hdr10 / hdr10-opt / no-dhdr10-opt / no-idr-recovery-sei / analysis-reuse-level=0 / analysis-save-reuse-level=0 / analysis-load-reuse-level=0 / scale-factor=0 / refine-intra=0 / refine-inter=0 / refine-mv=1 / refine-ctu-distortion=0 / no-limit-sao / ctu-info=0 / no-lowpass-dct / refine-analysis-type=0 / copy-pic=1 / max-ausize-factor=1.0 / no-dynamic-refine / no-single-sei / no-hevc-aq / no-svt / no-field / qp-adaptation-range=1.00 / scenecut-aware-qp=0conformance-window-offsets / right=0 / bottom=0 / decoder-max-rate=0 / no-vbv-live-multi-pass
Default : Yes
Forced : No
Color range : Limited
Color primaries : BT.2020
Transfer characteristics : PQ
Matrix coefficients : BT.2020 non-constant
Mastering display color primar : Display P3
Mastering display luminance : min: 0.0050 cd/m2, max: 1000 cd/m2
Maximum Content Light Level : 1000 cd/m2
Maximum Frame-Average Light Le : 863 cd/m2

Audio #1
ID : 2
Format : AC-3
Format/Info : Audio Coding 3
Commercial name : Dolby Digital
Codec ID : A_AC3
Duration : 1 h 50 min
Bit rate mode : Constant
Bit rate : 640 kb/s
Channel(s) : 6 channels
Channel layout : L R C LFE Ls Rs
Sampling rate : 48.0 kHz
Frame rate : 31.250 FPS (1536 SPF)
Compression mode : Lossy
Stream size : 507 MiB (7%)
Title : Дубляж (Лицензия)
Language : Russian
Service kind : Complete Main
Default : Yes
Forced : No

Audio #2
ID : 3
Format : AC-3
Format/Info : Audio Coding 3
Commercial name : Dolby Digital
Codec ID : A_AC3
Duration : 1 h 50 min
Bit rate mode : Constant
Bit rate : 384 kb/s
Channel(s) : 6 channels
Channel layout : L R C LFE Ls Rs
Sampling rate : 48.0 kHz
Frame rate : 31.250 FPS (1536 SPF)
Compression mode : Lossy
Stream size : 304 MiB (4%)
Title : Дубляж (iTunes)
Language : Ukrainian
Service kind : Complete Main
Default : No
Forced : No

Audio #3
ID : 4
Format : AC-3
Format/Info : Audio Coding 3
Commercial name : Dolby Digital
Format settings : Dolby Surround EX
Codec ID : A_AC3
Duration : 1 h 50 min
Bit rate mode : Constant
Bit rate : 448 kb/s
Channel(s) : 6 channels
Channel layout : L R C LFE Ls Rs
Sampling rate : 48.0 kHz
Frame rate : 31.250 FPS (1536 SPF)
Compression mode : Lossy
Stream size : 355 MiB (5%)
Title : Original
Language : English
Service kind : Complete Main
Default : No
Forced : No

Text #1
ID : 5
Format : UTF-8
Codec ID : S_TEXT/UTF8
Codec ID/Info : UTF-8 Plain Text
Duration : 1 h 38 min
Bit rate : 1 b/s
Count of elements : 25
Stream size : 1.15 KiB (0%)
Title : Forced
Language : Russian
Default : Yes
Forced : Yes

Text #2
ID : 6
Format : UTF-8
Codec ID : S_TEXT/UTF8
Codec ID/Info : UTF-8 Plain Text
Duration : 1 h 40 min
Bit rate : 104 b/s
Count of elements : 1191
Stream size : 76.6 KiB (0%)
Title : Full
Language : Russian
Default : No
Forced : No

Text #3
ID : 7
Format : UTF-8
Codec ID : S_TEXT/UTF8
Codec ID/Info : UTF-8 Plain Text
Duration : 1 h 38 min
Bit rate : 4 b/s
Count of elements : 58
Stream size : 3.57 KiB (0%)
Title : Forced
Language : Ukrainian
Default : No
Forced : No

Text #4
ID : 8
Format : UTF-8
Codec ID : S_TEXT/UTF8
Codec ID/Info : UTF-8 Plain Text
Duration : 1 h 49 min
Bit rate : 84 b/s
Count of elements : 1455
Stream size : 68.1 KiB (0%)
Title : Full
Language : Ukrainian
Default : No
Forced : No

Text #5
ID : 9
Format : UTF-8
Codec ID : S_TEXT/UTF8
Codec ID/Info : UTF-8 Plain Text
Duration : 1 h 40 min
Bit rate : 59 b/s
Count of elements : 1161
Stream size : 43.4 KiB (0%)
Title : Full
Language : English
Default : No
Forced : No

Text #6
ID : 10
Format : UTF-8
Codec ID : S_TEXT/UTF8
Codec ID/Info : UTF-8 Plain Text
Duration : 1 h 40 min
Bit rate : 65 b/s
Count of elements : 1600
Stream size : 48.4 KiB (0%)
Title : SDH
Language : English
Default : No
Forced : No

Menu
00:00:00.000 : Chapter 1
00:06:55.289 : Chapter 2
00:13:06.160 : Chapter 3
00:15:52.034 : Chapter 4
00:20:37.611 : Chapter 5
00:24:51.198 : Chapter 6
00:31:10.118 : Chapter 7
00:37:58.359 : Chapter 8
00:43:40.576 : Chapter 9
00:49:04.691 : Chapter 10
00:53:44.137 : Chapter 11
00:58:15.533 : Chapter 12
01:04:48.885 : Chapter 13
01:09:29.707 : Chapter 14
01:14:41.185 : Chapter 15
01:22:58.390 : Chapter 16
01:29:07.884 : Chapter 17
01:33:16.173 : Chapter 18
01:38:13.262 : Chapter 19
01:41:01.096 : Chapter 20
Загрузка...Cкриншот1 Тихоокеанский рубеж 2 / Pacific Rim: Uprising (2018) UHD-BDRip 1080p [HEVC] 10 bit [HDR] от Mr. FoxЗагрузка...Cкриншот2 Тихоокеанский рубеж 2 / Pacific Rim: Uprising (2018) UHD-BDRip 1080p [HEVC] 10 bit [HDR] от Mr. FoxЗагрузка...Cкриншот3 Тихоокеанский рубеж 2 / Pacific Rim: Uprising (2018) UHD-BDRip 1080p [HEVC] 10 bit [HDR] от Mr. FoxЗагрузка...Cкриншот4 Тихоокеанский рубеж 2 / Pacific Rim: Uprising (2018) UHD-BDRip 1080p [HEVC] 10 bit [HDR] от Mr. Fox

Поблагодарили: 10alenu, alexyak, AndresUA, diesel0000, garant3v, Kiran, makss333, NoMaD, Nuclear70, StarLord
Файлы: 2
  • Pacific Rim
    • 8.74 ГБPacific Rim (2013).mkv
    • 7.6 ГБPacific Rim Uprising (2018).mkv

Рейтинги КП и IMDB, кнопки "Раздайте, пожалуйста" и "Спасибо", а также мультитрекерная статистика доступны только зарегистрированным/авторизованным пользователям!

Гл. Админ
037490(2) 16.34 ГБ

💬︎ Комментарии

Добавление комментариев доступно только зарегистрированным/авторизованным пользователям.