💬 Мини-чат

OldGamerНасколько я помню, даже мой первый стик 2014 года тянул hevc, хотя и подтупливал на перемотке
OldGamerВыбирайте по цене и отзывам.
OldGamerСообщение удалено (удалил: OldGamer)
OldGamerЛюбой, всё что выпускалось за последние 3 года, вполне тянет hevc. Чуть раньше в чате ссылку давал на обсуждения на 4пда.
SAHA55Подскажите,пожалуйста какой купить медио плеер для просмотра видео в HEVC x265 с переносного жёсткого на 1 Тб. TV старый Panasonic
  • OldGamer
  • Chestnoc
  • Nuclear70
Отправка сообщений доступна только зарегистрированным/авторизованным пользователям.
Онлайн (за 10 мин.): 3

Пока не сыграл в ящик / The Bucket List (2007) BDRip 1080p [HEVC] 10 bit от -Star-Lord- (RG RIPS CLUB)

HEVC
10 bit
Обложка Пока не сыграл в ящик / The Bucket List (2007) BDRip 1080p [HEVC] 10 bit от -Star-Lord- (RG RIPS CLUB) Год: 2007
Страна: США
Студия: Storyline Entertainment, Two Ton Films, Warner Bros. Pictures, Zadan, Meron Productions
Жанр: Драма, Комедия, Приключения
Продолжительность: 01:37:04

Режиссер: Роб Райнер
В ролях: Джек Николсон , Морган Фриман , Шон Хейс , Беверли Тодд , Роб Морроу , Альфонсо Фриман , Роуэна Кинг , Эннтон Берри мл. , Верда Бриджес , Дестини Браунридж , Брайан Коуплэнд , Йен Энтони Дэйл

Описание: Именно так решили два больных раком соседа по больничной палате, когда услышали свой приговор. Один из них вспыльчивый миллиардер, а второй эрудированный автомеханик. Они составляют список дел, которые необходимо сделать прежде, чем они сыграют в ящик, и отправляются в кругосветное путешествие, путешествие всей своей жизни. Прыжки с парашютом? Посмотрим. Гонки на раритетных автомобилях? Сделано. Посмотреть на пирамиды? Отлично. Открыть радость жизни прежде, чем станет слишком поздно? Точно!


Видео: 1920x1080, ~8763 Кбит/сек
Аудио1: AC3, 6 ch, 384 Kbps - РусскийРусский, Дублированный (R5)
Аудио2: AC3, 6 ch, 640 Kbps - РусскийРусский, Авторский одноголосый (Ю. Немахов)
Аудио3: AC3, 6 ch, 640 Kbps - РусскийРусский, Авторский одноголосый (А. Гаврилов)
Аудио4: AC3, 6 ch, 448 Kbps - УкраинскийУкраинский, Профессиональный многоголосый закадровый (Inter)
Аудио5: AC3, 6 ch, 640 Kbps - АнглийскийАнглийский, Оригинал
Субтитры: русские, украинские, английские (полные, SDH)

Как за пару секунд удалить ненужные аудиодорожки и субтитры (Внимание! После удаления вы не сможете поддержать раздачу)

Лог (x265 info)
x265 [info]: frame I: 1037, Avg QP:17.37 kb/s: 24691.47
x265 [info]: frame P: 25990, Avg QP:18.69 kb/s: 15943.56
x265 [info]: frame B: 112623, Avg QP:20.82 kb/s: 6958.76
x265 [info]: Weighted P-Frames: Y:4.3% UV:3.0%
x265 [info]: Weighted B-Frames: Y:4.1% UV:2.3%
x265 [info]: consecutive B-frames: 5.4% 1.9% 5.6% 16.6% 22.9% 36.2% 4.7% 4.6% 0.8% 0.5% 0.2% 0.1% 0.1% 0.1% 0.1% 0.1% 0.1%

encoded 139650 frames in 198267.44s (0.70 fps), 8762.59 kb/s, Avg QP:20.40
Медиаинфо
General
Unique ID : 123894397924994695798764110588172514586 (0x5D35316E61FDAC62BD07CF1D013B351A)
Complete name : The Bucket List (2007) BDRip 1080p H.265 [3xRUS_UKR_ENG] [RIPS-CLUB].mkv
Format : Matroska
Format version : Version 4
File size : 7.68 GiB
Duration : 1 h 37 min
Overall bit rate : 11.3 Mb/s
Movie name : Доки не склеїв ласти / The Bucket List (2007)
Encoded date : UTC 2021-09-01 23:06:42
Writing application : mkvmerge v20.0.0 ('I Am The Sun') 64-bit
Writing library : libebml v1.3.5 + libmatroska v1.4.8
Cover : Yes
Attachments : Cover.jpg

Video
ID : 1
Format : HEVC
Format/Info : High Efficiency Video Coding
Format profile : Main 10@L4.1@High
Codec ID : V_MPEGH/ISO/HEVC
Duration : 1 h 37 min
Bit rate : 8 763 kb/s
Width : 1 920 pixels
Height : 1 080 pixels
Display aspect ratio : 16:9
Frame rate mode : Constant
Frame rate : 23.976 (24000/1001) FPS
Color space : YUV
Chroma subsampling : 4:2:0
Bit depth : 10 bits
Bits/(Pixel*Frame) : 0.176
Stream size : 5.94 GiB (77%)
Title : Доки не склеїв ласти / The Bucket List (2007)
Writing library : x265 3.5+1-ce882936d:[Windows][GCC 10.2.0][64 bit] 10bit
Encoding settings : cpuid=1111039 / frame-threads=3 / numa-pools=12 / wpp / no-pmode / no-pme / no-psnr / no-ssim / log-level=2 / input-csp=1 / input-res=1920x1080 / interlace=0 / total-frames=139650 / level-idc=41 / high-tier=1 / uhd-bd=0 / ref=5 / no-allow-non-conformance / no-repeat-headers / annexb / no-aud / no-hrd / info / hash=0 / no-temporal-layers / open-gop / min-keyint=23 / keyint=240 / gop-lookahead=0 / bframes=16 / b-adapt=2 / b-pyramid / bframe-bias=0 / rc-lookahead=60 / lookahead-slices=4 / scenecut=40 / hist-scenecut=0 / radl=0 / no-splice / no-intra-refresh / ctu=32 / min-cu-size=8 / rect / amp / max-tu-size=32 / tu-inter-depth=4 / tu-intra-depth=4 / limit-tu=1 / rdoq-level=2 / dynamic-rd=0.00 / no-ssim-rd / signhide / no-tskip / nr-intra=0 / nr-inter=0 / no-constrained-intra / no-strong-intra-smoothing / max-merge=5 / limit-refs=2 / limit-modes / me=3 / subme=7 / merange=57 / temporal-mvp / no-frame-dup / no-hme / weightp / weightb / no-analyze-src-pics / deblock=-3:-3 / no-sao / no-sao-non-deblock / rd=6 / selective-sao=0 / no-early-skip / no-rskip / no-fast-intra / no-tskip-fast / no-cu-lossless / no-b-intra / no-splitrd-skip / rdpenalty=0 / psy-rd=2.00 / psy-rdoq=1.00 / no-rd-refine / no-lossless / cbqpoffs=0 / crqpoffs=0 / rc=crf / crf=20.5 / qcomp=0.70 / qpstep=4 / stats-write=0 / stats-read=0 / vbv-maxrate=50000 / vbv-bufsize=50000 / vbv-init=0.9 / min-vbv-fullness=50.0 / max-vbv-fullness=80.0 / crf-max=0.0 / crf-min=0.0 / ipratio=1.40 / pbratio=1.30 / aq-mode=1 / aq-strength=1.00 / no-cutree / zone-count=0 / no-strict-cbr / qg-size=32 / no-rc-grain / qpmax=69 / qpmin=0 / no-const-vbv / sar=1 / overscan=0 / videoformat=5 / range=0 / colorprim=2 / transfer=2 / colormatrix=2 / chromaloc=0 / display-window=0 / cll=0,0 / min-luma=0 / max-luma=1023 / log2-max-poc-lsb=8 / vui-timing-info / vui-hrd-info / slices=1 / no-opt-qp-pps / no-opt-ref-list-length-pps / no-multi-pass-opt-rps / scenecut-bias=0.05 / hist-threshold=0.03 / no-opt-cu-delta-qp / no-aq-motion / no-hdr10 / no-hdr10-opt / no-dhdr10-opt / no-idr-recovery-sei / analysis-reuse-level=0 / analysis-save-reuse-level=0 / analysis-load-reuse-level=0 / scale-factor=0 / refine-intra=0 / refine-inter=0 / refine-mv=1 / refine-ctu-distortion=0 / no-limit-sao / ctu-info=0 / no-lowpass-dct / refine-analysis-type=0 / copy-pic=1 / max-ausize-factor=1.0 / no-dynamic-refine / no-single-sei / no-hevc-aq / no-svt / no-field / qp-adaptation-range=1.00 / scenecut-aware-qp=0conformance-window-offsets / right=0 / bottom=0 / decoder-max-rate=0 / no-vbv-live-multi-pass
Language : English
Default : Yes
Forced : Yes

Audio #1
ID : 2
Format : AC-3
Format/Info : Audio Coding 3
Commercial name : Dolby Digital
Codec ID : A_AC3
Duration : 1 h 37 min
Bit rate mode : Constant
Bit rate : 384 kb/s
Channel(s) : 6 channels
Channel layout : L R C LFE Ls Rs
Sampling rate : 48.0 kHz
Frame rate : 31.250 FPS (1536 SPF)
Compression mode : Lossy
Stream size : 267 MiB (3%)
Title : AC-3 / 5.1 Ch / 384 kbps / DUB / R5
Language : Russian
Service kind : Complete Main
Default : Yes
Forced : Yes

Audio #2
ID : 3
Format : AC-3
Format/Info : Audio Coding 3
Commercial name : Dolby Digital
Codec ID : A_AC3
Duration : 1 h 37 min
Bit rate mode : Constant
Bit rate : 640 kb/s
Channel(s) : 6 channels
Channel layout : L R C LFE Ls Rs
Sampling rate : 48.0 kHz
Frame rate : 31.250 FPS (1536 SPF)
Compression mode : Lossy
Stream size : 444 MiB (6%)
Title : AC-3 / 5.1 Ch / 640 kbps / AVO / Ю. Немахов
Language : Russian
Service kind : Complete Main
Default : No
Forced : No

Audio #3
ID : 4
Format : AC-3
Format/Info : Audio Coding 3
Commercial name : Dolby Digital
Codec ID : A_AC3
Duration : 1 h 37 min
Bit rate mode : Constant
Bit rate : 448 kb/s
Channel(s) : 6 channels
Channel layout : L R C LFE Ls Rs
Sampling rate : 48.0 kHz
Frame rate : 31.250 FPS (1536 SPF)
Compression mode : Lossy
Stream size : 311 MiB (4%)
Title : AC-3 / 5.1 Ch / 448 kbps / AVO / А. Гаврилов
Language : Russian
Service kind : Complete Main
Default : No
Forced : No

Audio #4
ID : 5
Format : AC-3
Format/Info : Audio Coding 3
Commercial name : Dolby Digital
Codec ID : A_AC3
Duration : 1 h 37 min
Bit rate mode : Constant
Bit rate : 640 kb/s
Channel(s) : 6 channels
Channel layout : L R C LFE Ls Rs
Sampling rate : 48.0 kHz
Frame rate : 31.250 FPS (1536 SPF)
Compression mode : Lossy
Delay relative to video : 42 ms
Stream size : 444 MiB (6%)
Title : AC-3 / 5.1 Ch / 640 kbps / Original
Language : English
Service kind : Complete Main
Default : No
Forced : No

Audio #5
ID : 6
Format : AC-3
Format/Info : Audio Coding 3
Commercial name : Dolby Digital
Codec ID : A_AC3
Duration : 1 h 37 min
Bit rate mode : Constant
Bit rate : 448 kb/s
Channel(s) : 6 channels
Channel layout : L R C LFE Ls Rs
Sampling rate : 48.0 kHz
Frame rate : 31.250 FPS (1536 SPF)
Compression mode : Lossy
Stream size : 311 MiB (4%)
Title : AC-3 / 5.1 Ch / 448 kbps / MVO / Inter
Language : Ukrainian
Service kind : Complete Main
Default : No
Forced : No

Text #1
ID : 7
Format : UTF-8
Codec ID : S_TEXT/UTF8
Codec ID/Info : UTF-8 Plain Text
Duration : 1 h 31 min
Bit rate : 102 b/s
Count of elements : 1211
Stream size : 69.0 KiB (0%)
Title : Full
Language : Russian
Default : No
Forced : No

Text #2
ID : 8
Format : UTF-8
Codec ID : S_TEXT/UTF8
Codec ID/Info : UTF-8 Plain Text
Duration : 1 h 31 min
Bit rate : 103 b/s
Count of elements : 1211
Stream size : 69.5 KiB (0%)
Title : Full by w2958l
Language : Ukrainian
Default : No
Forced : No

Text #3
ID : 9
Format : UTF-8
Codec ID : S_TEXT/UTF8
Codec ID/Info : UTF-8 Plain Text
Duration : 1 h 31 min
Bit rate : 61 b/s
Count of elements : 1240
Stream size : 41.2 KiB (0%)
Title : Full
Language : English
Default : No
Forced : No

Text #4
ID : 10
Format : UTF-8
Codec ID : S_TEXT/UTF8
Codec ID/Info : UTF-8 Plain Text
Duration : 1 h 36 min
Bit rate : 61 b/s
Count of elements : 1309
Stream size : 43.2 KiB (0%)
Title : SDH
Language : English
Default : No
Forced : No

Menu
00:00:00.000 : en:About Edward
00:01:30.090 : en:Two Ailing Men
00:06:09.703 : en:Roommates
00:12:38.424 : en:Coffee Origins
00:17:06.359 : en:Life Choices
00:23:10.723 : en:Getting Familiar
00:29:30.936 : en:Bucket List
00:35:30.128 : en:Time for Myself
00:38:45.490 : en:Skydiving
00:42:03.688 : en:Need for Speed
00:45:58.756 : en:In-Flight Faith
00:49:39.476 : en:Little Accident
00:53:04.681 : en:Lost Along the Way
00:57:50.133 : en:Two Questions
01:03:42.652 : en:Ashes in a Can
01:06:43.666 : en:Carter's Mountain
01:09:18.988 : en:Temptation
01:14:11.113 : en:I'm Not Everyone
01:16:35.925 : en:Homecomings
01:20:54.349 : en:Word with the Owner
01:23:23.665 : en:Cats Beat Me to It
01:26:55.710 : en:Find the Joy
01:32:21.536 : en:End Credits
Загрузка...Cкриншот1 Пока не сыграл в ящик / The Bucket List (2007) BDRip 1080p [HEVC] 10 bit от -Star-Lord- (RG RIPS CLUB)Загрузка...Cкриншот2 Пока не сыграл в ящик / The Bucket List (2007) BDRip 1080p [HEVC] 10 bit от -Star-Lord- (RG RIPS CLUB)Загрузка...Cкриншот3 Пока не сыграл в ящик / The Bucket List (2007) BDRip 1080p [HEVC] 10 bit от -Star-Lord- (RG RIPS CLUB)Загрузка...Cкриншот4 Пока не сыграл в ящик / The Bucket List (2007) BDRip 1080p [HEVC] 10 bit от -Star-Lord- (RG RIPS CLUB)
Релиз-группа: RIPS CLUB
Сэмпл Торрент🧲 Магнет

Рейтинги КП и IMDB, кнопки "Позвать в чате" и "Спасибо", а также мультитрекерная статистика доступны только зарегистрированным/авторизованным пользователям!

Файлы: 1
  • The Bucket List (2007) BDRip 1080p H.265 [3xRUS_UKR_ENG] [RIPS-CLUB].mkv   7.68 ГБ
Поблагодарили: 12
and50, Brooklyn, Diman, donadar, Kilop77, ko1ob, makss333, mvclub, Nuclear70, sharkey71, Spartanec1308, uzas1985
StarLord
0961207.68 ГБ

Добавление нового комментария

Добавление комментариев доступно только зарегистрированным/авторизованным пользователям.