💬 Мини-чат

OldGamerdonadar, нет, очень страшного кино не планировал 😀
donadarOldGamer, Спасибо за будущий Крик😀 А будет в планах "Очень страшное кино коллекция"?
AlexTwittСообщение удалено (удалил: AlexTwitt)
StarLordADVOKAT69, супер)
ADVOKAT69StarLord, хорошо!
StarLordADVOKAT69, привет)) как оно?)
Mr. Foxда, это не претензия и не предмет спора, это личное мнение, можно не развивать
Mr. FoxOldGamer, ну если честно, я в курсе, как по мне там даже на желтую не тянуло, но как говорится хозяин - барин
OldGamerMr. Fox, ничего нового или неожиданного, всё как и на других трекерах 😀 С - Стабильность.
Mr. FoxOldGamer, что ж такого NoMaD натворил, интересно
OldGamerПользователь NoMaD забанен навсегда
  • OldGamer
  • IRIT
Отправка сообщений доступна только зарегистрированным/авторизованным пользователям.
Онлайн (за 10 мин.): 2

Разборки в стиле Кунг-фу / Kung fu (2004) [USA Transfer] BDRip 1080p [HEVC] 10 bit от -Star-Lord- (RG RIPS CLUB)

HEVC
10 bit
Обложка Разборки в стиле Кунг-фу / Kung fu (2004) [USA Transfer] BDRip 1080p [HEVC] 10 bit от -Star-Lord- (RG RIPS CLUB) Год: 2004
Страна: Гонконг, Китай
Студия: Beijing Film Studio, China Film Group Corporation, Columbia Pictures Film Production Asia, Huayi Brothers, Star Overseas
Жанр: Фэнтези, Боевик, Комедия, Криминал
Продолжительность: 01:39:25

Режиссер: Стивен Чоу
В ролях: Стивен Чоу, Сяоган Фэн, Ва Юэнь, Жи Хуа Донг, Квок-Куен Чан, Лам Чи Чунг, Сю-Люн Люн, Цю Юен, Кай Ман Тинь, Кенг Кси Джиа, Фунг Харк-Он, Шэн И Хуан, Сует Лам, Чеунг-Ян Юэнь, Чи Чи Линг, Син Юй, Чжан Ибай, Си Лу Рен, Сяо Ланг Динг, Минг Минг Чжан, Оливер Вонг, Кай Ши Чен, Уэллсон Чин, Вэнь Хуи Хе, Дэвид Хунг, Билли Ма, Хао Тиан Йуан, Мин Хун Фанг, Нан Ян, Чао Ксиа Лью

Описание: 30-е годы ХХ века — время господства на улицах Шанхая жестоких правил, установленных бандами, поделившими город на сферы влияния. Группировка, носящая название Топоры, наводит страх на мирных жителей и вдохновляет на подвиги юных подражателей. Однажды один из таких не в меру горячих юношей устраивает настоящий погром в трущобах на окраине города, выдавая себя при этом за одного из Топоров. Это становится причиной для начала войны между настоящими участниками банды и обитателями местных домов, которые в совершенстве владеют приемами кунг-фу…


Исходник: Kung Fu Hustle 2004 1080p BluRay REMUX MPEG-2 DTS-HD MA 5.1-C0M3T
Видео: 1920x800, ~6510 Кбит/сек
Аудио1: AC3, 6 ch, 448 Kbps - РусскийРусский, Дублированный (R5)
Аудио2: AC3, 6 ch, 448 Kbps - РусскийРусский, Профессиональный многоголосый закадровый
Аудио3: AC3, 6 ch, 448 Kbps - РусскийРусский, Профессиональный двухголосый закадровый (Tycoon)
Аудио4: AC3, 6 ch, 384 Kbps - РусскийРусский, Профессиональный двухголосый закадровый (Gemini)
Аудио5: AC3, 2 ch, 192 Kbps - РусскийРусский, Профессиональный двухголосый закадровый (ОРТ, TZ-Crew)
Аудио6: AC3, 6 ch, 640 Kbps - УкраинскийУкраинский, Профессиональный многоголосый закадровый (Канал "Україна")
Аудио7: AC3, 6 ch, 640 Kbps - КитайскийКитайский, Оригинал
Аудио8: AC3, 2 ch, 192 Kbps - КитайскийКитайский, Commentary with Stephen Chow, Chan Kwok-kwan, Lam Tze-chung and Tin Kai-man
Субтитры: русские (полные х3), украинские (форс. полные), английские (полные, SDH, Commentary)

Как за пару секунд удалить ненужные аудиодорожки и субтитры (Внимание! После удаления вы не сможете поддержать раздачу)

Лог (x265 info)
x265 [info]: frame I: 1348, Avg QP:17.16 kb/s: 15634.24
x265 [info]: frame P: 27640, Avg QP:18.57 kb/s: 11091.55
x265 [info]: frame B: 114052, Avg QP:20.63 kb/s: 5292.60
x265 [info]: Weighted P-Frames: Y:9.1% UV:7.2%
x265 [info]: Weighted B-Frames: Y:6.7% UV:4.9%
x265 [info]: consecutive B-frames: 8.9% 5.5% 9.6% 14.4% 7.1% 46.9% 2.9% 0.9% 1.1% 0.2% 0.4% 1.7% 0.2% 0.1% 0.1% 0.1% 0.1%

encoded 143040 frames in 385973.74s (0.37 fps), 6510.61 kb/s, Avg QP:20.20
Медиаинфо
General
Unique ID : 133219196484946881820227592168987009801 (0x6439157EE93083521F9D34C11511A309)
Complete name : Kung Fu (2004) [USA Transfer] BDRip 1080p H.265 [5xRUS_UKR_CHI] [RIPS-CLUB].mkv
Format : Matroska
Format version : Version 4
File size : 6.88 GiB
Duration : 1 h 39 min
Overall bit rate : 9 908 kb/s
Movie name : Разборки в стиле Кунг-фу / Розбірки в стилі кунг-фу / Kung Fu Hustle (2004)
Encoded date : UTC 2021-07-19 16:01:25
Writing application : mkvmerge v20.0.0 ('I Am The Sun') 64-bit
Writing library : libebml v1.3.5 + libmatroska v1.4.8
Cover : Yes
Attachments : Cover.jpg

Video
ID : 1
Format : HEVC
Format/Info : High Efficiency Video Coding
Format profile : Main 10@L4.1@High
Codec ID : V_MPEGH/ISO/HEVC
Duration : 1 h 39 min
Bit rate : 6 511 kb/s
Width : 1 920 pixels
Height : 800 pixels
Display aspect ratio : 2.40:1
Frame rate mode : Constant
Frame rate : 23.976 (24000/1001) FPS
Color space : YUV
Chroma subsampling : 4:2:0
Bit depth : 10 bits
Bits/(Pixel*Frame) : 0.177
Stream size : 4.52 GiB (66%)
Title : Разборки в стиле Кунг-фу / Розбірки в стилі кунг-фу / Kung Fu Hustle (2004)
Writing library : x265 3.5+1-ce882936d:[Windows][GCC 10.2.0][64 bit] 10bit
Encoding settings : cpuid=1111039 / frame-threads=3 / numa-pools=12 / wpp / no-pmode / no-pme / no-psnr / no-ssim / log-level=2 / input-csp=1 / input-res=1920x800 / interlace=0 / total-frames=143040 / level-idc=41 / high-tier=1 / uhd-bd=0 / ref=5 / no-allow-non-conformance / no-repeat-headers / annexb / no-aud / no-hrd / info / hash=0 / no-temporal-layers / open-gop / min-keyint=23 / keyint=240 / gop-lookahead=0 / bframes=16 / b-adapt=2 / b-pyramid / bframe-bias=0 / rc-lookahead=60 / lookahead-slices=4 / scenecut=40 / hist-scenecut=0 / radl=0 / no-splice / no-intra-refresh / ctu=32 / min-cu-size=8 / rect / amp / max-tu-size=32 / tu-inter-depth=4 / tu-intra-depth=4 / limit-tu=1 / rdoq-level=2 / dynamic-rd=0.00 / no-ssim-rd / signhide / no-tskip / nr-intra=0 / nr-inter=0 / no-constrained-intra / no-strong-intra-smoothing / max-merge=5 / limit-refs=2 / limit-modes / me=3 / subme=7 / merange=57 / temporal-mvp / no-frame-dup / no-hme / weightp / weightb / no-analyze-src-pics / deblock=-3:-3 / no-sao / no-sao-non-deblock / rd=6 / selective-sao=0 / no-early-skip / no-rskip / no-fast-intra / no-tskip-fast / no-cu-lossless / no-b-intra / no-splitrd-skip / rdpenalty=0 / psy-rd=2.00 / psy-rdoq=1.00 / no-rd-refine / no-lossless / cbqpoffs=0 / crqpoffs=0 / rc=crf / crf=20.5 / qcomp=0.65 / qpstep=4 / stats-write=0 / stats-read=0 / vbv-maxrate=50000 / vbv-bufsize=50000 / vbv-init=0.9 / min-vbv-fullness=50.0 / max-vbv-fullness=80.0 / crf-max=0.0 / crf-min=0.0 / ipratio=1.40 / pbratio=1.30 / aq-mode=1 / aq-strength=1.00 / no-cutree / zone-count=0 / no-strict-cbr / qg-size=32 / no-rc-grain / qpmax=69 / qpmin=0 / no-const-vbv / sar=1 / overscan=0 / videoformat=5 / range=0 / colorprim=2 / transfer=2 / colormatrix=2 / chromaloc=0 / display-window=0 / cll=0,0 / min-luma=0 / max-luma=1023 / log2-max-poc-lsb=8 / vui-timing-info / vui-hrd-info / slices=1 / no-opt-qp-pps / no-opt-ref-list-length-pps / no-multi-pass-opt-rps / scenecut-bias=0.05 / hist-threshold=0.03 / no-opt-cu-delta-qp / no-aq-motion / no-hdr10 / no-hdr10-opt / no-dhdr10-opt / no-idr-recovery-sei / analysis-reuse-level=0 / analysis-save-reuse-level=0 / analysis-load-reuse-level=0 / scale-factor=0 / refine-intra=0 / refine-inter=0 / refine-mv=1 / refine-ctu-distortion=0 / no-limit-sao / ctu-info=0 / no-lowpass-dct / refine-analysis-type=0 / copy-pic=1 / max-ausize-factor=1.0 / no-dynamic-refine / no-single-sei / no-hevc-aq / no-svt / no-field / qp-adaptation-range=1.00 / scenecut-aware-qp=0conformance-window-offsets / right=0 / bottom=0 / decoder-max-rate=0 / no-vbv-live-multi-pass
Language : Chinese
Default : Yes
Forced : Yes

Audio #1
ID : 2
Format : AC-3
Format/Info : Audio Coding 3
Commercial name : Dolby Digital
Codec ID : A_AC3
Duration : 1 h 39 min
Bit rate mode : Constant
Bit rate : 448 kb/s
Channel(s) : 6 channels
Channel layout : L R C LFE Ls Rs
Sampling rate : 48.0 kHz
Frame rate : 31.250 FPS (1536 SPF)
Compression mode : Lossy
Stream size : 319 MiB (5%)
Title : AC-3 / 5.1 Ch / 448 kbps / DUB / R5
Language : Russian
Service kind : Complete Main
Default : Yes
Forced : Yes

Audio #2
ID : 3
Format : AC-3
Format/Info : Audio Coding 3
Commercial name : Dolby Digital
Codec ID : A_AC3
Duration : 1 h 39 min
Bit rate mode : Constant
Bit rate : 448 kb/s
Channel(s) : 6 channels
Channel layout : L R C LFE Ls Rs
Sampling rate : 48.0 kHz
Frame rate : 31.250 FPS (1536 SPF)
Compression mode : Lossy
Stream size : 319 MiB (5%)
Title : AC-3 / 5.1 Ch / 448 kbps / MVO
Language : Russian
Service kind : Complete Main
Default : No
Forced : No

Audio #3
ID : 4
Format : AC-3
Format/Info : Audio Coding 3
Commercial name : Dolby Digital
Codec ID : A_AC3
Duration : 1 h 39 min
Bit rate mode : Constant
Bit rate : 448 kb/s
Channel(s) : 6 channels
Channel layout : L R C LFE Ls Rs
Sampling rate : 48.0 kHz
Frame rate : 31.250 FPS (1536 SPF)
Compression mode : Lossy
Stream size : 319 MiB (5%)
Title : AC-3 / 5.1 Ch / 448 kbps / DVO / Tycoon
Language : Russian
Service kind : Complete Main
Default : No
Forced : No

Audio #4
ID : 5
Format : AC-3
Format/Info : Audio Coding 3
Commercial name : Dolby Digital
Codec ID : A_AC3
Duration : 1 h 39 min
Bit rate mode : Constant
Bit rate : 384 kb/s
Channel(s) : 6 channels
Channel layout : L R C LFE Ls Rs
Sampling rate : 48.0 kHz
Frame rate : 31.250 FPS (1536 SPF)
Compression mode : Lossy
Stream size : 273 MiB (4%)
Title : AC-3 / 5.1 Ch / 384 kbps / DVO / Gemini
Language : Russian
Service kind : Complete Main
Default : No
Forced : No

Audio #5
ID : 6
Format : AC-3
Format/Info : Audio Coding 3
Commercial name : Dolby Digital
Codec ID : A_AC3
Duration : 1 h 39 min
Bit rate mode : Constant
Bit rate : 192 kb/s
Channel(s) : 2 channels
Channel layout : L R
Sampling rate : 48.0 kHz
Frame rate : 31.250 FPS (1536 SPF)
Compression mode : Lossy
Stream size : 137 MiB (2%)
Title : AC-3 / 2.0 Ch / 192 kbps / DVO / ОРТ, TZ-Crew
Language : Russian
Service kind : Complete Main
Default : No
Forced : No

Audio #6
ID : 7
Format : AC-3
Format/Info : Audio Coding 3
Commercial name : Dolby Digital
Codec ID : A_AC3
Duration : 1 h 39 min
Bit rate mode : Constant
Bit rate : 640 kb/s
Channel(s) : 6 channels
Channel layout : L R C LFE Ls Rs
Sampling rate : 48.0 kHz
Frame rate : 31.250 FPS (1536 SPF)
Compression mode : Lossy
Stream size : 454 MiB (6%)
Title : AC-3 / 5.1 Ch / 640 kbps / MVO / Канал "Україна"
Language : Ukrainian
Service kind : Complete Main
Default : No
Forced : No

Audio #7
ID : 8
Format : AC-3
Format/Info : Audio Coding 3
Commercial name : Dolby Digital
Codec ID : A_AC3
Duration : 1 h 39 min
Bit rate mode : Constant
Bit rate : 640 kb/s
Channel(s) : 6 channels
Channel layout : L R C LFE Ls Rs
Sampling rate : 48.0 kHz
Frame rate : 31.250 FPS (1536 SPF)
Compression mode : Lossy
Stream size : 455 MiB (6%)
Title : AC-3 / 5.1 Ch / 640 kbps / Original
Language : Chinese
Service kind : Complete Main
Default : No
Forced : No

Audio #8
ID : 9
Format : AC-3
Format/Info : Audio Coding 3
Commercial name : Dolby Digital
Format settings : Dolby Surround
Codec ID : A_AC3
Duration : 1 h 39 min
Bit rate mode : Constant
Bit rate : 192 kb/s
Channel(s) : 2 channels
Channel layout : L R
Sampling rate : 48.0 kHz
Frame rate : 31.250 FPS (1536 SPF)
Compression mode : Lossy
Stream size : 137 MiB (2%)
Title : AC-3 / 2.0 Ch / 192 kbps / Original / Commentary with Stephen Chow, Chan Kwok-kwan, Lam Tze-chung and Tin Kai-man
Language : Chinese
Service kind : Complete Main
Default : No
Forced : No

Text #1
ID : 10
Format : UTF-8
Codec ID : S_TEXT/UTF8
Codec ID/Info : UTF-8 Plain Text
Duration : 1 h 35 min
Bit rate : 53 b/s
Count of elements : 658
Stream size : 37.6 KiB (0%)
Title : Full
Language : Russian
Default : No
Forced : No

Text #2
ID : 11
Format : UTF-8
Codec ID : S_TEXT/UTF8
Codec ID/Info : UTF-8 Plain Text
Duration : 1 h 33 min
Bit rate : 49 b/s
Count of elements : 607
Stream size : 34.2 KiB (0%)
Title : Full
Language : Russian
Default : No
Forced : No

Text #3
ID : 12
Format : UTF-8
Codec ID : S_TEXT/UTF8
Codec ID/Info : UTF-8 Plain Text
Duration : 1 h 33 min
Bit rate : 49 b/s
Count of elements : 608
Stream size : 33.6 KiB (0%)
Title : Full
Language : Russian
Default : No
Forced : No

Text #4
ID : 13
Format : UTF-8
Codec ID : S_TEXT/UTF8
Codec ID/Info : UTF-8 Plain Text
Duration : 1 h 33 min
Bit rate : 1 b/s
Count of elements : 33
Stream size : 1.34 KiB (0%)
Title : Forced
Language : Ukrainian
Default : No
Forced : No

Text #5
ID : 14
Format : UTF-8
Codec ID : S_TEXT/UTF8
Codec ID/Info : UTF-8 Plain Text
Duration : 1 h 37 min
Bit rate : 42 b/s
Count of elements : 641
Stream size : 30.2 KiB (0%)
Title : Full from Netflix
Language : Ukrainian
Default : No
Forced : No

Text #6
ID : 15
Format : UTF-8
Codec ID : S_TEXT/UTF8
Codec ID/Info : UTF-8 Plain Text
Duration : 1 h 33 min
Bit rate : 25 b/s
Count of elements : 609
Stream size : 17.6 KiB (0%)
Title : Full
Language : English
Default : No
Forced : No

Text #7
ID : 16
Format : UTF-8
Codec ID : S_TEXT/UTF8
Codec ID/Info : UTF-8 Plain Text
Duration : 1 h 34 min
Bit rate : 29 b/s
Count of elements : 1194
Stream size : 20.3 KiB (0%)
Title : SDH
Language : English
Default : No
Forced : No

Text #8
ID : 17
Format : UTF-8
Codec ID : S_TEXT/UTF8
Codec ID/Info : UTF-8 Plain Text
Duration : 1 h 35 min
Bit rate : 76 b/s
Count of elements : 1426
Stream size : 53.3 KiB (0%)
Title : Commentary with Stephen Chow, Chan Kwok-kwan, Lam Tze-chung and Tin Kai-man
Language : English
Default : No
Forced : No

Menu
00:00:00.000 : en:Opening
00:01:15.825 : en:Police Station
00:03:03.433 : en:The Axe Gang
00:06:58.000 : en:Pig Sty Alley
00:12:24.242 : en:Sing and Bone
00:16:58.308 : en:Firecracker
00:19:44.850 : en:The Axe Gang Invades
00:21:35.293 : en:The First Master
00:22:36.604 : en:The Second Master
00:23:37.332 : en:The Third Master
00:24:48.027 : en:A Second Chance
00:28:09.187 : en:Learning Kung Fu
00:30:24.447 : en:Ice Cream Girl
00:31:14.331 : en:Community Meeting
00:33:34.471 : en:A Comedy of Errors
00:35:37.135 : en:The Chase Is On!
00:36:48.539 : en:Burgeoning Power
00:38:48.784 : en:"Horrifically Bad Fate"
00:39:09.806 : en:The Blind Musicians
00:40:37.143 : en:A Brief Sparring Match
00:41:57.723 : en:Assassination
00:43:38.741 : en:Surprise Attack
00:45:02.158 : en:Mystical Guzheng
00:49:18.455 : en:The Hidden Masters
00:51:27.918 : en:Lion's Roar
00:54:14.877 : en:"In Great Power Lies Great Responsbility"
00:56:31.221 : en:"Four-Eyes"
00:57:46.296 : en:The Lollipop
01:01:04.952 : en:"An Assignment"
01:05:06.319 : en:The Beast
01:08:34.026 : en:Confrontation of the Masters
01:13:25.526 : en:Funeral Bell
01:15:12.800 : en:Tangled Up
01:18:12.729 : en:"Any Last Requests?"
01:19:55.540 : en:The Beast Arrives
01:20:18.230 : en:Metamorphosis
01:22:39.371 : en:"The One"
01:25:46.725 : en:The Final Battle
01:27:05.387 : en:Toad Style of Kwan Lun School
01:29:07.634 : en:Ascension
01:29:45.547 : en:Buddhist Palm
01:31:45.041 : en:"Master"
01:32:23.955 : en:Reunion
01:35:00.736 : en:End Credits
Загрузка...Cкриншот1 Разборки в стиле Кунг-фу / Kung fu (2004) [USA Transfer] BDRip 1080p [HEVC] 10 bit от -Star-Lord- (RG RIPS CLUB)Загрузка...Cкриншот2 Разборки в стиле Кунг-фу / Kung fu (2004) [USA Transfer] BDRip 1080p [HEVC] 10 bit от -Star-Lord- (RG RIPS CLUB)Загрузка...Cкриншот3 Разборки в стиле Кунг-фу / Kung fu (2004) [USA Transfer] BDRip 1080p [HEVC] 10 bit от -Star-Lord- (RG RIPS CLUB)Загрузка...Cкриншот4 Разборки в стиле Кунг-фу / Kung fu (2004) [USA Transfer] BDRip 1080p [HEVC] 10 bit от -Star-Lord- (RG RIPS CLUB)
Релиз-группа: RIPS CLUB
Сэмпл Торрент🧲 Магнет

Рейтинги КП и IMDB, кнопки "Позвать в чате" и "Спасибо", а также мультитрекерная статистика доступны только зарегистрированным/авторизованным пользователям!

Файлы: 1
  • Kung Fu (2004) [USA Transfer] BDRip 1080p H.265 [5xRUS_UKR_CHI] [RIPS-CLUB].mkv   6.88 ГБ
Поблагодарили: 12
alexyak, Beebo, Diman, donadar, Elico1977, Flann, FREAD, Giggalo, Kiran, makss333, MIGRANT, Rexfire
StarLord
31031716.88 ГБ

Добавление нового комментария

Добавление комментариев доступно только зарегистрированным/авторизованным пользователям.
Аватар Flann
  Flann  
👍
Аватар StarLord
  StarLord  
MIGRANT писал(а):
Наконец-то! Даже не ожидал этот фильм! Благодарю!!!
Пожалуйста 😊
Аватар не указан
  MIGRANT  
Наконец-то! Даже не ожидал этот фильм! Благодарю!!!