💬 Мини-чат

OldGamerНасколько я помню, даже мой первый стик 2014 года тянул hevc, хотя и подтупливал на перемотке
OldGamerВыбирайте по цене и отзывам.
OldGamerСообщение удалено (удалил: OldGamer)
OldGamerЛюбой, всё что выпускалось за последние 3 года, вполне тянет hevc. Чуть раньше в чате ссылку давал на обсуждения на 4пда.
SAHA55Подскажите,пожалуйста какой купить медио плеер для просмотра видео в HEVC x265 с переносного жёсткого на 1 Тб. TV старый Panasonic
  • ancestor87
  • abtr
  • Blaster
  • cdmitry
  • sethsrt srt
Отправка сообщений доступна только зарегистрированным/авторизованным пользователям.
Онлайн (за 10 мин.): 5

Пацаны / The Boys (2020) [2 сезон] BDRip 1080p [HEVC] 10 bit от OldGamer (RG RIPS CLUB)

HEVC
10 bit
Обложка Пацаны / The Boys (2020) [2 сезон] BDRip 1080p [HEVC] 10 bit от OldGamer (RG RIPS CLUB) Год: 2020
Страна: США
Студия: Amazon Studios, Original Film, Point Grey Pictures, Sony Pictures Television
Жанр: Фантастика, Боевик, Драма, Криминал
Продолжительность: 08:15:30

Режиссер: Филип Сгриккиа, Стефан Шварц, Фред Туа
В ролях: Карл Урбан, Джек Куэйд, Энтони Старр, Эрин Мориарти, Доминик МакЭллигот, Джесси Ашер, Лас Алонсо, Чейс Кроуфорд, Томер Капон, Карен Фукухара

Описание: События второго сезона разворачиваются почти сразу после концовки первого. Супергероине Звезде чудом удаётся избежать разоблачения, и она остаётся в «Семёрке», но уже как двойной агент. Билли "Мясник" Бутчер просыпается где-то в глуши, зная, что его жена жива и растит ребёнка от насильника. Французик, Молоко Мамки и Хьюи пытаются выбраться из места, где никогда не светит солнце (метафорически и не очень). Ну а Патриот пробует себя в роли отца, которая оказывается куда сложнее привычного амплуа спасителя всея Америки. К тому же стараниями Звезды и «Пацанов» люди узнают о существовании препарата V, и одна ушлая конгрессвумен на этом фоне начинает кампанию против Vought. А в «Семёрку» попадает новая супергероиня — Гроза, которая отбирает у Патриота звание любимчика публики. Словом, всё идёт наперекосяк. Сможет ли глава местной Лиги справедливости при всей своей силе восстановить статус-кво?


Исходник: Blu-Ray Remux 1080p (PmP)
Видео: 1920x804 (2.40:1), 4174-7779 Кбит/сек, HEVC (Main10@L.4.1@High)
Аудио1: AC3, 6 ch, 640 Kbps - РусскийРусский, Многоголосый (LostFIlm)
Аудио2: AC3, 6 ch, 640 Kbps - РусскийРусский, Многоголосый (AlexFilm, без цензуры)
Аудио3: AC3, 6 ch, 640 Kbps - РусскийРусский, Многоголосый (Jaskier, без цензуры)
Аудио4: AC3, 6 ch, 384 Kbps - РусскийРусский, Многоголосый (TVShows)
Аудио5: AC3, 6 ch, 384 Kbps - РусскийРусский, Многоголосый (NewStudio, без цензуры)
Аудио6: AC3, 6 ch, 640 Kbps - РусскийРусский, Двухголосый (Кубик в Кубе, без цензуры)
Аудио7: E-AC3, 6 ch, 640 Kbps - EnglishEnglish, Original
Субтитры: Русские полные (SRT), English full (SRT)

Как за пару секунд удалить ненужные аудиодорожки и субтитры (Внимание! После удаления вы не сможете поддержать раздачу)

Лог (x265 info)
x265 [info]: frame I: 392, Avg QP:16.48 kb/s: 17744.50
x265 [info]: frame P: 15250, Avg QP:17.83 kb/s: 12425.65
x265 [info]: frame B: 77876, Avg QP:19.93 kb/s: 4665.30
x265 [info]: Weighted P-Frames: Y:2.0% UV:1.6%
x265 [info]: Weighted B-Frames: Y:1.9% UV:1.4%
x265 [info]: consecutive B-frames: 3.2% 2.8% 5.3% 25.1% 9.4% 17.9% 5.6% 20.4% 2.5% 1.5% 1.0% 3.9% 0.3% 0.2% 0.2% 0.4% 0.3%
x265 [info]: encoded 93518 frames in 47324.82s (1.98 fps), 5985.61 kb/s, Avg QP:19.57
Медиаинфо
Общее
Уникальный идентификатор : 334013588391506104134334891962437627365 (0xFB48AD5B1D40DF7BD3768806CC926DE5)
Полное имя : \\.\Пацаны.The.Boys.S02.BDRip-HEVC.1080p\The.Boys.S02E06.The.Bloody.Doors.Off.mkv
Формат : Matroska
Версия формата : Version 4
Размер файла : 4,52 Гбайт
Продолжительность : 1 ч. 5 м.
Общий поток : 9 957 Кбит/сек
Название фильма : The.Boys.S02E06.The.Bloody.Doors.Off
Трек/Положение : 6
Трек/Всего : 8
Дата кодирования : UTC 2021-07-15 14:03:22
Программа кодирования : mkvmerge v58.0.0 ('Supper's Ready') 64-bit
Библиотека кодирования : libebml v1.4.2 + libmatroska v1.6.4
IMDB : tt11997262
TMDB : tv/76479
TVDB : 355567

Видео
Идентификатор : 1
Формат : HEVC
Формат/Информация : High Efficiency Video Coding
Профиль формата : Main 10@L4.1@High
Идентификатор кодека : V_MPEGH/ISO/HEVC
Продолжительность : 1 ч. 5 м.
Битрейт : 5 986 Кбит/сек
Ширина : 1 920 пикселей
Высота : 804 пикселя
Соотношение сторон : 2,40:1
Режим частоты кадров : Постоянный
Частота кадров : 23,976 (24000/1001) кадра/сек
Цветовое пространство : YUV
Субдискретизация насыщенности : 4:2:0
Битовая глубина : 10 бит
Бит/(Пиксели*Кадры) : 0.162
Размер потока : 2,72 Гбайт (60%)
Заголовок : The.Boys.S02E06.The.Bloody.Doors.Off / Rip by OldGamer
Библиотека кодирования : x265 3.5+9-bf91444e0:[Windows][GCC 10.2.1][64 bit] 10bit
Настройки программы : cpuid=1111039 / frame-threads=3 / numa-pools=8 / wpp / no-pmode / no-pme / no-psnr / no-ssim / log-level=2 / input-csp=1 / input-res=1920x804 / interlace=0 / total-frames=93518 / level-idc=41 / high-tier=1 / uhd-bd=0 / ref=5 / no-allow-non-conformance / no-repeat-headers / annexb / no-aud / no-eob / no-eos / no-hrd / info / hash=0 / no-temporal-layers / open-gop / min-keyint=23 / keyint=240 / gop-lookahead=0 / bframes=16 / b-adapt=2 / b-pyramid / bframe-bias=0 / rc-lookahead=40 / lookahead-slices=0 / scenecut=40 / hist-scenecut=0 / radl=0 / no-splice / no-intra-refresh / ctu=32 / min-cu-size=8 / rect / amp / max-tu-size=32 / tu-inter-depth=4 / tu-intra-depth=4 / limit-tu=1 / rdoq-level=2 / dynamic-rd=0.00 / no-ssim-rd / signhide / no-tskip / nr-intra=0 / nr-inter=0 / no-constrained-intra / no-strong-intra-smoothing / max-merge=5 / limit-refs=3 / no-limit-modes / me=3 / subme=7 / merange=57 / temporal-mvp / no-frame-dup / no-hme / weightp / weightb / no-analyze-src-pics / deblock=-3:-3 / no-sao / no-sao-non-deblock / rd=6 / selective-sao=0 / no-early-skip / rskip / no-fast-intra / no-tskip-fast / no-cu-lossless / b-intra / no-splitrd-skip / rdpenalty=0 / psy-rd=2.00 / psy-rdoq=1.00 / no-rd-refine / no-lossless / cbqpoffs=0 / crqpoffs=0 / rc=crf / crf=18.3 / qcomp=0.70 / qpstep=4 / stats-write=0 / stats-read=0 / vbv-maxrate=50000 / vbv-bufsize=50000 / vbv-init=0.9 / min-vbv-fullness=50.0 / max-vbv-fullness=80.0 / crf-max=0.0 / crf-min=0.0 / ipratio=1.40 / pbratio=1.30 / aq-mode=4 / aq-strength=0.80 / no-cutree / zone-count=1 / zones: / start-frame=90551 / end-frame=93518 / qp=36 / no-strict-cbr / qg-size=32 / no-rc-grain / qpmax=69 / qpmin=0 / no-const-vbv / sar=1 / overscan=0 / videoformat=5 / range=0 / colorprim=2 / transfer=2 / colormatrix=2 / chromaloc=0 / display-window=0 / cll=0,0 / min-luma=0 / max-luma=1023 / log2-max-poc-lsb=8 / vui-timing-info / vui-hrd-info / slices=1 / no-opt-qp-pps / no-opt-ref-list-length-pps / no-multi-pass-opt-rps / scenecut-bias=0.00 / hist-threshold=0.03 / no-opt-cu-delta-qp / no-aq-motion / no-hdr10 / no-hdr10-opt / no-dhdr10-opt / no-idr-recovery-sei / analysis-reuse-level=0 / analysis-save-reuse-level=0 / analysis-load-reuse-level=0 / scale-factor=0 / refine-intra=0 / refine-inter=0 / refine-mv=1 / refine-ctu-distortion=0 / no-limit-sao / ctu-info=0 / no-lowpass-dct / refine-analysis-type=0 / copy-pic=1 / max-ausize-factor=1.0 / no-dynamic-refine / no-single-sei / no-hevc-aq / no-svt / no-field / qp-adaptation-range=1.00 / scenecut-aware-qp=0conformance-window-offsets / right=0 / bottom=0 / decoder-max-rate=0 / no-vbv-live-multi-pass
Язык : English
Default : Да
Forced : Нет

Аудио #1
Идентификатор : 2
Формат : AC-3
Формат/Информация : Audio Coding 3
Коммерческое название : Dolby Digital
Идентификатор кодека : A_AC3
Продолжительность : 1 ч. 4 м.
Вид битрейта : Постоянный
Битрейт : 640 Кбит/сек
Каналы : 6 каналов
Channel layout : L R C LFE Ls Rs
Частота : 48,0 КГц
Частота кадров : 31,250 кадров/сек (1536 SPF)
Метод сжатия : С потерями
Задержка видео : 24 мс.
Размер потока : 297 Мбайт (6%)
Заголовок : MVO (LostFIlm)
Язык : Russian
Service kind : Complete Main
Default : Да
Forced : Нет

Аудио #2
Идентификатор : 3
Формат : AC-3
Формат/Информация : Audio Coding 3
Коммерческое название : Dolby Digital
Идентификатор кодека : A_AC3
Продолжительность : 1 ч. 4 м.
Вид битрейта : Постоянный
Битрейт : 640 Кбит/сек
Каналы : 6 каналов
Channel layout : L R C LFE Ls Rs
Частота : 48,0 КГц
Частота кадров : 31,250 кадров/сек (1536 SPF)
Метод сжатия : С потерями
Задержка видео : 24 мс.
Размер потока : 297 Мбайт (6%)
Заголовок : MVO (AlexFilm, без цензуры)
Язык : Russian
Service kind : Complete Main
Default : Нет
Forced : Нет

Аудио #3
Идентификатор : 4
Формат : AC-3
Формат/Информация : Audio Coding 3
Коммерческое название : Dolby Digital
Идентификатор кодека : A_AC3
Продолжительность : 1 ч. 4 м.
Вид битрейта : Постоянный
Битрейт : 640 Кбит/сек
Каналы : 6 каналов
Channel layout : L R C LFE Ls Rs
Частота : 48,0 КГц
Частота кадров : 31,250 кадров/сек (1536 SPF)
Метод сжатия : С потерями
Задержка видео : 24 мс.
Размер потока : 297 Мбайт (6%)
Заголовок : MVO (Jaskier, без цензуры)
Язык : Russian
Service kind : Complete Main
Default : Нет
Forced : Нет

Аудио #4
Идентификатор : 5
Формат : AC-3
Формат/Информация : Audio Coding 3
Коммерческое название : Dolby Digital
Идентификатор кодека : A_AC3
Продолжительность : 1 ч. 4 м.
Вид битрейта : Постоянный
Битрейт : 384 Кбит/сек
Каналы : 6 каналов
Channel layout : L R C LFE Ls Rs
Частота : 48,0 КГц
Частота кадров : 31,250 кадров/сек (1536 SPF)
Метод сжатия : С потерями
Задержка видео : 24 мс.
Размер потока : 178 Мбайт (4%)
Заголовок : MVO (TVShows)
Язык : Russian
Service kind : Complete Main
Default : Нет
Forced : Нет

Аудио #5
Идентификатор : 6
Формат : AC-3
Формат/Информация : Audio Coding 3
Коммерческое название : Dolby Digital
Идентификатор кодека : A_AC3
Продолжительность : 1 ч. 4 м.
Вид битрейта : Постоянный
Битрейт : 384 Кбит/сек
Каналы : 6 каналов
Channel layout : L R C LFE Ls Rs
Частота : 48,0 КГц
Частота кадров : 31,250 кадров/сек (1536 SPF)
Метод сжатия : С потерями
Задержка видео : 24 мс.
Размер потока : 178 Мбайт (4%)
Заголовок : MVO (NewStudio, без цензуры)
Язык : Russian
Service kind : Complete Main
Default : Нет
Forced : Нет

Аудио #6
Идентификатор : 7
Формат : AC-3
Формат/Информация : Audio Coding 3
Коммерческое название : Dolby Digital
Идентификатор кодека : A_AC3
Продолжительность : 1 ч. 4 м.
Вид битрейта : Постоянный
Битрейт : 640 Кбит/сек
Каналы : 6 каналов
Channel layout : L R C LFE Ls Rs
Частота : 48,0 КГц
Частота кадров : 31,250 кадров/сек (1536 SPF)
Метод сжатия : С потерями
Задержка видео : 24 мс.
Размер потока : 297 Мбайт (6%)
Заголовок : DVO (Кубик в Кубе, без цензуры)
Язык : Russian
Service kind : Complete Main
Default : Нет
Forced : Нет

Аудио #7
Идентификатор : 8
Формат : E-AC-3
Формат/Информация : Enhanced AC-3
Коммерческое название : Dolby Digital Plus
Идентификатор кодека : A_EAC3
Продолжительность : 1 ч. 4 м.
Вид битрейта : Постоянный
Битрейт : 640 Кбит/сек
Каналы : 6 каналов
Channel layout : L R C LFE Ls Rs
Частота : 48,0 КГц
Частота кадров : 31,250 кадров/сек (1536 SPF)
Метод сжатия : С потерями
Задержка видео : 24 мс.
Размер потока : 297 Мбайт (6%)
Язык : English
Service kind : Complete Main
Default : Нет
Forced : Нет

Текст #1
Идентификатор : 9
Формат : UTF-8
Идентификатор кодека : S_TEXT/UTF8
Идентификатор кодека/Информация : UTF-8 Plain Text
Продолжительность : 1 ч. 4 м.
Битрейт : 83 бит/сек
Count of elements : 786
Размер потока : 39,4 Кбайт (0%)
Язык : Russian
Default : Нет
Forced : Нет

Текст #2
Идентификатор : 10
Формат : UTF-8
Идентификатор кодека : S_TEXT/UTF8
Идентификатор кодека/Информация : UTF-8 Plain Text
Продолжительность : 1 ч. 4 м.
Битрейт : 65 бит/сек
Count of elements : 1148
Размер потока : 30,8 Кбайт (0%)
Заголовок : UK [CC]
Язык : English
Default : Нет
Forced : Нет

Текст #3
Идентификатор : 11
Формат : UTF-8
Идентификатор кодека : S_TEXT/UTF8
Идентификатор кодека/Информация : UTF-8 Plain Text
Продолжительность : 1 ч. 4 м.
Битрейт : 65 бит/сек
Count of elements : 1148
Размер потока : 30,8 Кбайт (0%)
Заголовок : [CC]
Язык : English
Default : Нет
Forced : Нет

Меню
00:00:00.000 : Chapter 1
00:00:51.468 : Chapter 2
00:05:42.967 : Chapter 3
00:10:15.197 : Chapter 4
00:19:53.775 : Chapter 5
00:29:58.755 : Chapter 6
00:39:41.462 : Chapter 7
00:50:54.760 : Chapter 8
01:02:58.441 : Chapter 9
Загрузка...Cкриншот1 Пацаны / The Boys (2020) [2 сезон] BDRip 1080p [HEVC] 10 bit от OldGamer (RG RIPS CLUB)Загрузка...Cкриншот2 Пацаны / The Boys (2020) [2 сезон] BDRip 1080p [HEVC] 10 bit от OldGamer (RG RIPS CLUB)Загрузка...Cкриншот3 Пацаны / The Boys (2020) [2 сезон] BDRip 1080p [HEVC] 10 bit от OldGamer (RG RIPS CLUB)Загрузка...Cкриншот4 Пацаны / The Boys (2020) [2 сезон] BDRip 1080p [HEVC] 10 bit от OldGamer (RG RIPS CLUB)
Релиз-группа: RIPS CLUB
Сэмпл Торрент🧲 Магнет

Рейтинги КП и IMDB, кнопки "Позвать в чате" и "Спасибо", а также мультитрекерная статистика доступны только зарегистрированным/авторизованным пользователям!

Файлы: 8
  • Пацаны.The.Boys.S02.BDRip-HEVC.1080p
    • The.Boys.S02E01.The.Big.Ride.mkv   3.57 ГБ
    • The.Boys.S02E02.Proper.Preparation.and.Planning.mkv   4.19 ГБ
    • The.Boys.S02E03.Over.the.Hill.with.the.Swords.of.a.Thousand.Men.mkv   3.46 ГБ
    • The.Boys.S02E04.Nothing.Like.It.in.the.World.mkv   4 ГБ
    • The.Boys.S02E05.We.Gotta.Go.Now.mkv   3.94 ГБ
    • The.Boys.S02E06.The.Bloody.Doors.Off.mkv   4.52 ГБ
    • The.Boys.S02E07.Butcher.Baker.Candlestick.Maker.mkv   4.46 ГБ
    • The.Boys.S02E08.What.I.Know.mkv   5.27 ГБ
Поблагодарили: 2
GIS88, sergeich
OldGamer
099122 (8)  33.42 ГБ

Добавление нового комментария

Добавление комментариев доступно только зарегистрированным/авторизованным пользователям.